osu file format v5

[General]
AudioFilename: Savage Garden - I Want You.mp3
AudioLeadIn: 0
PreviewTime: 51586
Countdown: 1
SampleSet: Soft
StackLeniency: 0.7
Mode: 0
LetterboxInBreaks: 1
EditorDistanceSpacing: 1

[Metadata]
Title:I Want You
Artist:Savage Garden
Creator:mtmcl
Version:Simple
Source:
Tags:

[Difficulty]
HPDrainRate:3
CircleSize:3
OverallDifficulty:3
SliderMultiplier:1.5
SliderTickRate:2

[Events]
//Background and Video events
0,0,"iwantyou.jpg"
//Break Periods
2,67701,70569
2,115025,122400
2,157842,185498
//Storyboard Layer 0 (Background)
//Storyboard Layer 1 (Failing)
//Storyboard Layer 2 (Passing)
//Storyboard Layer 3 (Foreground)
//Storyboard Sound Samples
//Background Colour Transformations
3,100,163,162,255

[TimingPoints]
2150,563.380281690141,4,2,0,70,1,0

[Colours]
Combo1 : 128,64,0
Combo2 : 0,0,64
Combo3 : 0,64,64
Combo4 : 64,0,0

[HitObjects]
408,192,24685,1,0
256,192,25248,1,0
104,192,25811,1,0
104,40,26375,2,4,L|184:40,2,75
104,192,27502,5,0
104,344,28065,1,0
256,344,28628,2,4,L|256:248,2,75
408,344,29755,5,0
408,192,30319,1,0
256,192,30882,1,0
104,192,31445,1,4
104,40,32009,1,4
256,40,32572,1,8
416,40,33135,2,8,L|416:136,2,75
416,192,34262,5,0
416,344,34826,1,0
264,344,35389,2,4,L|168:344,2,75
264,192,36516,5,0
264,40,37079,1,0
112,40,37642,2,4,L|112:120,2,75
112,192,38769,5,0
112,344,39333,1,4
264,344,39896,1,4
264,192,40459,2,8,L|264:104,2,75
416,192,41586,2,8,L|416:104,3,75
200,192,43276,5,0
48,192,43840,2,4,L|48:112,2,75
48,344,44966,5,0
200,344,45530,1,0
352,344,46093,2,4,L|264:344,2,75
352,192,47220,5,0
200,192,47783,1,0
200,40,48347,2,4,L|280:40,2,75
200,192,49473,6,14,L|200:352,3,150
256,192,51727,6,0,L|416:192,1,150,4|8
408,40,52854,2,0,L|248:40,1,150,4|8
104,40,53980,2,0,L|104:200,1,150,4|8
104,304,55107,2,0,L|256:304,1,150,4|8
256,152,56234,6,0,L|256:0,1,150,4|8
176,136,57361,2,4,L|176:296,2,150
256,192,60741,6,0,L|336:192|336:104,1,150,4|8
288,272,61868,2,0,L|288:360|368:360,1,150,4|8
208,296,62995,2,0,L|120:296|120:216,1,150,4|8
208,104,64121,2,0,L|360:104,1,150,4|8
256,208,65248,6,0,L|256:360,1,150,4|8
336,240,66375,2,4,L|336:88,2,150
104,192,72009,5,0
256,192,72572,1,0
408,192,73135,1,0
408,344,73699,2,4,L|328:344,2,75
408,192,74826,5,0
408,40,75389,1,0
256,40,75952,2,4,L|256:136,2,75
104,40,77079,5,0
104,192,77643,1,0
256,192,78206,1,0
408,192,78769,1,4
408,344,79333,1,4
256,344,79896,1,8
96,344,80459,2,8,L|96:248,2,75
96,192,81586,5,0
96,40,82150,1,0
248,40,82713,2,4,L|344:40,2,75
248,192,83840,5,0
248,344,84403,1,0
400,344,84966,2,4,L|400:264,2,75
400,192,86093,5,0
400,40,86657,1,4
248,40,87220,1,4
248,192,87783,2,8,L|248:280,2,75
96,192,88910,2,8,L|96:280,3,75
312,192,90600,5,0
464,192,91164,2,4,L|464:272,2,75
464,40,92290,5,0
312,40,92854,1,0
160,40,93417,2,4,L|248:40,2,75
160,192,94544,5,0
312,192,95107,1,0
312,344,95671,2,4,L|232:344,2,75
312,192,96797,6,14,L|312:32,3,150
256,192,99051,6,0,L|96:192,1,150,4|8
104,344,100178,2,0,L|264:344,1,150,4|8
408,344,101304,2,0,L|408:184,1,150,4|8
408,80,102431,2,0,L|256:80,1,150,4|8
256,208,103558,6,0,L|256:360,1,150,4|8
336,248,104685,2,4,L|336:88,2,150
256,192,108065,6,0,L|176:192|176:280,1,150,4|8
224,112,109192,2,0,L|224:24|144:24,1,150,4|8
304,88,110319,2,0,L|392:88|392:168,1,150,4|8
304,280,111445,2,0,L|152:280,1,150,4|8
256,160,112572,6,0,L|256:8,1,150,4|8
176,144,113699,2,4,L|176:296,2,150
256,192,123840,5,0
104,192,124403,1,0
104,40,124966,1,0
256,40,125530,1,4
256,40,125811,1,4
256,40,126093,1,4
408,40,126657,5,0
408,192,127220,1,0
256,192,127783,1,4
256,192,128065,1,4
256,192,128347,1,4
104,192,128910,5,0
104,344,129473,1,0
256,344,130037,1,0
408,344,130600,1,4
408,192,131164,1,4
408,40,131727,2,0,L|320:40,3,75
104,40,133417,5,0
104,192,133980,1,0
256,192,134544,2,4,L|176:192,2,75
408,192,135671,5,0
408,344,136234,1,0
256,344,136797,1,4
256,344,137078,1,4
256,344,137361,1,4
256,192,137924,5,0
256,40,138488,1,8
256,40,138769,1,8
256,40,139051,1,8
408,40,139614,1,8
408,40,139896,1,8
408,40,140178,1,8
408,192,140741,2,4,L|488:192,2,75
256,192,141868,6,0,L|104:192,1,150
104,40,142995,2,0,L|256:40,1,150,4|8
256,192,144121,2,0,L|408:192,1,150
408,40,145248,2,0,L|256:40,1,150,4|8
104,40,146375,6,0,L|104:200,1,150
104,344,147502,2,4,L|264:344,2,150
256,192,150882,6,0,L|256:344,1,150,4|8
104,344,152009,2,0,L|104:192,1,150
256,192,153135,2,0,L|256:40,1,150,4|8
104,40,154262,2,0,L|104:192,1,150
104,344,155389,6,0,L|264:344,1,150,4|8
408,344,156516,2,4,L|408:184,2,150
256,192,186938,6,0,L|416:192,1,150,4|8
408,40,188065,2,0,L|248:40,1,150,4|8
104,40,189191,2,0,L|104:200,1,150,4|8
104,304,190318,2,0,L|256:304,1,150,4|8
256,152,191445,6,0,L|256:0,1,150,4|8
176,136,192572,2,4,L|176:296,2,150
256,192,195952,6,0,L|336:192|336:104,1,150,4|8
288,272,197079,2,0,L|288:360|368:360,1,150,4|8
208,296,198206,2,0,L|120:296|120:216,1,150,4|8
208,104,199332,2,0,L|360:104,1,150,4|8
256,208,200459,6,0,L|256:360,1,150,4|8
336,240,201586,2,4,L|336:88,2,150
256,192,204966,6,0,L|104:192,1,150
104,40,206093,2,0,L|256:40,1,150,4|8
256,192,207219,2,0,L|408:192,1,150
408,40,208346,2,0,L|256:40,1,150,4|8
104,40,209473,6,0,L|104:200,1,150
104,344,210600,2,4,L|264:344,2,150
256,192,213980,6,0,L|256:344,1,150,4|8
104,344,215107,2,0,L|104:192,1,150
256,192,216233,2,0,L|256:40,1,150,4|8
104,40,217360,2,0,L|104:192,1,150
256,192,218206,12,4,220741
