osu file format v5

[General]
AudioFilename: Savage Garden - I Want You.mp3
AudioLeadIn: 0
PreviewTime: 51586
Countdown: 1
SampleSet: Soft
StackLeniency: 0.7
Mode: 0
LetterboxInBreaks: 1
EditorDistanceSpacing: 1.5

[Metadata]
Title:I Want You
Artist:Savage Garden
Creator:mtmcl
Version:Ridiculous
Source:
Tags:

[Difficulty]
HPDrainRate:6
CircleSize:5
OverallDifficulty:6
SliderMultiplier:2.5
SliderTickRate:4

[Events]
//Background and Video events
0,0,"iwantyou.jpg"
//Break Periods
2,67561,70959
2,114885,122790
2,157702,185888
//Storyboard Layer 0 (Background)
//Storyboard Layer 1 (Fail)
//Storyboard Layer 2 (Pass)
//Storyboard Layer 3 (Foreground)
//Storyboard Sound Samples
//Background Colour Transformations
3,100,163,162,255

[TimingPoints]
2150,563.380281690141,4,2,0,70,1,0

[Colours]
Combo1 : 128,64,0
Combo2 : 0,0,64
Combo3 : 0,64,64
Combo4 : 64,0,0

[HitObjects]
256,192,24685,2,2,L|256:120,1,62.5
256,256,24966,2,2,L|336:256,1,62.5
192,256,25248,2,2,L|192:328,1,62.5
192,192,25530,2,8,L|112:192,1,62.5
256,192,25811,2,8,L|328:192,2,62.5
256,64,26234,5,4
256,312,26516,5,4
256,64,26797,5,4
472,192,27079,5,0
344,192,27220,1,0
216,192,27361,1,0
88,192,27502,2,2,L|88:120,1,62.5
88,256,27783,2,2,L|88:336,1,62.5
216,320,28065,2,8,L|216:256,2,62.5
256,200,28488,6,4,L|256:64,2,125
8,200,29333,5,0
128,200,29473,1,0
256,200,29614,2,2,L|256:72,2,125
504,200,30459,5,0
376,200,30600,2,2,L|376:128,1,62.5
248,136,30882,2,2,L|320:136,1,62.5
312,8,31164,2,8,L|312:80,1,62.5
440,72,31445,2,8,L|368:72,2,62.5
440,200,31868,1,8
192,200,32150,5,0
64,200,32290,2,0,L|64:264,1,62.5
192,264,32572,2,8,L|120:264,1,62.5
128,136,32854,2,8,L|128:208,1,62.5
128,72,33135,2,4,L|264:72,1,125
472,192,33699,5,2
472,64,33840,1,2
352,64,33980,1,2
352,192,34121,1,2
232,192,34262,2,2,L|296:192,1,62.5
296,320,34544,2,8,L|296:232,1,62.5
56,192,34966,6,8,L|120:192,2,62.5,8|8|4
304,192,35530,5,4
496,352,35811,5,4
496,104,36093,5,0
368,104,36234,2,2,L|448:104,1,62.5
432,232,36516,2,2,L|352:232,1,62.5
368,360,36797,2,2,L|440:360,1,62.5
176,360,37220,6,0,L|176:296,1,62.5
176,168,37502,5,4
424,168,37783,5,4
296,384,38065,5,4
304,136,38347,5,0
304,8,38488,2,2,L|304:80,1,62.5
432,72,38769,1,0
184,72,39051,1,0
56,72,39192,1,0
56,200,39333,1,0
176,200,39473,2,2,L|240:200,2,62.5
424,200,40037,5,0
296,200,40178,1,0
296,328,40319,1,8
48,328,40600,5,8
176,328,40741,1,8
176,200,40882,1,8
48,200,41023,1,8
296,200,41304,5,0
424,200,41445,2,4,L|352:200,1,62.5,0|4
112,200,41868,5,4
112,72,42009,2,4,L|112:136,1,62.5
360,144,42431,5,4
112,352,42995,5,0
360,352,43276,1,0
168,192,43558,2,8,L|248:192,1,62.5
480,192,43980,2,8,L|360:192,1,62.5
232,24,44403,1,4
480,24,44685,1,4
80,328,45248,5,0
80,80,45530,1,0
304,192,45811,2,8,L|200:192,1,62.5
488,192,46234,2,8,L|408:192,1,62.5
176,192,46657,1,4
424,192,46938,1,4
24,24,47502,5,0
24,272,47783,1,0
272,272,48065,2,8,L|200:272,1,62.5
456,272,48488,2,8,L|456:208,1,62.5
272,32,48910,1,2
24,32,49192,1,2
0,256,49473,6,12,L|0:120,1,125
320,368,50037,6,12,L|176:368,1,125
512,128,50600,6,12,L|512:272,1,125
192,0,51164,6,12,L|344:0,1,125
64,0,51727,5,0
488,264,52290,2,2,L|488:200|424:200|424:128|424:128,1,187.5
48,192,53135,1,4
296,192,53417,2,8,L|160:192,1,125
424,192,53980,2,8,L|424:48,1,125
424,320,54544,2,8,L|224:320,1,187.5
480,32,55389,5,4
232,32,55671,1,4
32,360,56234,5,0
408,32,56797,2,8,L|408:232,1,187.5
32,192,57642,2,8,L|160:192,1,125
496,32,58347,1,4
256,192,58769,12,4,60178
256,192,60741,5,0
8,192,61304,2,2,L|200:192,1,187.5
480,192,62150,1,2
256,88,62431,1,8
24,192,62713,1,8
256,288,62995,1,8
480,192,63276,1,8
256,192,63558,1,8
352,24,63980,2,2,L|152:24,1,187.5
256,352,64685,1,4
256,192,64966,12,4,65811
256,192,66375,6,4,L|256:56,1,125
256,352,66938,1,4
256,0,67361,1,4
256,192,72009,5,4
256,64,72150,2,2,L|256:136,1,62.5
384,128,72431,2,2,L|312:128,1,62.5
320,0,72713,2,2,L|320:72,1,62.5
448,64,72995,2,8,L|376:64,1,62.5
384,192,73276,2,8,L|384:112,1,62.5
384,256,73558,5,4
136,248,73840,5,4
256,32,74121,6,4,L|256:176,1,125
256,280,74544,6,2,L|256:208,1,62.5
384,216,74826,2,2,L|288:216,1,62.5
320,344,75107,2,2,L|320:264,1,62.5
448,280,75389,2,2,L|384:280,1,62.5
256,280,75671,2,8,L|328:280,1,62.5
256,40,76093,6,4,L|256:176,2,125
384,40,76797,5,2
384,168,76938,1,2
384,296,77079,1,2
256,296,77220,1,2
256,168,77361,1,2
256,40,77502,1,2
128,40,77642,1,2
128,168,77783,1,2
128,296,77924,1,2
256,296,78065,1,2
504,296,78347,6,8,L|432:296,1,62.5
440,168,78628,2,8,L|440:232,1,62.5
312,232,78910,2,8,L|376:232,1,62.5
376,104,79192,1,8
144,192,79473,5,0
16,192,79614,1,0
16,320,79755,1,0
16,72,80037,5,0
144,72,80178,1,0
272,72,80319,1,0
272,192,80459,1,4
496,72,80741,1,4
496,320,81023,6,2,L|424:320,1,62.5
432,192,81304,2,2,L|504:192,1,62.5
368,192,81586,2,2,L|304:192,1,62.5
304,320,81868,2,2,L|384:320,1,62.5
240,320,82150,2,8,L|176:320,1,62.5
176,192,82431,2,8,L|256:192,1,62.5
488,192,82854,5,4
256,104,83135,6,4,L|384:104,1,125
384,232,83558,6,2,L|384:160,1,62.5
256,168,83840,2,2,L|328:168,1,62.5
320,296,84121,2,2,L|320:208,1,62.5
192,232,84403,2,2,L|256:232,1,62.5
256,360,84685,2,8,L|256:288,1,62.5
8,296,85107,5,4
8,48,85389,5,4
256,48,85671,6,0,L|152:48,1,62.5
256,152,85952,2,0,L|184:152,1,62.5
256,256,86234,2,0,L|184:256,1,62.5
256,360,86516,2,0,L|192:360,1,62.5
64,360,86797,2,0,L|136:360,1,62.5
128,232,87079,1,0
376,232,87361,5,0
376,104,87502,1,0
496,104,87642,1,0
496,232,87783,1,0
248,232,88065,5,0
248,104,88206,1,0
248,352,88488,5,12
120,352,88628,2,12,L|120:280,1,62.5
120,160,88910,2,12,L|120:240,1,62.5
120,352,89192,2,12,L|120:288,1,62.5
120,160,89473,2,12,L|120:16,1,125
488,24,90319,6,2,L|488:152,1,125
240,152,90882,2,8,L|320:152,1,62.5
456,352,91304,2,8,L|456:288,1,62.5
208,352,91727,2,4,L|80:352,1,125
88,104,92290,5,4
336,104,92572,5,2
336,352,92854,1,2
88,352,93135,2,8,L|88:280,1,62.5
88,160,93417,1,8
216,160,93558,2,8,L|280:160,1,62.5
400,160,93840,1,8
400,32,93980,2,4,L|256:32,1,125
24,32,94544,5,4
24,280,94826,6,2,L|24:184,1,62.5
24,88,95107,2,2,L|24:160,1,62.5
152,152,95389,2,2,L|80:152,1,62.5
336,152,95811,2,4,L|400:152,1,62.5
152,152,96234,1,4
256,376,96516,1,4
256,120,96797,6,0,L|256:184,1,62.5
256,312,97079,2,8,L|256:240,1,62.5
360,312,97361,2,0,L|360:248,1,62.5
360,120,97642,2,8,L|360:184,1,62.5
464,120,97924,2,0,L|464:200,1,62.5
464,312,98206,2,8,L|464:240,1,62.5
464,376,98488,1,4
32,120,99051,6,0,L|168:120,1,125
152,368,99614,1,0
496,0,100178,1,8
496,128,100319,1,8
496,256,100460,1,8
248,256,100741,5,8
248,128,100882,1,8
248,0,101023,1,8
8,0,101304,1,4
8,256,101586,1,4
248,256,101868,1,4
488,24,102431,1,8
360,24,102572,1,8
232,24,102713,1,8
360,240,102995,1,4
112,240,103276,1,4
360,240,103558,6,0,L|104:240,1,250
432,48,104544,2,0,L|432:248,1,187.5
184,240,105248,1,8
184,112,105389,1,8
312,112,105530,1,8
312,360,105811,5,2
64,360,106093,1,2
64,112,106375,1,2
496,360,106797,1,4
496,112,107079,1,4
248,112,107361,1,4
368,112,107501,2,8,L|368:192,1,62.5
368,296,107783,2,8,L|368:224,1,62.5
248,232,108065,5,4
496,232,108347,1,4
248,232,108628,2,8,L|344:232,1,62.5
312,104,108910,2,8,L|312:176,1,62.5
184,168,109192,5,4
432,168,109473,1,4
184,168,109755,2,8,L|248:168,1,62.5
248,40,110037,2,8,L|248:112,1,62.5
120,104,110319,5,4
120,352,110600,1,8
120,232,110741,1,8
120,104,110882,1,8
368,112,111164,1,0
368,360,111445,2,0,L|200:360,1,125
240,112,112009,1,0
256,192,112290,12,4,114685
256,192,123840,5,2
256,64,123980,1,2
128,64,124121,1,2
256,64,124262,1,2
384,64,124403,1,2
384,192,124544,1,2
384,320,124685,1,8
256,320,124826,1,8
128,320,124966,1,8
128,192,125107,2,8,L|40:192,1,62.5
192,192,125389,5,4
448,192,125671,5,4
192,192,125952,5,4
448,192,126234,6,0,L|376:192,1,62.5
256,192,126516,2,0,L|344:192,1,62.5
448,192,126797,2,0,L|368:192,1,62.5
256,192,127079,2,0,L|336:192,1,62.5
320,320,127361,1,8
192,320,127501,1,8
64,320,127642,5,4
64,72,127924,5,4
312,72,128206,5,4
320,320,128488,5,0
320,192,128628,1,0
448,192,128769,1,2
200,192,129051,1,2
448,192,129333,1,2
250,33,129614,6,8,L|250:97,1,62.5
128,96,129896,2,8,L|200:96,1,62.5
312,96,130178,2,8,L|224:96,1,62.5
248,224,130459,2,0,L|248:136,1,62.5
376,160,130741,2,0,L|296:160,1,62.5
440,160,131023,1,0
248,320,131304,6,0,L|176:320,1,62.5
312,320,131586,2,8,L|376:320,1,62.5
248,320,131868,2,8,L|176:320,1,62.5
56,320,132150,1,8
56,192,132290,2,8,L|192:192,1,125
432,192,132854,6,2,L|496:192,1,62.5
368,192,133135,2,2,L|368:120,1,62.5
368,256,133417,2,2,L|296:256,1,62.5
432,256,133699,2,2,L|432:328,1,62.5
184,272,134121,1,0
312,272,134262,1,0
312,144,134403,5,4
64,144,134685,5,4
312,144,134966,5,4
80,240,135248,6,2,L|80:304,1,62.5
208,304,135530,2,2,L|112:304,1,62.5
272,304,135811,2,2,L|344:304,2,62.5
320,56,136375,1,0
320,176,136516,1,0
448,176,136657,5,4
200,176,136938,5,4
448,176,137220,5,4
256,336,137502,6,0,L|256:248,1,62.5
256,144,137783,2,0,L|256:216,1,62.5
0,208,138206,2,8,L|72:208,2,62.5
128,208,138628,2,8,L|192:208,2,62.5
376,208,139192,5,0
376,80,139333,1,0
496,80,139473,1,8
248,80,139755,5,8
248,208,139896,1,8
248,336,140037,1,8
376,336,140178,1,8
128,336,140459,6,4,L|128:264,1,62.5
128,144,140741,1,4
376,144,141023,2,4,L|272:144,1,62.5
440,144,141304,1,4
192,144,141586,1,4
256,192,141868,12,4,142431
256,192,142995,6,0,L|256:328,2,125
504,192,143840,1,0
256,192,144121,1,0
8,192,144403,1,0
256,192,144685,6,8,L|256:120,1,62.5
128,128,144966,2,8,L|200:128,1,62.5
192,256,145248,2,8,L|192:184,1,62.5
64,192,145530,2,8,L|144:192,1,62.5
128,320,145811,1,4
376,320,146093,5,4
376,72,146375,5,4
128,72,146657,2,0,L|192:72,1,62.5
128,176,146938,2,0,L|192:176,1,62.5
192,304,147220,2,8,L|112:304,1,62.5
256,304,147502,2,8,L|320:304,1,62.5
256,192,147783,2,0,L|368:192,1,62.5
320,64,148065,2,0,L|320:136,1,62.5
448,128,148347,2,8,L|368:128,1,62.5
448,232,148628,1,4
200,232,148910,6,8,L|272:232,1,62.5
136,232,149192,1,4
136,48,149473,2,8,L|136:112,1,62.5
264,112,149755,1,4
264,360,150037,2,8,L|264:272,1,62.5
392,296,150319,1,4
392,168,150459,2,8,L|392:232,1,62.5
256,192,150882,12,4,151445
496,192,152009,6,2,L|496:128,1,62.5
384,192,152290,2,2,L|384:120,1,62.5
272,192,152572,2,2,L|272:128,1,62.5
160,192,152854,2,2,L|160:112,1,62.5
48,192,153135,2,8,L|48:56,1,125
296,72,153699,6,8,L|232:72,1,62.5
360,72,153980,2,8,L|424:72,1,62.5
296,72,154262,2,8,L|232:72,1,62.5
360,72,154544,2,8,L|432:72,1,62.5
328,152,154826,1,4
328,152,155107,1,4
256,192,155389,12,4,155952
256,352,156516,6,8,L|256:288,1,62.5
256,160,156797,2,8,L|256:240,2,62.5
0,192,157502,1,4
256,192,186938,5,2
128,192,187079,1,2
128,64,187220,1,2
256,64,187361,1,2
384,64,187502,2,8,L|384:200,1,125
128,192,188065,6,2,L|128:272,1,62.5
128,376,188347,2,2,L|128:304,1,62.5
256,312,188628,2,8,L|256:168,1,125
48,40,189192,6,8,L|112:40,2,62.5
176,40,189614,1,4
304,40,189755,2,8,L|232:40,2,62.5
176,40,190178,1,4
176,168,190319,2,8,L|176:104,2,62.5
176,40,190741,1,4
48,40,190882,2,4,L|48:176,1,125
296,192,191445,5,2
424,192,191586,1,2
424,320,191727,1,2
296,320,191868,1,2
168,320,192009,2,4,L|168:184,1,125
424,192,192572,1,4
256,8,192854,2,4,L|256:152,1,125
256,368,193558,1,4
96,32,193980,5,0
344,32,194262,1,0
344,280,194544,2,8,L|344:216,1,62.5
96,224,194966,1,0
256,32,195248,2,8,L|256:128,1,62.5
256,344,195671,1,4
256,192,195952,12,4,196516
256,192,197079,6,2,L|256:128,1,62.5
128,128,197361,2,2,L|128:200,1,62.5
128,344,197642,2,2,L|128:256,1,62.5
256,280,197924,2,2,L|256:352,1,62.5
192,232,198206,1,4
440,232,198488,2,8,L|312:232,1,125
16,360,199333,2,2,L|16:288,1,62.5
16,168,199614,2,2,L|16:240,1,62.5
136,264,199896,1,4
384,264,200178,1,4
256,192,200459,12,4,201023
256,192,201586,12,4,202150
256,192,202713,6,0,L|256:56,1,125,8|4
8,72,203276,2,0,L|144:72,1,125,8|4
136,320,203840,2,0,L|136:168,1,125,8|4
384,200,204403,2,0,L|240:200,1,125,8|4
256,192,204966,12,4,205530
256,192,206093,5,0
256,64,206234,1,0
384,64,206375,1,0
384,192,206516,1,0
384,320,206657,1,0
256,320,206797,1,0
128,320,206938,1,0
128,192,207079,1,0
128,64,207220,1,0
384,64,207502,5,8
384,192,207642,1,8
384,320,207783,1,8
128,320,208065,5,8
128,192,208206,1,8
128,64,208347,1,8
384,64,208628,5,8
384,192,208769,1,8
384,320,208910,1,8
256,192,209192,5,4
256,192,209473,12,4,210037
8,192,210600,1,0
256,192,210882,1,0
504,192,211164,1,0
256,192,211445,2,4,L|256:56,1,125
0,72,212009,6,2,L|88:72,1,62.5
184,72,212290,2,2,L|264:72,1,62.5
368,72,212572,2,2,L|432:72,1,62.5
432,200,212854,5,14
184,200,213135,5,14
432,200,213417,5,14
184,200,213699,5,14
256,192,213980,12,4,214544
256,192,215107,12,4,215671
256,192,216234,6,4,L|120:192,2,125
504,192,217079,1,4
256,192,217361,2,8,L|256:104,1,62.5
256,0,217642,2,8,L|256:96,1,62.5
136,96,217924,1,4
136,96,218206,1,4
256,192,218488,12,0,219051
80,160,219614,6,8,L|80:248,1,62.5
424,224,219896,2,8,L|424:160,1,62.5
256,192,220178,1,14
256,192,220600,1,14
