osu file format v5

[General]
AudioFilename: Savage Garden - I Want You.mp3
AudioLeadIn: 0
PreviewTime: 51586
Countdown: 1
SampleSet: Soft
StackLeniency: 0.7
Mode: 0
LetterboxInBreaks: 1
EditorDistanceSpacing: 1

[Metadata]
Title:I Want You
Artist:Savage Garden
Creator:mtmcl
Version:Fun
Source:
Tags:

[Difficulty]
HPDrainRate:5
CircleSize:4
OverallDifficulty:5
SliderMultiplier:2
SliderTickRate:2

[Events]
//Background and Video events
0,0,"iwantyou.jpg"
//Break Periods
2,67560,70809
2,114884,122640
2,157701,185738
//Storyboard Layer 0 (Background)
//Storyboard Layer 1 (Failing)
//Storyboard Layer 2 (Passing)
//Storyboard Layer 3 (Foreground)
//Storyboard Sound Samples
//Background Colour Transformations
3,100,163,162,255

[TimingPoints]
2150,563.380281690141,4,2,0,70,1,0

[Colours]
Combo1 : 128,64,0
Combo2 : 0,0,64
Combo3 : 0,64,64
Combo4 : 64,0,0

[HitObjects]
256,192,24685,1,0
160,192,24966,1,0
160,96,25248,1,0
256,96,25530,1,0
352,96,25811,1,8
352,192,26093,1,8
352,304,26375,2,4,L|240:304,2,100
448,304,27220,6,0,L|448:192,1,100
448,96,27783,2,0,L|336:96,1,100,0|8
240,96,28347,1,8
144,96,28628,2,4,L|144:208,2,100
48,96,29473,5,0
48,192,29755,2,0,L|160:192,1,100
240,192,30319,2,8,L|352:192,1,100
336,288,30882,1,8
240,288,31164,1,8
144,288,31445,2,2,L|32:288,2,100
144,192,32290,1,4
144,96,32572,2,2,L|144:-16,3,100,2|2|2|6
240,0,33699,5,4
240,96,33980,1,0
240,192,34262,1,0
240,288,34544,1,0
336,288,34826,1,8
336,192,35107,1,8
336,96,35389,2,4,L|336:-16,2,100
432,96,36234,6,0,L|432:208,1,100
432,288,36797,2,0,L|432:352|368:352,1,100,0|8
288,352,37361,1,8
192,352,37642,2,4,L|80:352,2,100
192,256,38488,6,0,L|192:144,1,100
288,160,39051,1,0
384,160,39333,2,8,L|384:32,2,100
384,256,40178,1,0
384,352,40459,2,8,L|496:352,2,100
288,352,41304,1,0
192,352,41586,2,4,L|192:240,2,100
96,352,42431,1,4
96,144,42995,6,0,L|224:144,1,100
288,144,43558,1,0
384,144,43840,1,8
384,240,44121,1,0
288,240,44403,2,8,L|176:240,1,100
64,80,45248,6,0,L|64:208,1,100
160,176,45811,1,0
256,176,46093,1,8
352,176,46375,1,0
448,176,46657,2,8,L|448:64,1,100
256,48,47502,6,0,L|144:48,1,100
48,48,48065,2,0,L|48:160,1,100
144,144,48628,2,4,L|256:144,1,100
256,192,49192,12,4,51164
256,192,51727,6,0,L|144:192|144:80,1,200
240,96,52572,1,0
336,96,52854,1,0
432,96,53135,1,0
432,192,53417,2,2,L|432:304,1,100
336,288,53980,2,2,L|336:176,1,100
240,192,54544,2,2,L|240:320,1,100
144,288,55107,2,4,L|144:176,2,100
144,80,56234,6,0,L|352:80,1,200
432,80,57079,1,0
432,176,57361,1,0
336,176,57642,1,0
240,176,57924,2,4,L|80:176,1,150
256,192,58488,12,4,60178
256,192,60741,6,0,L|368:192|368:80,1,200
272,96,61586,1,0
176,96,61868,1,0
80,96,62149,1,0
80,192,62431,2,2,L|80:304,1,100
176,288,62994,2,2,L|176:176,1,100
272,192,63558,2,2,L|272:320,1,100
368,288,64121,2,4,L|368:176,2,100
368,80,65248,6,0,L|160:80,1,200
80,80,66093,1,0
80,176,66375,1,0
176,176,66656,1,0
272,176,66938,2,4,L|432:176,1,150
256,192,72009,5,0
160,192,72290,1,0
64,192,72572,1,0
64,96,72854,1,0
160,96,73135,1,8
256,96,73417,1,8
352,96,73699,2,4,L|352:224,2,100,4|4|4
448,96,74544,6,0,L|448:208,1,100,0|0
448,288,75107,2,0,L|336:288,1,100,0|8
240,288,75671,1,8
128,288,75952,2,4,L|16:288,2,100
128,192,76797,5,0
128,96,77079,2,0,L|240:96,1,100,0|0
224,192,77643,2,8,L|336:192,1,100
416,192,78206,1,8
416,288,78488,1,8
320,288,78769,2,2,L|208:288,2,100
220,288,79614,1,4
128,288,79896,2,2,L|128:176,3,100,2|2|2|6
128,80,81023,5,4
224,80,81304,1,0
224,176,81586,1,0
320,176,81868,1,0
320,272,82150,1,8
416,272,82431,1,8
416,176,82713,2,4,L|416:64,2,100,4|4|4
512,176,83558,6,0,L|512:64,1,100,0|0
512,176,84121,2,0,L|512:240|512:304,1,100,0|8
416,272,84685,1,8
320,272,84966,2,4,L|208:272,2,100
320,176,85812,6,0,L|320:64,1,100
224,80,86375,1,0
128,80,86657,2,8,L|128:192,2,100,8|8|8
32,80,87502,1,0
32,176,87783,2,8,L|32:288,2,100,8|8|8
128,176,88628,1,0
224,176,88910,2,4,L|224:64,2,100,4|4|4
224,272,89755,1,4
400,352,90319,6,0,L|528:352,1,100,0|0
496,256,90882,1,0
496,160,91164,1,8
496,64,91445,1,0
400,64,91727,2,8,L|288:64,1,100
96,64,92572,6,0,L|96:192,1,100
192,160,93135,1,0
192,256,93417,1,8
96,256,93699,1,0
96,352,93981,2,8,L|208:352,1,100,8|8
400,352,94826,6,0,L|288:352,1,100
304,256,95389,2,0,L|432:256,1,100,0|0
400,160,95952,2,4,L|288:160,1,100,4|4
256,192,96516,12,4,98488
256,192,99051,6,0,L|144:192|144:304,1,200
240,288,99896,1,0
336,288,100178,1,0
432,288,100459,1,0
432,192,100741,2,2,L|432:80,1,100
336,96,101304,2,2,L|336:208,1,100
240,192,101868,2,2,L|240:64,1,100
144,96,102431,2,4,L|144:208,2,100
144,304,103558,6,0,L|352:304,1,200
432,304,104403,1,0
432,208,104685,1,0
336,208,104966,1,0
240,208,105248,2,4,L|80:208,1,150
256,192,105812,12,4,107502
256,192,108065,6,0,L|368:192|368:304,1,200
272,288,108910,1,0
176,288,109192,1,0
80,288,109473,1,0
80,192,109755,2,2,L|80:80,1,100
176,96,110318,2,2,L|176:208,1,100
272,192,110882,2,2,L|272:64,1,100
368,96,111445,2,4,L|368:208,2,100
368,304,112572,6,0,L|160:304,1,200
80,304,113417,1,0
80,208,113699,1,0
176,208,113980,1,0
272,208,114262,2,4,L|432:208,1,150
256,192,123840,5,0
352,192,124121,1,0
352,288,124403,1,0
256,288,124685,1,0
160,288,124966,1,8
160,192,125248,1,8
160,80,125530,2,4,L|272:80,2,100
64,80,126375,6,0,L|64:192,1,100
64,288,126938,2,0,L|176:288,1,100,0|8
272,288,127502,1,8
368,288,127783,2,4,L|368:176,2,100
464,288,128628,5,0
464,192,128910,2,0,L|352:192,1,100
272,192,129474,2,8,L|160:192,1,100
176,96,130037,1,8
272,96,130319,1,8
368,96,130600,2,2,L|480:96,2,100
368,192,131445,1,4
368,288,131727,2,2,L|480:288,3,100
464,192,132854,5,0
368,192,133135,1,0
272,192,133417,1,0
272,96,133699,1,0
176,96,133981,1,8
176,192,134262,1,8
176,288,134544,2,4,L|288:288,2,100
80,288,135389,6,0,L|80:176,1,100
80,96,135952,2,0,L|80:32|144:32,1,100,0|8
224,32,136516,1,8
320,32,136797,2,4,L|432:32,2,100
320,128,137643,6,0,L|320:240,1,100
224,224,138206,1,0
128,224,138488,2,8,L|128:352,2,100
128,128,139333,1,0
128,32,139614,2,8,L|16:32,2,100
224,32,140459,1,0
320,32,140741,2,4,L|320:144,2,100
416,32,141586,1,4
416,128,141868,6,0,L|416:336,1,200
320,336,142713,1,0
320,240,142995,1,0
224,240,143276,1,0
128,240,143558,2,2,L|16:240,1,100
32,144,144121,2,2,L|144:144,1,100
224,144,144685,2,2,L|224:32,1,100
320,48,145248,2,4,L|320:160,2,100
256,240,146375,6,0,L|256:352|144:352,1,200
64,352,147220,1,0
64,256,147502,1,0
160,256,147783,1,0
160,160,148065,2,4,L|320:160,1,150
256,192,148628,12,4,150319
96,128,150882,6,0,L|96:336,1,200
192,336,151727,1,0
192,240,152009,1,0
288,240,152290,1,0
384,240,152572,2,2,L|496:240,1,100
480,144,153135,2,2,L|368:144,1,100
288,144,153699,2,2,L|288:32,1,100
192,48,154262,2,4,L|192:160,2,100
256,240,155389,6,0,L|256:352|368:352,1,200
448,352,156234,1,0
448,256,156516,1,0
352,256,156797,1,0
352,160,157079,2,4,L|192:160,1,150
96,256,186938,6,0,L|96:48,1,200
192,48,187783,1,0
192,144,188065,1,0
288,144,188346,1,0
384,144,188628,2,2,L|496:144,1,100
480,240,189191,2,2,L|368:240,1,100
288,240,189755,2,2,L|288:352,1,100
192,336,190318,2,4,L|192:224,2,100
256,144,191445,6,0,L|256:32|368:32,1,200
448,32,192290,1,0
448,128,192572,1,0
352,128,192853,1,0
352,224,193135,2,4,L|192:224,1,150
256,192,193698,12,4,195389
416,256,195952,6,0,L|416:48,1,200
320,48,196797,1,0
320,144,197079,1,0
224,144,197360,1,0
128,144,197642,2,2,L|16:144,1,100
32,240,198205,2,2,L|144:240,1,100
224,240,198769,2,2,L|224:352,1,100
320,336,199332,2,4,L|320:224,2,100
256,144,200459,6,0,L|256:32|144:32,1,200
64,32,201304,1,0
64,128,201586,1,0
160,128,201867,1,0
160,224,202149,2,4,L|320:224,1,150
256,192,202713,12,0,204403
256,192,204966,6,0,L|368:192|368:304,1,200
272,288,205811,1,0
176,288,206093,1,0
80,288,206374,1,0
80,192,206656,2,2,L|80:80,1,100
176,96,207219,2,2,L|176:208,1,100
272,192,207783,2,2,L|272:64,1,100
368,96,208346,2,4,L|368:208,2,100
368,304,209473,6,0,L|160:304,1,200
80,304,210318,1,0
80,208,210600,1,0
176,208,210881,1,0
272,208,211163,2,4,L|432:208,1,150
256,192,211727,12,4,213417
256,192,213980,6,0,L|144:192|144:304,1,200
240,288,214825,1,0
336,288,215107,1,0
432,288,215388,1,0
432,192,215670,2,2,L|432:80,1,100
336,96,216233,2,2,L|336:208,1,100
240,192,216797,2,2,L|240:64,1,100
144,96,217360,2,4,L|144:208,2,100
144,304,218487,6,0,L|352:304,1,200
432,304,219332,1,0
432,208,219614,1,0
336,208,219895,1,0
240,208,220177,2,4,L|80:208,1,150
