osu file format v12

[General]
AudioFilename: Dusty Men (Fr Version) [192kbps].mp3
AudioLeadIn: 0
PreviewTime: 43969
Countdown: 0
SampleSet: Normal
StackLeniency: 0.8
Mode: 0
LetterboxInBreaks: 1
WidescreenStoryboard: 1

[Editor]
DistanceSpacing: 1.2
BeatDivisor: 4
GridSize: 4
TimelineZoom: 1.3

[Metadata]
Title:Dusty Men
TitleUnicode:Dusty Men
Artist:Saule feat. Charlie Winston
ArtistUnicode:Saule feat. Charlie Winston
Creator:T_Terry_T
Version:Normal
Source:
Tags:cowboys multilanguage english french western soft pop rock
BeatmapID:0
BeatmapSetID:-1

[Difficulty]
HPDrainRate:3
CircleSize:3
OverallDifficulty:4
ApproachRate:5
SliderMultiplier:1.3
SliderTickRate:1

[Events]
//Background and Video events
0,0,"Dusty Men Background [1024x560].png",0,0
//Break Periods
2,68394,71398
2,164732,172690
//Storyboard Layer 0 (Background)
//Storyboard Layer 1 (Fail)
//Storyboard Layer 2 (Pass)
//Storyboard Layer 3 (Foreground)
//Storyboard Sound Samples
//Background Colour Transformations
3,100,163,162,255

[TimingPoints]
2135,550.499119201409,4,1,0,45,1,0
46174,-100,4,1,0,45,0,1
63240,-100,4,1,0,45,0,0
103426,-100,4,1,0,45,0,1
121042,-100,4,1,0,45,0,0
138098,-100,4,3,0,45,0,0
138235,-100,4,1,0,45,0,0
173890,-100,4,1,0,45,0,1
195910,-100,4,1,0,45,0,0

[Colours]
Combo1 : 164,159,155
Combo2 : 90,120,77
Combo3 : 83,68,45
Combo4 : 211,167,150
Combo5 : 100,82,78

[HitObjects]
256,192,2135,6,0,L|352:192,2,65
256,192,3235,2,0,L|256:96,2,65
256,192,4336,2,0,L|160:192,2,65
256,192,5437,1,0,0:0:0:0:
256,348,5988,1,0,0:0:0:0:
256,192,6538,6,0,L|352:192,2,65
256,192,7639,2,0,L|256:288,2,65
256,192,8740,2,0,L|160:192,2,65
256,192,9841,1,0,0:0:0:0:
256,116,10117,1,0,0:0:0:0:
256,36,10392,1,0,0:0:0:0:
100,40,10942,6,0,P|76:132|80:184,1,130
112,236,11768,1,0,0:0:0:0:
172,284,12043,1,0,0:0:0:0:
244,316,12319,2,0,P|315:326|373:276,1,130
408,236,13144,1,0,0:0:0:0:
416,80,13695,6,0,B|292:44|292:44|156:60,1,260
16,116,15346,6,0,P|64:198|103:231,1,130
160,252,16172,1,0,0:0:0:0:
236,268,16447,1,0,0:0:0:0:
312,288,16723,2,0,P|388:276|448:244,1,130
492,200,17548,1,0,0:0:0:0:
440,52,18099,6,0,B|364:152|364:152|220:152,1,260
116,56,19750,6,0,L|252:56,1,130,4|0,0:0|0:0,0:0:0:0:
384,136,20851,2,0,L|248:136,1,130,4|0,0:0|0:0,0:0:0:0:
96,128,21952,5,0,0:0:0:0:
228,212,22503,1,0,0:0:0:0:
352,116,23053,2,0,L|480:192,1,130
396,328,24154,6,0,L|260:328,1,130,4|0,0:0|0:0,0:0:0:0:
128,248,25255,2,0,L|264:248,1,130,4|0,0:0|0:0,0:0:0:0:
416,248,26356,6,0,L|368:176,2,65
324,124,27457,1,0,0:0:0:0:
260,80,27733,1,0,0:0:0:0:
196,124,28008,1,0,0:0:0:0:
56,192,28558,6,0,P|76:228|112:252,1,65
168,260,29109,2,0,P|200:236|212:200,1,65
284,192,29659,2,0,P|304:228|340:252,1,65
396,260,30210,1,0,0:0:0:0:
416,116,30760,6,0,B|320:64|320:144|204:92,1,195
152,80,31861,1,0,0:0:0:0:
76,216,32412,1,0,0:0:0:0:
152,352,32962,1,0,0:0:0:0:
308,352,33513,6,0,P|404:272|416:120,1,260
372,84,34889,1,0,0:0:0:0:
296,80,35164,6,0,B|224:28|224:128|88:64,1,195
32,68,36265,1,0,0:0:0:0:
148,172,36816,1,0,0:0:0:0:
268,272,37366,1,0,0:0:0:0:
408,344,37917,6,0,P|420:232|316:104,1,260
208,40,39568,6,0,B|176:112|224:88|184:168,1,130,4|0,0:0|0:0,0:0:0:0:
326,164,40669,2,0,B|288:88|336:112|304:40,1,130,4|0,0:0|0:0,0:0:0:0:
148,48,41770,6,0,L|84:100,1,65
116,164,42321,2,0,L|88:248,1,65
168,248,42871,2,0,L|168:332,2,65
120,100,43972,6,0,B|192:164|192:36|256:100,1,130
388,100,45073,2,0,B|316:164|316:36|252:100,1,130
168,196,46174,6,0,P|196:252|256:272,1,130,4|0,0:0|0:0,0:0:0:0:
256,192,47000,1,0,0:0:0:0:
255,112,47275,2,0,P|315:131|344:188,1,130
256,192,48101,1,0,0:0:0:0:
168,188,48376,6,0,P|196:132|256:112,1,130
256,192,49202,1,0,0:0:0:0:
255,271,49477,2,0,P|315:252|344:196,1,130
256,192,50303,6,0,L|96:192,1,130
172,144,51129,1,8,0:0:0:0:
236,96,51404,2,0,L|384:96,1,130
444,96,52230,1,8,0:0:0:0:
436,172,52505,6,0,P|336:264|188:264,1,260,0|8,0:0|0:0,0:0:0:0:
140,252,53881,6,8,B|104:261|100:214|62:236,1,65
12,192,54432,1,8,0:0:0:0:
88,192,54707,1,0,0:0:0:0:
168,188,54982,6,0,P|196:132|256:112,1,130,4|0,0:0|0:0,0:0:0:0:
256,192,55808,1,0,0:0:0:0:
255,272,56083,2,0,P|315:253|344:196,1,130
256,192,56909,1,0,0:0:0:0:
168,196,57184,6,0,P|196:252|256:272,1,130
256,192,58010,1,0,0:0:0:0:
255,113,58285,2,0,P|315:132|344:188,1,130
256,192,59111,6,0,L|212:192,2,32.5
180,192,59662,1,8,0:0:0:0:
180,192,59937,1,8,0:0:0:0:
180,116,60212,2,0,L|228:116,2,32.5
256,116,60763,1,8,0:0:0:0:
256,116,61038,1,8,0:0:0:0:
332,120,61313,6,0,P|380:208|292:328,1,260,0|8,0:0|0:0,0:0:0:0:
220,324,62689,6,8,B|184:333|180:286|142:308,1,65
96,256,63240,1,8,0:0:0:0:
36,204,63515,1,0,0:0:0:0:
88,144,63790,6,4,P|284:96|424:136,1,325,4|8,0:0|0:0,0:0:0:0:
460,164,65442,1,8,0:0:0:0:
256,192,65992,12,4,68194,0:0:0:0:
92,48,72598,6,0,P|44:96|48:164,1,130
116,124,73424,1,0,0:0:0:0:
164,64,73699,2,0,P|196:104|168:172,1,130
104,216,74525,1,0,0:0:0:0:
40,172,74800,2,0,P|28:240|80:292,1,130
140,288,75626,1,0,0:0:0:0:
216,288,75901,2,0,L|281:288,2,65
60,288,77002,5,4,0:0:0:0:
60,132,77553,2,0,P|124:56|232:56,1,195
292,52,78654,2,0,B|332:36|336:60|376:40,1,65
436,48,79204,1,0,0:0:0:0:
436,204,79755,6,0,P|376:280|284:300,1,195
204,296,80856,1,0,0:0:0:0:
128,296,81131,1,0,0:0:0:0:
48,296,81406,6,0,P|56:224|304:64,1,390
376,72,83333,1,0,0:0:0:0:
440,120,83608,1,0,0:0:0:0:
436,276,84159,6,0,L|344:276,1,65
328,212,84709,2,0,L|196:184,1,130
148,128,85535,1,0,0:0:0:0:
128,44,85810,5,4,0:0:0:0:
204,44,86086,2,0,B|188:116|188:116|220:168,1,130
294,163,86911,2,0,B|324:116|324:116|308:44,1,130,4|0,0:0|0:0,0:0:0:0:
384,44,87737,1,0,0:0:0:0:
464,44,88012,5,0,0:0:0:0:
428,112,88288,2,0,L|384:248,1,130
312,216,89113,2,0,B|339:275|274:272|288:360,1,130
128,340,90214,5,4,0:0:0:0:
204,340,90490,2,0,P|188:268|220:216,1,130
294,220,91315,2,0,P|324:268|308:340,1,130,4|0,0:0|0:0,0:0:0:0:
384,340,92141,1,0,0:0:0:0:
464,340,92416,5,0,0:0:0:0:
464,184,92967,2,0,P|428:84|264:48,1,260
216,68,94343,1,0,0:0:0:0:
216,68,94618,1,0,0:0:0:0:
60,204,95169,2,0,P|111:318|196:344,1,195
248,344,96270,6,0,B|304:336|304:336|360:252,1,130,8|0,0:0|0:0,0:0:0:0:
444,124,97371,6,0,B|452:48|528:76|524:8,2,130
396,184,98747,1,0,0:0:0:0:
332,228,99022,1,0,0:0:0:0:
220,336,99573,1,0,0:0:0:0:
220,336,99848,1,0,0:0:0:0:
152,296,100123,6,0,L|80:248,1,65,8|0,0:0|0:0,0:0:0:0:
112,184,100674,2,0,L|44:136,1,65,8|0,0:0|0:0,0:0:0:0:
120,100,101224,6,0,B|192:164|192:36|256:100,1,130
388,100,102325,2,4,B|316:164|316:36|252:100,1,130,4|0,0:0|0:0,0:0:0:0:
168,196,103426,6,0,P|196:252|256:272,1,130,4|0,0:0|0:0,0:0:0:0:
256,192,104252,1,0,0:0:0:0:
255,112,104527,2,0,P|315:131|344:188,1,130
256,192,105353,1,0,0:0:0:0:
168,188,105628,6,0,P|196:132|256:112,1,130,0|0,0:0|0:0,0:0:0:0:
256,192,106454,1,0,0:0:0:0:
255,271,106729,2,0,P|315:252|344:196,1,130
256,192,107555,6,0,L|96:192,1,130
172,144,108381,1,8,0:0:0:0:
236,96,108656,2,0,L|384:96,1,130
444,96,109482,1,8,0:0:0:0:
436,172,109757,6,0,P|336:264|188:264,1,260,0|8,0:0|0:0,0:0:0:0:
140,252,111133,6,8,B|104:261|100:214|62:236,1,65
12,192,111684,1,8,0:0:0:0:
88,192,111959,1,0,0:0:0:0:
168,188,112234,6,0,P|196:132|256:112,1,130,4|0,0:0|0:0,0:0:0:0:
256,192,113060,1,0,0:0:0:0:
255,272,113335,2,0,P|315:253|344:196,1,130
256,192,114161,1,0,0:0:0:0:
168,196,114436,6,0,P|196:252|256:272,1,130
256,192,115262,1,0,0:0:0:0:
255,113,115537,2,0,P|315:132|344:188,1,130
256,192,116363,6,0,L|212:192,2,32.5
180,192,116914,1,8,0:0:0:0:
180,192,117189,1,8,0:0:0:0:
180,268,117464,2,0,L|228:268,2,32.5
256,268,118015,1,8,0:0:0:0:
256,268,118290,1,8,0:0:0:0:
332,264,118565,6,0,P|380:176|292:56,1,260,0|8,0:0|0:0,0:0:0:0:
220,60,119941,6,8,B|184:51|180:98|142:76,1,65
96,128,120492,1,8,0:0:0:0:
96,128,120767,1,0,0:0:0:0:
160,84,121042,6,0,P|300:52|420:92,1,260,4|0,0:0|0:0,0:0:0:0:
456,144,122419,2,8,B|472:212|472:212|432:272,1,130
376,308,123244,6,0,P|236:340|116:300,1,260,4|0,0:0|0:0,0:0:0:0:
60,264,124621,1,8,0:0:0:0:
12,200,124896,1,8,0:0:0:0:
60,140,125171,6,0,L|168:52,1,130,0|8,0:0|0:0,0:0:0:0:
240,56,125997,1,8,0:0:0:0:
316,56,126272,2,0,L|416:138,1,130,0|8,0:0|0:0,0:0:0:0:
464,200,127098,1,8,0:0:0:0:
416,264,127373,6,0,B|312:348|312:348|224:348,1,195,0|0,0:0|0:0,0:0:0:0:
172,340,128474,2,0,L|108:304,1,65,0|8,0:0|0:0,0:0:0:0:
96,232,129025,2,0,L|48:184,1,65,0|8,0:0|0:0,0:0:0:0:
28,112,129575,1,0,0:0:0:0:
76,52,129850,6,0,P|220:28|336:60,1,260,4|0,0:0|0:0,0:0:0:0:
452,152,131502,1,8,0:0:0:0:
328,56,132052,6,0,P|202:27|76:52,1,260,4|0,0:0|0:0,0:0:0:0:
12,96,133429,2,8,L|12:188,1,65
52,228,133979,6,0,L|160:316,1,130,0|8,0:0|0:0,0:0:0:0:
232,312,134805,1,8,0:0:0:0:
308,312,135080,2,0,L|408:229,1,130,0|8,0:0|0:0,0:0:0:0:
456,168,135906,1,8,0:0:0:0:
444,92,136181,6,0,P|248:44|4:100,1,455,0|8,0:0|0:0,0:0:0:0:
88,232,138658,6,0,P|104:290|164:286,1,130,4|0,0:0|0:0,0:0:0:0:
168,208,139484,1,0,0:0:0:0:
164,132,139759,2,0,P|224:128|240:186,1,130,0|0,0:0|0:0,0:0:0:0:
240,264,140585,1,0,0:0:0:0:
240,340,140860,2,0,B|308:340|308:340|364:292,1,130
472,192,141961,2,0,L|472:124,3,65,8|0|8|0,0:0|0:0|0:0|0:0,0:0:0:0:
476,48,143062,6,0,P|304:24|136:64,1,325
88,88,144714,1,0,0:0:0:0:
28,136,144989,1,0,0:0:0:0:
0,216,145264,6,0,P|104:304|240:336,1,260
300,336,146641,1,8,0:0:0:0:
376,328,146916,1,8,0:0:0:0:
440,284,147191,1,0,0:0:0:0:
456,208,147466,6,0,P|439:149|379:153,1,130,4|0,0:0|0:0,0:0:0:0:
376,231,148292,1,0,0:0:0:0:
380,307,148567,2,0,P|320:311|304:253,1,130,0|0,0:0|0:0,0:0:0:0:
304,176,149393,1,0,0:0:0:0:
308,100,149668,2,0,B|308:64|308:64|216:36,1,130
60,36,150769,1,8,0:0:0:0:
60,116,151045,2,0,L|60:200,1,65,0|8,0:0|0:0,0:0:0:0:
60,260,151595,1,0,0:0:0:0:
60,336,151870,6,0,P|240:344|408:320,1,325
452,292,153522,1,0,0:0:0:0:
496,228,153797,1,0,0:0:0:0:
512,152,154072,6,0,P|408:64|272:32,1,260
212,36,155449,1,8,0:0:0:0:
136,44,155724,1,8,0:0:0:0:
72,88,155999,1,0,0:0:0:0:
72,164,156274,6,0,P|88:222|148:218,1,130,4|0,0:0|0:0,0:0:0:0:
152,141,157100,1,0,0:0:0:0:
147,65,157375,2,0,P|207:61|223:119,1,130,0|0,0:0|0:0,0:0:0:0:
224,200,158201,1,0,0:0:0:0:
224,276,158476,2,0,B|224:320|224:320|312:352,1,130
460,352,159577,2,0,P|484:312|464:276,1,65,8|0,0:0|0:0,0:0:0:0:
440,232,160128,2,0,P|464:192|444:156,1,65,8|0,0:0|0:0,0:0:0:0:
432,104,160678,6,0,P|260:80|92:120,1,325
44,144,162330,1,0,0:0:0:0:
44,144,162605,1,0,0:0:0:0:
113,111,162880,6,0,P|272:79|432:104,1,325,0|8,0:0|0:0,0:0:0:0:
496,148,164532,1,8,0:0:0:0:
168,196,173890,6,0,P|196:252|256:272,1,130,4|0,0:0|0:0,0:0:0:0:
256,192,174716,1,0,0:0:0:0:
255,112,174991,2,0,P|315:131|344:188,1,130
256,192,175817,1,0,0:0:0:0:
168,188,176092,6,0,P|196:132|256:112,1,130,0|0,0:0|0:0,0:0:0:0:
256,192,176918,1,0,0:0:0:0:
255,271,177193,2,0,P|315:252|344:196,1,130
256,192,178019,6,0,L|96:192,1,130
172,144,178845,1,8,0:0:0:0:
236,96,179120,2,0,L|384:96,1,130
444,96,179946,1,8,0:0:0:0:
436,172,180221,6,0,P|336:264|188:264,1,260,0|8,0:0|0:0,0:0:0:0:
140,252,181597,6,8,B|104:261|100:214|62:236,1,65
20,184,182148,1,0,0:0:0:0:
156,108,182698,6,0,P|296:76|416:116,1,260,4|0,0:0|0:0,0:0:0:0:
452,172,184075,2,8,B|468:240|468:240|428:300,1,130
364,328,184900,6,0,P|224:360|104:320,1,260,4|0,0:0|0:0,0:0:0:0:
60,264,186277,1,8,0:0:0:0:
12,200,186552,1,8,0:0:0:0:
60,140,186827,6,0,L|168:52,1,130,0|8,0:0|0:0,0:0:0:0:
240,56,187653,1,8,0:0:0:0:
316,56,187928,2,0,L|416:138,1,130,0|8,0:0|0:0,0:0:0:0:
464,200,188754,1,8,0:0:0:0:
416,264,189029,6,0,B|312:348|312:348|224:348,1,195,0|0,0:0|0:0,0:0:0:0:
172,340,190130,2,0,L|108:304,1,65,0|8,0:0|0:0,0:0:0:0:
96,232,190681,6,0,L|48:184,1,65,0|8,0:0|0:0,0:0:0:0:
28,112,191231,1,0,0:0:0:0:
84,60,191506,6,0,P|232:40|432:64,1,325,0|8,0:0|0:0,0:0:0:0:
476,92,193158,1,8,0:0:0:0:
256,192,193708,12,4,195909,0:0:0:0:
