osu file format v12

[General]
AudioFilename: Dusty Men (Fr Version) [192kbps].mp3
AudioLeadIn: 0
PreviewTime: 43969
Countdown: 0
SampleSet: Normal
StackLeniency: 0.8
Mode: 0
LetterboxInBreaks: 1
WidescreenStoryboard: 1

[Editor]
DistanceSpacing: 1.4
BeatDivisor: 4
GridSize: 4
TimelineZoom: 1.7

[Metadata]
Title:Dusty Men
TitleUnicode:Dusty Men
Artist:Saule feat. Charlie Winston
ArtistUnicode:Saule feat. Charlie Winston
Creator:T_Terry_T
Version:Hard
Source:
Tags:cowboys multilanguage english french western soft pop rock
BeatmapID:0
BeatmapSetID:-1

[Difficulty]
HPDrainRate:6
CircleSize:4
OverallDifficulty:5
ApproachRate:6
SliderMultiplier:1.6
SliderTickRate:1

[Events]
//Background and Video events
0,0,"Dusty Men Background [1024x560].png",0,0
//Break Periods
2,68394,71548
2,165282,172840
//Storyboard Layer 0 (Background)
//Storyboard Layer 1 (Fail)
//Storyboard Layer 2 (Pass)
//Storyboard Layer 3 (Foreground)
//Storyboard Sound Samples
//Background Colour Transformations
3,100,163,162,255

[TimingPoints]
2135,550.499119201409,4,1,0,45,1,0
43969,-200,4,1,0,45,0,0
45624,-100,4,3,0,45,0,0
46174,-100,4,1,0,45,0,1
63240,-100,4,1,0,45,0,0
101224,-200,4,1,0,45,0,0
102876,-100,4,3,0,45,0,0
103426,-100,4,1,0,45,0,1
121042,-100,4,1,0,45,0,0
138108,-100,4,3,0,45,0,0
138245,-100,4,1,0,45,0,0
173890,-100,4,1,0,45,0,1
195910,-100,4,1,0,45,0,0

[Colours]
Combo1 : 164,159,155
Combo2 : 90,120,77
Combo3 : 83,68,45
Combo4 : 211,167,150
Combo5 : 100,82,78

[HitObjects]
204,232,2135,6,0,L|284:232,1,80
452,228,2823,1,0,0:0:0:0:
452,172,2960,1,0,0:0:0:0:
348,132,3235,2,0,L|268:132,1,80
100,160,3924,1,0,0:0:0:0:
100,216,4061,1,0,0:0:0:0:
204,232,4336,2,0,L|284:232,1,80
420,216,5025,1,0,0:0:0:0:
420,160,5162,1,0,0:0:0:0:
276,132,5437,5,0,0:0:0:0:
276,132,5713,1,0,0:0:0:0:
164,132,5988,1,0,0:0:0:0:
164,132,6263,1,0,0:0:0:0:
204,232,6538,6,0,L|284:232,1,80
452,228,7227,1,0,0:0:0:0:
452,172,7364,1,0,0:0:0:0:
348,132,7639,2,0,L|268:132,1,80
100,160,8328,1,0,0:0:0:0:
100,216,8465,1,0,0:0:0:0:
204,232,8740,2,0,L|284:232,1,80
420,216,9429,1,0,0:0:0:0:
420,160,9566,1,0,0:0:0:0:
284,136,9841,6,0,L|232:136,2,40
396,140,10392,1,0,0:0:0:0:
204,48,10942,6,0,P|120:72|100:84,1,80
152,180,11493,2,0,P|68:204|48:216,2,80
264,180,12319,2,0,P|344:189|418:221,1,160
468,332,13144,1,0,0:0:0:0:
420,112,13695,6,0,L|340:156,1,80
420,112,14245,2,0,L|280:148,1,120
248,156,14796,1,0,0:0:0:0:
140,180,15071,1,0,0:0:0:0:
52,248,15346,6,0,P|91:254|128:268,1,80
216,340,15897,2,0,P|255:333|292:319,2,80
104,340,16723,2,0,P|78:264|75:184,1,160
108,76,17548,1,0,0:0:0:0:
216,44,17824,1,0,0:0:0:0:
332,72,18099,6,0,P|375:79|415:106,1,80
400,208,18649,2,0,P|348:240|276:256,1,120
236,252,19200,1,0,0:0:0:0:
140,196,19475,1,0,0:0:0:0:
196,56,19750,6,0,L|196:96,5,40,4|0|0|0|0|0,0:0|0:0|0:0|0:0|0:0|0:0,0:0:0:0:
220,148,20576,1,0,0:0:0:0:
332,148,20851,2,0,L|332:104,5,40,4|0|0|0|0|0,0:0|0:0|0:0|0:0|0:0|0:0,0:0:0:0:
296,56,21677,1,0,0:0:0:0:
408,56,21952,5,0,0:0:0:0:
408,168,22228,1,0,0:0:0:0:
308,220,22503,1,0,0:0:0:0:
260,248,22641,1,0,0:0:0:0:
420,296,23053,5,0,0:0:0:0:
420,296,23191,1,0,0:0:0:0:
420,296,23329,1,0,0:0:0:0:
420,296,23466,1,0,0:0:0:0:
420,296,23604,1,0,0:0:0:0:
372,324,23742,1,0,0:0:0:0:
196,328,24154,6,0,L|196:288,5,40,4|0|0|0|0|0,0:0|0:0|0:0|0:0|0:0|0:0,0:0:0:0:
220,236,24980,1,0,0:0:0:0:
332,236,25255,2,0,L|332:280,5,40,4|0|0|0|0|0,0:0|0:0|0:0|0:0|0:0|0:0,0:0:0:0:
312,328,26081,1,0,0:0:0:0:
424,332,26356,6,0,P|472:280|452:256,1,80
404,196,26907,1,0,0:0:0:0:
368,156,27045,1,0,0:0:0:0:
220,76,27457,2,0,L|184:112,1,40
148,140,27733,2,0,L|128:200,1,40
136,236,28008,1,0,0:0:0:0:
164,284,28146,1,0,0:0:0:0:
308,368,28558,6,0,L|372:312,1,80
432,224,29109,1,0,0:0:0:0:
408,172,29247,1,0,0:0:0:0:
316,32,29659,2,0,L|232:76,2,80
216,80,30485,1,0,0:0:0:0:
108,116,30760,5,0,0:0:0:0:
108,116,31311,2,0,B|81:188|132:189|108:240,1,120
144,276,31861,1,0,0:0:0:0:
144,276,32137,1,0,0:0:0:0:
252,312,32412,1,0,0:0:0:0:
252,312,32687,1,0,0:0:0:0:
356,276,32962,1,0,0:0:0:0:
356,276,33513,6,0,B|383:204|332:203|356:152,1,120
352,104,34063,1,0,0:0:0:0:
352,104,34339,1,0,0:0:0:0:
240,104,34614,1,0,0:0:0:0:
240,104,34889,1,0,0:0:0:0:
128,104,35164,5,0,0:0:0:0:
124,328,35715,2,0,B|169:282|169:366|232:326,1,120
284,308,36265,1,0,0:0:0:0:
284,308,36541,1,0,0:0:0:0:
376,232,36816,1,0,0:0:0:0:
376,232,37091,1,0,0:0:0:0:
416,128,37366,1,0,0:0:0:0:
200,76,37917,6,0,B|154:121|154:37|91:77,1,120
88,132,38467,2,0,B|64:188|112:188|80:240,1,80,0|0,0:0|0:0,0:0:0:0:
204,208,39018,1,0,0:0:0:0:
200,56,39568,6,0,B|192:72|212:72|200:96,5,40,4|0|0|0|0|0,0:0|0:0|0:0|0:0|0:0|0:0,0:0:0:0:
232,140,40394,1,0,0:0:0:0:
324,140,40669,2,0,B|332:124|312:124|323:101,5,40,4|0|0|0|0|0,0:0|0:0|0:0|0:0|0:0|0:0,0:0:0:0:
308,48,41495,1,0,0:0:0:0:
200,40,41770,5,0,0:0:0:0:
116,116,42046,1,0,0:0:0:0:
92,224,42321,1,0,0:0:0:0:
156,308,42596,1,0,0:0:0:0:
260,348,42871,1,0,0:0:0:0:
364,308,43147,1,0,0:0:0:0:
444,228,43422,1,0,0:0:0:0:
372,60,43972,6,0,B|256:28|256:96|132:48,1,240
136,49,45899,1,8,0:0:0:0:
140,180,46174,6,0,P|174:132|208:144,1,80,4|0,0:0|0:0,0:0:0:0:
300,132,46725,2,0,P|336:142|347:179,1,80
344,292,47275,2,0,P|332:328|296:339,1,80
184,324,47826,1,8,0:0:0:0:
244,228,48101,1,8,0:0:0:0:
300,132,48376,6,0,P|336:143|348:180,1,80
344,292,48927,2,0,P|332:328|296:339,1,80
216,338,49477,2,0,P|179:328|168:292,1,80,0|0,0:0|0:0,0:0:0:0:
168,180,50028,1,8,0:0:0:0:
168,68,50303,6,0,P|280:68|352:100,1,160
368,116,50991,1,0,0:0:0:0:
404,156,51129,1,8,0:0:0:0:
428,264,51404,2,0,P|337:198|260:181,1,160
236,176,52092,1,0,0:0:0:0:
180,184,52230,1,8,0:0:0:0:
92,252,52505,2,0,P|206:268|283:308,1,200
328,332,53331,1,8,0:0:0:0:
440,328,53606,1,8,0:0:0:0:
444,216,53881,6,8,B|476:188|420:172|452:108,1,80,8|0,0:0|0:0,0:0:0:0:
328,136,54432,1,8,0:0:0:0:
216,136,54707,1,0,0:0:0:0:
140,204,54982,6,0,P|174:252|208:240,1,80,4|0,0:0|0:0,0:0:0:0:
300,252,55533,2,0,P|336:242|347:205,1,80
344,92,56083,2,0,P|332:56|296:45,1,80
184,60,56634,1,8,0:0:0:0:
244,156,56909,1,8,0:0:0:0:
300,252,57184,6,0,P|336:241|348:204,1,80
344,92,57735,2,0,P|332:56|296:45,1,80
216,46,58285,2,0,P|179:56|168:92,1,80,0|0,0:0|0:0,0:0:0:0:
168,204,58836,1,8,0:0:0:0:
168,316,59111,6,0,P|280:316|352:284,1,160
368,268,59799,1,0,0:0:0:0:
404,228,59937,1,8,0:0:0:0:
428,120,60212,2,0,P|337:185|260:202,1,160
236,208,60900,1,0,0:0:0:0:
180,200,61038,1,8,0:0:0:0:
92,132,61313,2,0,P|206:115|283:75,1,200
332,56,62139,1,8,0:0:0:0:
380,84,62277,1,0,0:0:0:0:
420,120,62414,1,8,0:0:0:0:
428,176,62552,1,0,0:0:0:0:
400,224,62689,6,8,B|360:244|388:340|312:352,1,160,8|8,0:0|0:0,0:0:0:0:
216,348,63515,1,8,0:0:0:0:
256,192,63790,12,8,65166,0:0:0:0:
256,192,65442,5,8,0:0:0:0:
256,192,65992,12,0,66817,0:0:0:0:
256,192,67093,5,8,0:0:0:0:
256,192,67369,1,0,0:0:0:0:
256,192,67644,1,8,0:0:0:0:
256,192,67919,1,0,0:0:0:0:
256,192,68194,1,4,0:0:0:0:
112,80,72598,6,0,P|196:40|252:40,1,120
332,56,73287,1,0,0:0:0:0:
424,120,73562,1,0,0:0:0:0:
444,172,73699,2,0,P|456:240|420:300,1,120
336,336,74388,1,0,0:0:0:0:
224,348,74663,1,0,0:0:0:0:
172,328,74800,2,0,P|128:280|116:228,1,120
120,116,75489,1,0,0:0:0:0:
216,60,75764,1,0,0:0:0:0:
264,36,75901,5,0,0:0:0:0:
312,68,76039,1,0,0:0:0:0:
312,124,76177,1,0,0:0:0:0:
260,148,76314,1,0,0:0:0:0:
212,116,76452,1,0,0:0:0:0:
108,68,76727,1,0,0:0:0:0:
108,68,77002,6,0,B|164:112|52:112|112:172,1,120
148,208,77553,2,0,B|192:232|192:188|264:212,1,120
320,212,78103,1,0,0:0:0:0:
320,212,78379,1,0,0:0:0:0:
432,212,78654,1,0,0:0:0:0:
432,212,78929,1,0,0:0:0:0:
432,212,79204,1,0,0:0:0:0:
292,36,79755,6,0,P|164:152|160:168,1,160
136,240,80581,1,0,0:0:0:0:
132,352,80856,2,0,B|176:312|176:372|240:344,1,80
316,352,81406,6,0,B|380:328|380:328|396:292|396:248,1,120
404,224,81957,1,0,0:0:0:0:
388,172,82094,1,0,0:0:0:0:
340,140,82232,2,0,L|256:140,1,70
144,136,82783,1,0,0:0:0:0:
136,248,83058,2,0,L|260:248,1,120
312,252,83608,1,0,0:0:0:0:
484,248,84159,6,0,L|424:164,1,80
364,100,84709,2,0,L|196:36,1,160
216,44,85535,1,0,0:0:0:0:
92,132,85810,5,4,0:0:0:0:
204,132,86086,1,0,0:0:0:0:
128,52,86361,2,0,L|216:52,1,80
320,52,86911,2,0,L|400:52,1,80,4|0,0:0|0:0,0:0:0:0:
320,132,87462,1,0,0:0:0:0:
432,128,87737,1,0,0:0:0:0:
428,240,88012,5,0,0:0:0:0:
332,296,88288,1,0,0:0:0:0:
220,308,88563,2,0,L|88:240,1,120
92,200,89113,2,0,B|148:178|108:138|152:126,2,80
308,256,90214,5,4,0:0:0:0:
416,224,90490,1,0,0:0:0:0:
392,332,90765,2,0,B|352:312|352:348|304:332,1,80
204,332,91315,2,0,B|166:346|166:310|126:330,1,80,4|0,0:0|0:0,0:0:0:0:
88,224,91866,1,0,0:0:0:0:
196,252,92141,1,0,0:0:0:0:
300,296,92416,5,0,0:0:0:0:
180,108,92967,1,0,0:0:0:0:
280,56,93242,1,0,0:0:0:0:
388,28,93517,2,0,B|328:88|428:88|356:196,1,160
348,228,94205,1,0,0:0:0:0:
300,256,94343,1,0,0:0:0:0:
260,216,94481,1,0,0:0:0:0:
304,184,94618,1,0,0:0:0:0:
152,72,95031,1,0,0:0:0:0:
152,72,95169,6,0,B|128:116|176:136|156:188,1,120
156,244,95719,1,0,0:0:0:0:
156,300,95857,1,0,0:0:0:0:
156,356,95995,1,0,0:0:0:0:
264,352,96270,2,0,P|380:324|424:304,1,160
420,84,97371,6,0,B|396:132|344:108|300:168,1,120
272,172,97921,1,0,0:0:0:0:
332,268,98197,1,0,0:0:0:0:
388,172,98472,1,0,0:0:0:0:
292,232,98747,1,0,0:0:0:0:
192,280,99022,2,0,L|76:340,1,120
32,352,99573,6,0,B|12:300|60:280|35:235,1,120
36,180,100123,1,0,0:0:0:0:
128,244,100399,1,0,0:0:0:0:
172,140,100674,1,0,0:0:0:0:
264,200,100949,1,0,0:0:0:0:
136,49,101224,6,0,B|256:96|256:28|372:60,1,240
372,60,103151,1,8,0:0:0:0:
372,180,103426,6,0,P|338:132|304:144,1,80,4|0,0:0|0:0,0:0:0:0:
212,132,103977,2,0,P|176:142|165:179,1,80
168,292,104527,2,0,P|180:328|216:339,1,80
328,324,105078,1,8,0:0:0:0:
268,228,105353,1,8,0:0:0:0:
212,132,105628,6,0,P|176:143|164:180,1,80
168,292,106179,2,0,P|180:328|216:339,1,80
296,338,106729,2,0,P|333:328|344:292,1,80,0|0,0:0|0:0,0:0:0:0:
344,180,107280,1,8,0:0:0:0:
344,68,107555,6,0,P|232:68|160:100,1,160
144,116,108243,1,0,0:0:0:0:
108,156,108381,1,8,0:0:0:0:
84,264,108656,2,0,P|175:198|252:181,1,160
276,176,109344,1,0,0:0:0:0:
332,184,109482,1,8,0:0:0:0:
420,252,109757,2,0,P|306:268|229:308,1,200
184,332,110583,1,8,0:0:0:0:
72,328,110858,1,8,0:0:0:0:
68,216,111133,6,8,B|36:188|92:172|60:108,1,80,8|0,0:0|0:0,0:0:0:0:
184,136,111684,1,8,0:0:0:0:
296,136,111959,1,0,0:0:0:0:
372,204,112234,6,0,P|338:252|304:240,1,80,4|0,0:0|0:0,0:0:0:0:
212,252,112785,2,0,P|176:242|165:205,1,80
168,92,113335,2,0,P|180:56|216:45,1,80
328,60,113886,1,8,0:0:0:0:
268,156,114161,1,8,0:0:0:0:
212,252,114436,6,0,P|176:241|164:204,1,80
168,92,114987,2,0,P|180:56|216:45,1,80
296,46,115537,2,0,P|333:56|344:92,1,80,0|0,0:0|0:0,0:0:0:0:
344,204,116088,1,8,0:0:0:0:
344,316,116363,6,0,P|232:316|160:284,1,160
144,268,117051,1,0,0:0:0:0:
108,228,117189,1,8,0:0:0:0:
84,120,117464,2,0,P|175:185|252:202,1,160
276,208,118152,1,0,0:0:0:0:
332,200,118290,1,8,0:0:0:0:
420,132,118565,2,0,P|306:115|229:75,1,200
180,56,119391,1,8,0:0:0:0:
132,84,119529,1,0,0:0:0:0:
92,120,119666,1,8,0:0:0:0:
84,176,119804,1,0,0:0:0:0:
112,224,119941,6,8,B|152:244|124:340|200:352,1,160,8|8,0:0|0:0,0:0:0:0:
296,348,120767,5,8,0:0:0:0:
388,284,121042,6,0,P|444:212|448:188,1,80,4|0,0:0|0:0,0:0:0:0:
444,168,121455,1,0,0:0:0:0:
428,112,121593,2,0,P|407:78|376:52,2,80
444,168,122281,1,0,0:0:0:0:
444,224,122419,1,0,0:0:0:0:
428,276,122556,1,0,0:0:0:0:
384,312,122694,1,8,0:0:0:0:
280,348,122969,1,8,0:0:0:0:
168,336,123244,6,0,P|112:264|108:240,1,80
92,228,123657,1,0,0:0:0:0:
76,172,123795,2,0,P|79:132|96:96,2,80
92,228,124483,1,0,0:0:0:0:
120,276,124621,1,8,0:0:0:0:
160,312,124758,2,0,L|252:356,1,80,8|8,0:0|0:0,0:0:0:0:
288,344,125171,6,0,L|404:344,1,80,8|0,0:0|0:0,0:0:0:0:
368,344,125722,1,8,0:0:0:0:
368,344,125997,1,8,0:0:0:0:
280,272,126272,2,0,L|168:272,1,80
200,272,126823,1,8,0:0:0:0:
200,272,127098,1,8,0:0:0:0:
284,200,127373,6,0,L|336:200,3,40
380,200,127924,1,0,0:0:0:0:
380,200,128061,1,0,0:0:0:0:
212,200,128474,1,8,0:0:0:0:
100,192,128749,5,8,0:0:0:0:
108,136,128887,1,8,0:0:0:0:
140,88,129025,1,8,0:0:0:0:
188,56,129162,1,8,0:0:0:0:
244,52,129300,1,8,0:0:0:0:
244,52,129575,1,8,0:0:0:0:
344,100,129850,6,0,P|400:172|404:196,1,80,4|0,0:0|0:0,0:0:0:0:
400,216,130263,1,0,0:0:0:0:
384,272,130401,2,0,P|363:305|332:331,2,80
400,216,131089,1,0,0:0:0:0:
400,160,131227,1,0,0:0:0:0:
384,108,131364,1,0,0:0:0:0:
340,72,131502,1,8,0:0:0:0:
236,36,131777,1,8,0:0:0:0:
124,48,132052,6,0,P|68:120|64:144,1,80
48,156,132465,1,0,0:0:0:0:
32,212,132603,2,0,P|35:251|52:287,2,80
48,156,133291,1,0,0:0:0:0:
76,108,133429,1,8,0:0:0:0:
116,72,133566,2,0,L|208:28,1,80,8|8,0:0|0:0,0:0:0:0:
244,40,133979,6,0,L|296:40,6,40,0|0|0|0|0|0|8,0:0|0:0|0:0|0:0|0:0|0:0|0:0,0:0:0:0:
340,100,135080,2,0,L|392:100,6,40,0|0|0|0|0|0|8,0:0|0:0|0:0|0:0|0:0|0:0|0:0,0:0:0:0:
428,172,136181,2,0,L|480:172,8,40
316,172,137557,1,8,0:0:0:0:
252,264,137833,1,0,0:0:0:0:
192,172,138108,1,0,0:0:0:0:
128,80,138383,1,0,0:0:0:0:
64,172,138658,5,0,0:0:0:0:
84,284,138934,1,0,0:0:0:0:
176,348,139209,1,0,0:0:0:0:
288,332,139484,1,0,0:0:0:0:
388,280,139759,1,0,0:0:0:0:
452,188,140035,1,0,0:0:0:0:
432,76,140310,1,0,0:0:0:0:
332,28,140585,1,0,0:0:0:0:
220,24,140860,2,0,L|112:92,1,120
72,120,141411,1,8,0:0:0:0:
64,340,141961,6,0,L|144:340,2,80
68,228,142787,1,0,0:0:0:0:
124,144,143062,6,0,L|204:144,1,80
284,64,143613,2,0,L|284:144,1,80
368,228,144163,2,0,L|288:228,1,80
204,224,144714,6,0,L|204:312,2,80
288,228,145540,2,0,L|368:228,1,80
288,148,146090,2,0,L|288:68,1,80
172,56,146641,1,0,0:0:0:0:
128,92,146778,1,8,0:0:0:0:
116,148,146916,1,0,0:0:0:0:
136,260,147191,1,8,0:0:0:0:
236,308,147466,5,8,0:0:0:0:
348,320,147742,1,0,0:0:0:0:
452,276,148017,1,0,0:0:0:0:
488,168,148292,1,0,0:0:0:0:
428,72,148567,1,0,0:0:0:0:
324,24,148843,1,0,0:0:0:0:
216,52,149118,1,0,0:0:0:0:
128,120,149393,1,0,0:0:0:0:
132,232,149668,2,0,L|224:320,1,120
260,352,150219,1,8,0:0:0:0:
484,352,150769,6,0,L|484:112,1,240
372,112,151870,6,0,L|292:112,1,80
212,32,152421,2,0,L|212:112,1,80
128,196,152971,2,0,L|208:196,1,80
292,192,153522,6,0,L|292:280,2,80
208,196,154348,2,0,L|128:196,1,80
212,112,154898,2,0,L|212:32,1,80
324,40,155449,1,0,0:0:0:0:
368,72,155586,1,8,0:0:0:0:
384,124,155724,1,0,0:0:0:0:
384,236,155999,1,8,0:0:0:0:
384,348,156274,5,8,0:0:0:0:
272,356,156550,1,0,0:0:0:0:
164,332,156825,1,0,0:0:0:0:
92,244,157100,1,0,0:0:0:0:
76,132,157375,1,0,0:0:0:0:
136,36,157651,1,0,0:0:0:0:
244,16,157926,1,0,0:0:0:0:
356,32,158201,1,0,0:0:0:0:
444,104,158476,2,0,L|444:256,1,120
444,280,159027,1,8,0:0:0:0:
224,328,159577,6,0,L|128:328,1,80
232,260,160128,2,0,L|128:212,1,80
264,184,160678,6,0,L|264:96,1,80
344,184,161229,2,0,L|436:184,1,80
344,264,161779,2,0,L|344:352,1,80
268,264,162330,6,0,L|184:264,2,80
344,264,163155,2,0,L|344:352,1,80
344,184,163706,2,0,L|436:184,1,80
264,184,164256,1,8,0:0:0:0:
264,72,164532,1,8,0:0:0:0:
264,184,164807,1,0,0:0:0:0:
264,72,165082,1,8,0:0:0:0:
140,180,173890,6,0,P|174:132|208:144,1,80,4|0,0:0|0:0,0:0:0:0:
300,132,174441,2,0,P|336:142|347:179,1,80
344,292,174991,2,0,P|332:328|296:339,1,80
184,324,175542,1,8,0:0:0:0:
244,228,175817,1,8,0:0:0:0:
300,132,176092,6,0,P|336:143|348:180,1,80
344,292,176643,2,0,P|332:328|296:339,1,80
216,338,177193,2,0,P|179:328|168:292,1,80,0|0,0:0|0:0,0:0:0:0:
168,180,177744,1,8,0:0:0:0:
168,68,178019,6,0,P|280:68|352:100,1,160
368,116,178707,1,0,0:0:0:0:
404,156,178845,1,8,0:0:0:0:
428,264,179120,2,0,P|337:198|260:181,1,160
236,176,179808,1,0,0:0:0:0:
180,184,179946,1,8,0:0:0:0:
92,252,180221,2,0,P|206:268|283:308,1,200
328,332,181047,1,8,0:0:0:0:
440,328,181322,1,8,0:0:0:0:
444,216,181597,6,8,B|476:188|420:172|452:108,1,80,8|0,0:0|0:0,0:0:0:0:
360,64,182148,5,8,0:0:0:0:
244,48,182423,1,0,0:0:0:0:
144,96,182698,6,0,P|88:168|84:192,1,80,4|0,0:0|0:0,0:0:0:0:
88,212,183111,1,0,0:0:0:0:
104,268,183249,2,0,P|125:301|156:327,2,80
88,212,183937,1,0,0:0:0:0:
88,156,184075,1,0,0:0:0:0:
104,104,184212,1,0,0:0:0:0:
148,68,184350,1,8,0:0:0:0:
252,32,184625,1,8,0:0:0:0:
364,44,184900,6,0,P|420:116|424:140,1,80
440,152,185313,1,0,0:0:0:0:
456,208,185451,2,0,P|453:247|436:283,2,80
440,152,186139,1,0,0:0:0:0:
412,104,186277,1,8,0:0:0:0:
372,68,186414,2,0,L|280:24,1,80,8|8,0:0|0:0,0:0:0:0:
244,36,186827,6,0,L|192:36,6,40,0|0|0|0|0|0|8,0:0|0:0|0:0|0:0|0:0|0:0|0:0,0:0:0:0:
148,96,187928,2,0,L|96:96,6,40,0|0|0|0|0|0|8,0:0|0:0|0:0|0:0|0:0|0:0|0:0,0:0:0:0:
60,168,189029,2,0,L|8:168,8,40
172,172,190405,1,8,0:0:0:0:
284,172,190680,1,8,0:0:0:0:
396,172,190956,1,0,0:0:0:0:
256,192,191506,12,8,192882,0:0:0:0:
256,192,193158,5,8,0:0:0:0:
256,192,193708,12,4,195909,0:0:0:0:
