osu file format v12

[General]
AudioFilename: Dusty Men (Fr Version) [192kbps].mp3
AudioLeadIn: 0
PreviewTime: 43969
Countdown: 0
SampleSet: Normal
StackLeniency: 0.7
Mode: 0
LetterboxInBreaks: 1
WidescreenStoryboard: 1

[Editor]
DistanceSpacing: 1
BeatDivisor: 4
GridSize: 4
TimelineZoom: 1.4

[Metadata]
Title:Dusty Men
TitleUnicode:Dusty Men
Artist:Saule feat. Charlie Winston
ArtistUnicode:Saule feat. Charlie Winston
Creator:T_Terry_T
Version:Easy
Source:
Tags:cowboys multilanguage english french western soft pop rock
BeatmapID:385703
BeatmapSetID:157537

[Difficulty]
HPDrainRate:3
CircleSize:2
OverallDifficulty:3
ApproachRate:4
SliderMultiplier:1.1
SliderTickRate:1

[Events]
//Background and Video events
0,0,"Dusty Men Background [1024x560].png",0,0
//Break Periods
2,68394,71278
2,164731,172570
//Storyboard Layer 0 (Background)
//Storyboard Layer 1 (Fail)
//Storyboard Layer 2 (Pass)
//Storyboard Layer 3 (Foreground)
//Storyboard Sound Samples
//Background Colour Transformations
3,100,163,162,255

[TimingPoints]
2135,550.499119201409,4,1,0,45,1,0
46174,-100,4,1,0,45,0,1
63240,-100,4,1,0,45,0,0
103426,-100,4,1,0,45,0,1
121042,-100,4,1,0,45,0,0
138098,-100,4,3,0,45,0,0
138235,-100,4,1,0,45,0,0
173890,-100,4,1,0,45,0,1
195910,-100,4,1,0,45,0,0

[Colours]
Combo1 : 164,159,155
Combo2 : 90,120,77
Combo3 : 83,68,45
Combo4 : 211,167,150
Combo5 : 100,82,78

[HitObjects]
200,84,2135,6,0,L|320:84,1,110
312,192,3235,2,0,L|192:192,1,110
200,300,4336,2,0,L|320:300,1,110
316,192,5437,1,0,0:0:0:0:
204,192,5988,1,0,0:0:0:0:
200,300,6538,6,0,L|320:300,1,110
312,192,7639,2,0,L|192:192,1,110
200,84,8740,2,0,L|320:84,1,110
256,180,9841,2,0,L|256:256,2,55,0|0|0,0:0|0:0|0:0,0:0:0:0:
256,68,10942,6,0,P|372:120|360:216,1,220
312,292,12594,1,0,0:0:0:0:
200,292,13144,1,0,0:0:0:0:
100,244,13695,2,0,P|37:133|103:63,1,220
192,48,15346,6,0,B|239:70|295:42|295:42|351:78|403:62,1,220
404,172,16998,1,0,0:0:0:0:
404,284,17548,1,0,0:0:0:0:
304,332,18099,2,0,P|224:332|100:256,1,220
184,156,19750,6,0,L|204:40,1,110,4|0,0:0|0:0,0:0:0:0:
309,47,20851,2,0,L|328:156,1,110,4|0,0:0|0:0,0:0:0:0:
348,264,21952,6,0,P|408:288|464:264,1,110
392,184,23053,2,0,P|340:160|276:184,1,110
184,228,24154,6,0,L|204:344,1,110,4|0,0:0|0:0,0:0:0:0:
309,336,25255,2,0,L|328:228,1,110,4|0,0:0|0:0,0:0:0:0:
400,144,26356,6,0,P|256:48|128:144,1,330
128,232,28558,2,0,P|160:288|224:292,1,110
311,297,29659,2,0,P|361:280|384:224,1,110
352,128,30760,6,0,B|248:208|248:76|128:160,1,220
80,224,32412,1,0,0:0:0:0:
156,300,32962,1,0,0:0:0:0:
260,332,33513,2,0,B|316:372|316:316|388:332,1,110
436,248,34614,1,0,0:0:0:0:
360,172,35164,6,0,B|256:92|256:224|136:140,1,220
48,124,36816,1,0,0:0:0:0:
48,124,37366,1,0,0:0:0:0:
52,236,37917,2,0,B|108:196|108:252|180:236,1,110
256,196,39018,1,0,0:0:0:0:
136,144,39568,6,0,B|156:68|212:96|212:40,1,110,4|0,0:0|0:0,0:0:0:0:
305,64,40669,2,0,B|300:96|356:68|376:144,1,110,4|0,0:0|0:0,0:0:0:0:
376,248,41770,6,0,P|256:336|120:240,1,330
108,128,43972,6,0,B|196:224|324:8|408:120,1,330
328,192,46174,6,0,P|324:240|256:244,3,110,4|0|0|0,0:0|0:0|0:0|0:0,0:0:0:0:
184,192,48376,2,0,P|188:144|256:140,3,110,0|0|0|0,0:0|0:0|0:0|0:0,0:0:0:0:
352,136,50578,6,8,L|464:196,1,110
444,296,51679,2,8,L|328:352,1,110
236,340,52780,2,8,L|132:264,1,110
80,188,53881,6,8,B|152:184|116:132|184:112,1,110,8|8,0:0|0:0,0:0:0:0:
272,128,54982,6,0,P|322:140|328:192,3,110,4|0|0|0,0:0|0:0|0:0|0:0,0:0:0:0:
240,254,57184,2,0,P|190:242|185:191,3,110,0|0|0|0,0:0|0:0|0:0|0:0,0:0:0:0:
260,108,59386,6,8,L|372:168,1,110
360,272,60487,2,8,L|244:328,1,110
152,320,61588,2,8,L|48:244,1,110
60,160,62689,6,8,B|132:156|96:104|164:84,1,110,8|8,0:0|0:0,0:0:0:0:
281,54,63790,6,0,P|380:168|380:344,1,330,4|8,0:0|0:0,0:0:0:0:
256,192,65992,12,4,68194,0:0:0:0:
40,160,72598,6,0,P|40:216|76:264,1,110
172,304,73699,2,0,P|220:272|240:208,1,110
280,124,74800,2,0,P|301:74|347:45,1,110
472,160,75901,1,0,0:0:0:0:
412,268,76452,1,0,0:0:0:0:
312,316,77002,6,0,B|208:264|284:204|168:128,1,220
120,56,78654,1,0,0:0:0:0:
120,56,79204,1,0,0:0:0:0:
116,164,79755,2,0,B|138:305|220:223|257:345,1,220,0|0,0:0|0:0,0:0:0:0:
360,320,81406,6,0,P|428:272|416:128,1,220
356,64,83058,1,0,0:0:0:0:
252,96,83608,1,0,0:0:0:0:
220,203,84159,2,0,P|268:271|307:264,2,110
144,96,85810,5,4,0:0:0:0:
368,96,86911,1,4,0:0:0:0:
160,192,88012,6,0,L|256:124,1,110
340,192,89113,2,0,B|288:192|288:260|244:260,1,110
144,288,90214,5,4,0:0:0:0:
368,288,91315,1,4,0:0:0:0:
64,220,92967,6,0,P|168:300|276:320,1,220
364,316,94618,1,0,0:0:0:0:
420,224,95169,6,0,P|392:164|340:148,1,110
304,128,95995,1,8,0:0:0:0:
248,128,96270,2,0,L|120:144,1,110
44,196,97371,6,0,P|128:284|232:304,1,220
328,272,99022,1,0,0:0:0:0:
404,192,99573,6,0,P|356:164|280:164,1,110,0|8,0:0|0:0,0:0:0:0:
248,172,100399,1,0,0:0:0:0:
196,184,100674,1,8,0:0:0:0:
104,60,101224,6,0,B|186:170|320:-4|408:124,1,330
328,192,103426,6,0,P|324:240|256:244,3,110,4|0|0|0,0:0|0:0|0:0|0:0,0:0:0:0:
184,192,105628,2,0,P|188:144|256:140,3,110,0|0|0|0,0:0|0:0|0:0|0:0,0:0:0:0:
352,136,107830,6,8,L|464:196,1,110
444,296,108931,2,8,L|328:352,1,110
236,340,110032,2,8,L|132:264,1,110
80,188,111133,6,8,B|152:184|116:132|184:112,1,110,8|8,0:0|0:0,0:0:0:0:
272,128,112234,6,0,P|322:140|328:192,3,110,4|0|0|0,0:0|0:0|0:0|0:0,0:0:0:0:
240,254,114436,2,0,P|190:242|185:191,3,110,0|0|0|0,0:0|0:0|0:0|0:0,0:0:0:0:
260,108,116638,6,8,L|372:168,1,110
360,272,117739,2,8,L|244:328,1,110
152,320,118840,2,8,L|48:244,1,110
60,160,119941,6,8,B|131:168|105:111|175:103,1,110,8|8,0:0|0:0,0:0:0:0:
244,52,121042,6,0,P|348:38|411:121,1,220,4|0,0:0|0:0,0:0:0:0:
432,232,122694,1,8,0:0:0:0:
368,324,123244,6,0,P|263:338|201:254,1,220
172,148,124896,1,8,0:0:0:0:
200,52,125446,6,0,L|280:52,2,55,0|0|8,0:0|0:0|0:0,0:0:0:0:
260,144,126547,2,0,L|340:144,2,55,0|0|8,0:0|0:0|0:0,0:0:0:0:
316,240,127648,2,0,L|396:240,2,55,0|0|0,0:0|0:0|0:0,0:0:0:0:
204,240,128749,1,8,0:0:0:0:
96,240,129300,1,8,0:0:0:0:
208,240,129850,6,0,P|291:177|276:73,1,220,4|0,0:0|0:0,0:0:0:0:
188,140,131502,1,8,0:0:0:0:
82,203,132052,6,0,P|68:99|152:36,1,220
188,140,133704,1,8,0:0:0:0:
260,224,134254,6,0,L|315:224,2,55,0|0|8,0:0|0:0|0:0,0:0:0:0:
316,320,135355,2,0,L|371:320,2,55,0|0|8,0:0|0:0|0:0,0:0:0:0:
260,224,136456,2,0,L|315:224,2,55,0|0|0,0:0|0:0|0:0,0:0:0:0:
188,140,137557,1,8,0:0:0:0:
132,236,138108,1,8,0:0:0:0:
224,296,138658,6,0,P|455:248|320:52,1,550,4|0,0:0|0:0,0:0:0:0:
220,56,141961,1,8,0:0:0:0:
112,60,142512,1,8,0:0:0:0:
112,172,143062,6,0,P|144:236|200:236,3,110
288,236,145264,2,0,P|352:269|352:324,3,110,0|0|0|8,0:0|0:0|0:0|0:0,0:0:0:0:
252,324,147466,6,0,P|42:214|226:63,1,550,4|0,0:0|0:0,0:0:0:0:
324,64,150769,2,8,L|379:64,1,55
436,64,151320,1,8,0:0:0:0:
440,172,151870,6,0,P|408:236|352:236,3,110
268,256,154072,2,0,P|204:289|204:344,3,110,0|0|0|8,0:0|0:0|0:0|0:0,0:0:0:0:
304,344,156274,6,8,P|458:166|231:86,1,550,4|0,0:0|0:0,0:0:0:0:
148,140,159577,2,8,L|72:140,2,55,8|8|8,0:0|0:0|0:0,0:0:0:0:
256,152,160678,6,0,P|224:216|168:216,3,110
152,120,162880,2,0,P|88:152|88:208,3,110,0|0|0|8,0:0|0:0|0:0|0:0,0:0:0:0:
328,192,173890,6,0,P|324:240|256:244,3,110,4|0|0|0,0:0|0:0|0:0|0:0,0:0:0:0:
184,192,176092,2,0,P|188:144|256:140,3,110,0|0|0|0,0:0|0:0|0:0|0:0,0:0:0:0:
352,136,178294,6,8,L|464:196,1,110
444,296,179395,2,8,L|328:352,1,110
236,340,180496,2,8,L|132:264,1,110
80,188,181597,6,8,B|152:184|116:132|184:112,1,110,8|8,0:0|0:0,0:0:0:0:
244,52,182698,6,0,P|348:38|411:121,1,220,4|0,0:0|0:0,0:0:0:0:
432,232,184350,1,8,0:0:0:0:
368,324,184900,6,0,P|263:338|201:254,1,220
172,148,186552,1,8,0:0:0:0:
200,52,187102,6,0,L|280:52,2,55,0|0|8,0:0|0:0|0:0,0:0:0:0:
260,144,188203,2,0,L|340:144,2,55,0|0|8,0:0|0:0|0:0,0:0:0:0:
316,240,189304,2,0,L|396:240,2,55,0|0|0,0:0|0:0|0:0,0:0:0:0:
368,336,190405,1,8,0:0:0:0:
260,336,190956,1,0,0:0:0:0:
160,288,191506,6,0,P|189:68|276:54,1,330,4|8,0:0|0:0,0:0:0:0:
256,192,193708,12,4,195909,0:0:0:0:
