osu file format v12

[General]
AudioFilename: Hatsune Miku - Netoge Haijin Sprechchor.mp3
AudioLeadIn: 1000
PreviewTime: 14500
Countdown: 0
SampleSet: Normal
StackLeniency: 0.7
Mode: 1
LetterboxInBreaks: 0
WidescreenStoryboard: 0

[Editor]
DistanceSpacing: 0.8
BeatDivisor: 4
GridSize: 32

[Metadata]
Title:Netoge Haijin Sprechchor
TitleUnicode:ネトゲ廃人シュプレヒコール
Artist:Satsuki ga Tenkomori
ArtistUnicode:さつき が てんこもり
Creator:aabc271
Version:Oni
Source:Hatsune Miku: Project DIVA F
Tags:Taiko Vocaloid2 MMORPG Online Game Addicts Chorus of Voices Climbb65588 CBB NewibornCLivee NCL
BeatmapID:308979
BeatmapSetID:83349

[Difficulty]
HPDrainRate:4
CircleSize:5
OverallDifficulty:5
ApproachRate:5
SliderMultiplier:1.4
SliderTickRate:1

[Events]
//Background and Video events
0,0,"TaikoBG.jpg",0,110
//Break Periods
//Storyboard Layer 0 (Background)
//Storyboard Layer 1 (Fail)
//Storyboard Layer 2 (Pass)
//Storyboard Layer 3 (Foreground)
//Storyboard Sound Samples
//Background Colour Transformations
3,100,163,162,255

[TimingPoints]
2328.81307038487,342.857142857143,4,1,0,100,1,0
14671,-100,4,1,0,100,0,1
37985,-100,4,1,0,100,0,0
81871,-100,4,1,0,100,0,1
105185,-100,4,1,0,100,0,0
127128,-90.9090909090909,4,1,0,100,0,1
172385,-100,4,1,0,100,0,1
173757,-100,4,1,0,100,0,0

[HitObjects]
256,192,2328,1,0,0:0:0:0:
256,192,2500,1,0,0:0:0:0:
256,192,2585,1,0,0:0:0:0:
256,192,2671,5,8,0:0:0:0:
256,192,3014,5,0,0:0:0:0:
256,192,3100,5,8,0:0:0:0:
256,192,3185,5,0,0:0:0:0:
256,192,3271,1,0,0:0:0:0:
256,192,3357,5,8,0:0:0:0:
256,192,3528,5,0,0:0:0:0:
256,192,3700,5,12,0:0:0:0:
256,192,4043,1,8,0:0:0:0:
256,192,4385,1,8,0:0:0:0:
256,192,4557,5,0,0:0:0:0:
256,192,4643,1,0,0:0:0:0:
256,192,4728,1,0,0:0:0:0:
256,192,4900,5,8,0:0:0:0:
256,192,5243,1,8,0:0:0:0:
256,192,5414,1,8,0:0:0:0:
256,192,5757,1,8,0:0:0:0:
256,192,6100,1,8,0:0:0:0:
256,192,6443,5,0,0:0:0:0:
256,192,6957,1,0,0:0:0:0:
256,192,7300,1,0,0:0:0:0:
256,192,7643,5,8,0:0:0:0:
256,192,7985,1,8,0:0:0:0:
256,192,8157,1,8,0:0:0:0:
256,192,8500,1,8,0:0:0:0:
256,192,8843,5,0,0:0:0:0:
256,192,9185,5,8,0:0:0:0:
256,192,9528,1,8,0:0:0:0:
256,192,9871,5,8,0:0:0:0:
256,192,10043,1,8,0:0:0:0:
256,192,10128,1,8,0:0:0:0:
256,192,10214,5,0,0:0:0:0:
256,192,10385,5,8,0:0:0:0:
256,192,10728,1,8,0:0:0:0:
256,192,10900,1,8,0:0:0:0:
256,192,11243,1,8,0:0:0:0:
256,192,11585,1,8,0:0:0:0:
256,192,11928,5,0,0:0:0:0:
256,192,12443,1,0,0:0:0:0:
256,192,12785,1,0,0:0:0:0:
256,192,13128,5,8,0:0:0:0:
256,192,13300,1,8,0:0:0:0:
256,192,13471,5,0,0:0:0:0:
256,192,13557,1,0,0:0:0:0:
256,192,13643,5,8,0:0:0:0:
256,192,13985,5,0,0:0:0:0:
256,192,14071,5,8,0:0:0:0:
256,192,14157,5,0,0:0:0:0:
256,192,14243,1,0,0:0:0:0:
256,192,14328,5,8,0:0:0:0:
256,192,14500,5,0,0:0:0:0:
256,192,14671,1,12,0:0:0:0:
256,192,15014,1,12,0:0:0:0:
256,192,15357,1,8,0:0:0:0:
256,192,15528,5,0,0:0:0:0:
256,192,15871,1,0,0:0:0:0:
256,192,16043,1,0,0:0:0:0:
256,192,16214,5,8,0:0:0:0:
256,192,16557,5,0,0:0:0:0:
256,192,16900,1,0,0:0:0:0:
256,192,17071,1,0,0:0:0:0:
256,192,17243,5,8,0:0:0:0:
256,192,17585,5,0,0:0:0:0:
256,192,17757,5,8,0:0:0:0:
256,192,17928,1,8,0:0:0:0:
256,192,18271,5,0,0:0:0:0:
256,192,18357,1,0,0:0:0:0:
256,192,18443,5,8,0:0:0:0:
256,192,18614,5,0,0:0:0:0:
256,192,18785,1,0,0:0:0:0:
256,192,18957,5,8,0:0:0:0:
256,192,19300,1,8,0:0:0:0:
256,192,19643,1,8,0:0:0:0:
256,192,19814,5,0,0:0:0:0:
256,192,20157,5,8,0:0:0:0:
256,192,20328,1,8,0:0:0:0:
256,192,20414,1,8,0:0:0:0:
256,192,20500,1,8,0:0:0:0:
256,192,20671,5,0,0:0:0:0:
256,192,20843,5,8,0:0:0:0:
256,192,21014,1,8,0:0:0:0:
256,192,21185,5,0,0:0:0:0:
256,192,21357,1,0,0:0:0:0:
256,192,21528,1,0,0:0:0:0:
256,192,21700,5,8,0:0:0:0:
256,192,22043,5,0,0:0:0:0:
256,192,22385,1,0,0:0:0:0:
256,192,22557,1,0,0:0:0:0:
256,192,22728,5,8,0:0:0:0:
256,192,23071,5,0,0:0:0:0:
256,192,23243,5,8,0:0:0:0:
256,192,23414,5,0,0:0:0:0:
256,192,23500,1,0,0:0:0:0:
256,192,23585,5,8,0:0:0:0:
256,192,23757,5,0,0:0:0:0:
256,192,23928,5,8,0:0:0:0:
256,192,24014,1,8,0:0:0:0:
256,192,24100,5,0,0:0:0:0:
256,192,24271,1,0,0:0:0:0:
256,192,24443,5,8,0:0:0:0:
256,192,24785,1,8,0:0:0:0:
256,192,24957,5,0,0:0:0:0:
256,192,25043,5,8,0:0:0:0:
256,192,25128,5,0,0:0:0:0:
256,192,25214,1,0,0:0:0:0:
256,192,25300,5,8,0:0:0:0:
256,192,25471,5,0,0:0:0:0:
256,192,25643,5,12,0:0:0:0:
256,192,25985,1,12,0:0:0:0:
256,192,26328,5,8,0:0:0:0:
256,192,26500,5,0,0:0:0:0:
256,192,26843,1,0,0:0:0:0:
256,192,27014,1,0,0:0:0:0:
256,192,27185,5,8,0:0:0:0:
256,192,27528,5,0,0:0:0:0:
256,192,27871,1,0,0:0:0:0:
256,192,28043,1,0,0:0:0:0:
256,192,28214,5,8,0:0:0:0:
256,192,28557,5,0,0:0:0:0:
256,192,28728,5,8,0:0:0:0:
256,192,28900,1,8,0:0:0:0:
256,192,29243,5,0,0:0:0:0:
256,192,29328,1,0,0:0:0:0:
256,192,29414,5,8,0:0:0:0:
256,192,29585,5,0,0:0:0:0:
256,192,29757,1,0,0:0:0:0:
256,192,29928,5,8,0:0:0:0:
256,192,30271,1,8,0:0:0:0:
256,192,30614,1,8,0:0:0:0:
256,192,30785,5,0,0:0:0:0:
256,192,31128,5,8,0:0:0:0:
256,192,31300,1,8,0:0:0:0:
256,192,31385,1,8,0:0:0:0:
256,192,31471,1,8,0:0:0:0:
256,192,31643,5,0,0:0:0:0:
256,192,31814,5,8,0:0:0:0:
256,192,31985,1,8,0:0:0:0:
256,192,32071,1,8,0:0:0:0:
256,192,32157,5,0,0:0:0:0:
256,192,32328,1,0,0:0:0:0:
256,192,32500,1,0,0:0:0:0:
256,192,32671,5,8,0:0:0:0:
256,192,33014,5,0,0:0:0:0:
256,192,33357,1,0,0:0:0:0:
256,192,33528,1,0,0:0:0:0:
256,192,33700,5,8,0:0:0:0:
256,192,34043,5,0,0:0:0:0:
256,192,34214,5,8,0:0:0:0:
256,192,34385,5,0,0:0:0:0:
256,192,34471,1,0,0:0:0:0:
256,192,34557,5,8,0:0:0:0:
256,192,34728,5,0,0:0:0:0:
256,192,34900,5,8,0:0:0:0:
256,192,35071,1,8,0:0:0:0:
256,192,35414,5,0,0:0:0:0:
256,192,35757,5,8,0:0:0:0:
256,192,35928,1,8,0:0:0:0:
256,192,36100,5,0,0:0:0:0:
256,192,36271,1,0,0:0:0:0:
256,192,36614,2,0,P|192:96|256:32,1,210
256,192,37300,5,8,0:0:0:0:
256,192,37385,1,8,0:0:0:0:
256,192,37471,5,0,0:0:0:0:
256,192,37643,5,8,0:0:0:0:
256,192,37814,1,8,0:0:0:0:
256,192,37985,5,4,0:0:0:0:
256,192,38328,5,8,0:0:0:0:
256,192,38500,5,0,0:0:0:0:
256,192,38843,1,0,0:0:0:0:
256,192,39014,5,8,0:0:0:0:
256,192,39185,5,0,0:0:0:0:
256,192,39528,1,0,0:0:0:0:
256,192,39700,1,0,0:0:0:0:
256,192,39785,1,0,0:0:0:0:
256,192,39871,1,0,0:0:0:0:
256,192,39957,1,0,0:0:0:0:
256,192,40043,5,8,0:0:0:0:
256,192,40214,5,0,0:0:0:0:
256,192,40385,1,0,0:0:0:0:
256,192,40728,5,0,0:0:0:0:
256,192,41071,5,8,0:0:0:0:
256,192,41243,5,0,0:0:0:0:
256,192,41585,1,0,0:0:0:0:
256,192,41757,5,8,0:0:0:0:
256,192,41928,5,4,0:0:0:0:
256,192,42271,1,0,0:0:0:0:
256,192,42443,5,12,0:0:0:0:
256,192,42785,1,8,0:0:0:0:
256,192,42957,5,4,0:0:0:0:
256,192,43471,1,0,0:0:0:0:
256,192,43814,5,8,0:0:0:0:
256,192,43985,5,0,0:0:0:0:
256,192,44328,1,0,0:0:0:0:
256,192,44500,5,8,0:0:0:0:
256,192,44671,5,0,0:0:0:0:
256,192,45014,1,0,0:0:0:0:
256,192,45185,1,0,0:0:0:0:
256,192,45271,1,0,0:0:0:0:
256,192,45357,1,0,0:0:0:0:
256,192,45443,1,0,0:0:0:0:
256,192,45528,5,8,0:0:0:0:
256,192,45700,5,0,0:0:0:0:
256,192,45871,5,8,0:0:0:0:
256,192,46043,5,0,0:0:0:0:
256,192,46214,1,0,0:0:0:0:
256,192,46557,5,8,0:0:0:0:
256,192,46728,5,0,0:0:0:0:
256,192,47071,1,0,0:0:0:0:
256,192,47243,1,0,0:0:0:0:
256,192,47414,5,8,0:0:0:0:
256,192,47585,12,0,48614,0:0:0:0:
256,192,48957,5,4,0:0:0:0:
256,192,49300,5,8,0:0:0:0:
256,192,49471,5,0,0:0:0:0:
256,192,49557,1,0,0:0:0:0:
256,192,49643,1,0,0:0:0:0:
256,192,49814,1,0,0:0:0:0:
256,192,49985,5,8,0:0:0:0:
256,192,50157,1,8,0:0:0:0:
256,192,50500,1,8,0:0:0:0:
256,192,50671,1,8,0:0:0:0:
256,192,50843,5,0,0:0:0:0:
256,192,51014,1,4,0:0:0:0:
256,192,51357,5,12,0:0:0:0:
256,192,52043,5,8,0:0:0:0:
256,192,52214,5,0,0:0:0:0:
256,192,52300,1,0,0:0:0:0:
256,192,52385,1,0,0:0:0:0:
256,192,52557,5,8,0:0:0:0:
256,192,52728,5,0,0:0:0:0:
256,192,52900,5,8,0:0:0:0:
256,192,53243,1,8,0:0:0:0:
256,192,53414,1,8,0:0:0:0:
256,192,53585,5,0,0:0:0:0:
256,192,53757,1,4,0:0:0:0:
256,192,54100,5,12,0:0:0:0:
256,192,54614,1,8,0:0:0:0:
256,192,54785,1,8,0:0:0:0:
256,192,54957,1,8,0:0:0:0:
256,192,55128,5,0,0:0:0:0:
256,192,55214,1,0,0:0:0:0:
256,192,55300,5,8,0:0:0:0:
256,192,55643,5,0,0:0:0:0:
256,192,55728,1,0,0:0:0:0:
256,192,55814,5,8,0:0:0:0:
256,192,56157,5,0,0:0:0:0:
256,192,56243,1,0,0:0:0:0:
256,192,56328,5,8,0:0:0:0:
256,192,56671,5,0,0:0:0:0:
256,192,56757,1,0,0:0:0:0:
256,192,56843,5,8,0:0:0:0:
256,192,57185,5,0,0:0:0:0:
256,192,57528,1,8,0:0:0:0:
256,192,57700,5,0,0:0:0:0:
256,192,57785,1,0,0:0:0:0:
256,192,57871,1,0,0:0:0:0:
256,192,58043,5,8,0:0:0:0:
256,192,58214,5,0,0:0:0:0:
256,192,58385,5,8,0:0:0:0:
256,192,58728,5,0,0:0:0:0:
256,192,58900,1,0,0:0:0:0:
256,192,59071,5,8,0:0:0:0:
256,192,59243,5,0,0:0:0:0:
256,192,59328,5,8,0:0:0:0:
256,192,59500,5,0,0:0:0:0:
256,192,59585,5,8,0:0:0:0:
256,192,59757,5,0,0:0:0:0:
256,192,59928,1,4,0:0:0:0:
256,192,60271,5,8,0:0:0:0:
256,192,60443,1,8,0:0:0:0:
256,192,60614,5,0,0:0:0:0:
256,192,60957,5,8,0:0:0:0:
256,192,61128,5,0,0:0:0:0:
256,192,61214,1,0,0:0:0:0:
256,192,61300,1,0,0:0:0:0:
256,192,61471,5,8,0:0:0:0:
256,192,61643,5,0,0:0:0:0:
256,192,61814,5,8,0:0:0:0:
256,192,62157,5,0,0:0:0:0:
256,192,62500,5,8,0:0:0:0:
256,192,63014,1,12,0:0:0:0:
256,192,63357,1,12,0:0:0:0:
256,192,63700,1,12,0:0:0:0:
256,192,64214,1,12,0:0:0:0:
256,192,64385,1,12,0:0:0:0:
256,192,64557,1,12,0:0:0:0:
256,192,64900,1,12,0:0:0:0:
256,192,65071,1,12,0:0:0:0:
256,192,65757,1,8,0:0:0:0:
256,192,66100,5,0,0:0:0:0:
256,192,66443,5,8,0:0:0:0:
256,192,66614,5,0,0:0:0:0:
256,192,66700,1,0,0:0:0:0:
256,192,66785,1,0,0:0:0:0:
256,192,66957,5,8,0:0:0:0:
256,192,67128,5,0,0:0:0:0:
256,192,67300,5,8,0:0:0:0:
256,192,67643,1,8,0:0:0:0:
256,192,67814,5,0,0:0:0:0:
256,192,67985,5,8,0:0:0:0:
256,192,68157,5,0,0:0:0:0:
256,192,68328,1,0,0:0:0:0:
256,192,68414,1,0,0:0:0:0:
256,192,68500,5,8,0:0:0:0:
256,192,68843,5,0,0:0:0:0:
256,192,69014,1,0,0:0:0:0:
256,192,69100,5,8,0:0:0:0:
256,192,69185,1,8,0:0:0:0:
256,192,69528,1,8,0:0:0:0:
256,192,69700,5,0,0:0:0:0:
256,192,69785,1,0,0:0:0:0:
256,192,69871,5,8,0:0:0:0:
256,192,70214,1,8,0:0:0:0:
256,192,70385,5,0,0:0:0:0:
256,192,70471,5,8,0:0:0:0:
256,192,70557,1,8,0:0:0:0:
256,192,70900,1,0,0:0:0:0:
256,192,71243,5,8,0:0:0:0:
256,192,71414,1,8,0:0:0:0:
256,192,71585,5,0,0:0:0:0:
256,192,71928,5,8,0:0:0:0:
256,192,72100,5,0,0:0:0:0:
256,192,72271,5,8,0:0:0:0:
256,192,72443,1,8,0:0:0:0:
256,192,72528,1,8,0:0:0:0:
256,192,72614,5,0,0:0:0:0:
256,192,72785,5,8,0:0:0:0:
256,192,73128,5,0,0:0:0:0:
256,192,73471,5,8,0:0:0:0:
256,192,73643,1,12,0:0:0:0:
256,192,73814,1,12,0:0:0:0:
256,192,73985,1,12,0:0:0:0:
256,192,74328,1,12,0:0:0:0:
256,192,74671,1,12,0:0:0:0:
256,192,75357,1,12,0:0:0:0:
256,192,75528,1,12,0:0:0:0:
256,192,75871,1,12,0:0:0:0:
256,192,76043,1,12,0:0:0:0:
256,192,76385,5,0,0:0:0:0:
256,192,76728,5,8,0:0:0:0:
256,192,76900,1,8,0:0:0:0:
256,192,77071,1,8,0:0:0:0:
256,192,77414,1,8,0:0:0:0:
256,192,77757,1,8,0:0:0:0:
256,192,77928,5,0,0:0:0:0:
256,192,78014,1,0,0:0:0:0:
256,192,78100,1,0,0:0:0:0:
256,192,78271,5,8,0:0:0:0:
256,192,78614,1,8,0:0:0:0:
256,192,78785,1,8,0:0:0:0:
256,192,78957,5,0,0:0:0:0:
256,192,79128,1,0,0:0:0:0:
256,192,79300,1,0,0:0:0:0:
256,192,79385,1,0,0:0:0:0:
256,192,79471,5,8,0:0:0:0:
256,192,79814,5,0,0:0:0:0:
256,192,79985,1,0,0:0:0:0:
256,192,80071,5,8,0:0:0:0:
256,192,80157,1,8,0:0:0:0:
256,192,80500,5,8,0:0:0:0:
256,192,80671,5,0,0:0:0:0:
256,192,80757,1,0,0:0:0:0:
256,192,80843,5,8,0:0:0:0:
256,192,81014,5,0,0:0:0:0:
256,192,81185,5,8,0:0:0:0:
256,192,81271,1,8,0:0:0:0:
256,192,81357,5,0,0:0:0:0:
256,192,81443,1,0,0:0:0:0:
256,192,81528,5,8,0:0:0:0:
256,192,81700,5,0,0:0:0:0:
256,192,81871,5,12,0:0:0:0:
256,192,82214,1,12,0:0:0:0:
256,192,82557,1,8,0:0:0:0:
256,192,82728,5,0,0:0:0:0:
256,192,83071,5,0,0:0:0:0:
256,192,83243,1,0,0:0:0:0:
256,192,83414,5,8,0:0:0:0:
256,192,83757,5,0,0:0:0:0:
256,192,84100,1,0,0:0:0:0:
256,192,84271,1,0,0:0:0:0:
256,192,84443,5,8,0:0:0:0:
256,192,84785,5,0,0:0:0:0:
256,192,84957,5,8,0:0:0:0:
256,192,85128,1,8,0:0:0:0:
256,192,85471,5,0,0:0:0:0:
256,192,85557,1,0,0:0:0:0:
256,192,85643,5,8,0:0:0:0:
256,192,85814,5,0,0:0:0:0:
256,192,85985,1,0,0:0:0:0:
256,192,86157,5,8,0:0:0:0:
256,192,86500,1,8,0:0:0:0:
256,192,86843,1,8,0:0:0:0:
256,192,87014,5,0,0:0:0:0:
256,192,87357,5,8,0:0:0:0:
256,192,87528,1,8,0:0:0:0:
256,192,87614,1,8,0:0:0:0:
256,192,87700,1,8,0:0:0:0:
256,192,87871,5,0,0:0:0:0:
256,192,88043,5,8,0:0:0:0:
256,192,88214,1,8,0:0:0:0:
256,192,88300,1,8,0:0:0:0:
256,192,88385,5,0,0:0:0:0:
256,192,88557,1,0,0:0:0:0:
256,192,88728,1,0,0:0:0:0:
256,192,88900,5,8,0:0:0:0:
256,192,89243,5,0,0:0:0:0:
256,192,89585,1,0,0:0:0:0:
256,192,89757,1,0,0:0:0:0:
256,192,89928,5,8,0:0:0:0:
256,192,90271,5,0,0:0:0:0:
256,192,90443,5,8,0:0:0:0:
256,192,90614,5,0,0:0:0:0:
256,192,90700,1,0,0:0:0:0:
256,192,90785,5,8,0:0:0:0:
256,192,90957,5,0,0:0:0:0:
256,192,91128,5,8,0:0:0:0:
256,192,91214,1,8,0:0:0:0:
256,192,91300,5,0,0:0:0:0:
256,192,91471,1,0,0:0:0:0:
256,192,91643,5,8,0:0:0:0:
256,192,91985,1,8,0:0:0:0:
256,192,92157,5,0,0:0:0:0:
256,192,92243,5,8,0:0:0:0:
256,192,92328,5,0,0:0:0:0:
256,192,92414,1,0,0:0:0:0:
256,192,92500,5,8,0:0:0:0:
256,192,92671,5,0,0:0:0:0:
256,192,92843,5,12,0:0:0:0:
256,192,93185,1,12,0:0:0:0:
256,192,93528,1,8,0:0:0:0:
256,192,93700,5,0,0:0:0:0:
256,192,94043,1,0,0:0:0:0:
256,192,94214,1,0,0:0:0:0:
256,192,94385,5,8,0:0:0:0:
256,192,94728,5,0,0:0:0:0:
256,192,95071,1,0,0:0:0:0:
256,192,95243,1,0,0:0:0:0:
256,192,95414,5,8,0:0:0:0:
256,192,95757,5,0,0:0:0:0:
256,192,95928,5,8,0:0:0:0:
256,192,96100,1,8,0:0:0:0:
256,192,96443,5,0,0:0:0:0:
256,192,96528,1,0,0:0:0:0:
256,192,96614,5,8,0:0:0:0:
256,192,96785,5,0,0:0:0:0:
256,192,96957,1,0,0:0:0:0:
256,192,97128,5,8,0:0:0:0:
256,192,97471,1,8,0:0:0:0:
256,192,97814,1,8,0:0:0:0:
256,192,97985,5,0,0:0:0:0:
256,192,98328,1,8,0:0:0:0:
256,192,98500,1,8,0:0:0:0:
256,192,98585,1,8,0:0:0:0:
256,192,98671,1,8,0:0:0:0:
256,192,98843,5,0,0:0:0:0:
256,192,99014,5,8,0:0:0:0:
256,192,99185,1,8,0:0:0:0:
256,192,99271,1,8,0:0:0:0:
256,192,99357,5,0,0:0:0:0:
256,192,99528,1,0,0:0:0:0:
256,192,99700,1,0,0:0:0:0:
256,192,99871,5,8,0:0:0:0:
256,192,100214,5,0,0:0:0:0:
256,192,100557,1,0,0:0:0:0:
256,192,100728,1,0,0:0:0:0:
256,192,100900,5,8,0:0:0:0:
256,192,101243,5,0,0:0:0:0:
256,192,101414,5,8,0:0:0:0:
256,192,101585,5,0,0:0:0:0:
256,192,101671,1,0,0:0:0:0:
256,192,101757,5,8,0:0:0:0:
256,192,101928,5,0,0:0:0:0:
256,192,102100,5,8,0:0:0:0:
256,192,102271,1,8,0:0:0:0:
256,192,102614,5,0,0:0:0:0:
256,192,102957,5,8,0:0:0:0:
256,192,103128,1,8,0:0:0:0:
256,192,103300,5,0,0:0:0:0:
256,192,103471,1,0,0:0:0:0:
256,192,103814,2,4,P|96:96|256:0,1,420
256,192,105185,1,4,0:0:0:0:
256,192,105357,5,8,0:0:0:0:
256,192,105528,5,0,0:0:0:0:
256,192,105700,5,8,0:0:0:0:
256,192,105871,5,0,0:0:0:0:
256,192,106043,5,8,0:0:0:0:
256,192,106128,5,0,0:0:0:0:
256,192,106300,1,0,0:0:0:0:
256,192,106385,5,8,0:0:0:0:
256,192,106557,5,0,0:0:0:0:
256,192,106643,1,0,0:0:0:0:
256,192,106728,5,8,0:0:0:0:
256,192,106900,5,0,0:0:0:0:
256,192,106985,1,0,0:0:0:0:
256,192,107071,5,8,0:0:0:0:
256,192,107414,5,0,0:0:0:0:
256,192,107585,5,8,0:0:0:0:
256,192,107757,5,0,0:0:0:0:
256,192,107928,5,8,0:0:0:0:
256,192,108100,5,0,0:0:0:0:
256,192,108271,1,0,0:0:0:0:
256,192,108357,1,0,0:0:0:0:
256,192,108443,5,8,0:0:0:0:
256,192,108614,1,8,0:0:0:0:
256,192,108700,5,0,0:0:0:0:
256,192,108785,5,8,0:0:0:0:
256,192,108871,5,0,0:0:0:0:
256,192,108957,5,8,0:0:0:0:
256,192,109128,1,8,0:0:0:0:
256,192,109300,5,0,0:0:0:0:
256,192,109471,5,8,0:0:0:0:
256,192,109643,5,0,0:0:0:0:
256,192,109814,5,8,0:0:0:0:
256,192,110157,1,8,0:0:0:0:
256,192,110328,5,0,0:0:0:0:
256,192,110671,1,8,0:0:0:0:
256,192,110843,1,8,0:0:0:0:
256,192,111014,1,8,0:0:0:0:
256,192,111128,1,8,0:0:0:0:
256,192,111243,1,8,0:0:0:0:
256,192,111357,5,0,0:0:0:0:
256,192,111528,1,0,0:0:0:0:
256,192,111700,5,8,0:0:0:0:
256,192,111871,1,12,0:0:0:0:
256,192,112214,5,0,0:0:0:0:
256,192,112300,5,8,0:0:0:0:
256,192,112385,5,0,0:0:0:0:
256,192,112557,5,0,0:0:0:0:
256,192,112728,1,0,0:0:0:0:
256,192,112900,5,8,0:0:0:0:
256,192,113071,5,0,0:0:0:0:
256,192,113414,1,0,0:0:0:0:
256,192,113500,5,8,0:0:0:0:
256,192,113585,5,0,0:0:0:0:
256,192,113671,1,0,0:0:0:0:
256,192,113757,5,8,0:0:0:0:
256,192,114100,1,0,0:0:0:0:
256,192,114185,5,8,0:0:0:0:
256,192,114271,5,0,0:0:0:0:
256,192,114357,1,8,0:0:0:0:
256,192,114443,5,0,0:0:0:0:
256,192,114785,1,0,0:0:0:0:
256,192,114957,1,0,0:0:0:0:
256,192,115043,1,0,0:0:0:0:
256,192,115128,5,8,0:0:0:0:
256,192,115300,1,8,0:0:0:0:
256,192,115471,1,8,0:0:0:0:
256,192,115643,1,8,0:0:0:0:
256,192,115814,5,0,0:0:0:0:
256,192,116157,1,4,0:0:0:0:
256,192,116328,5,8,0:0:0:0:
256,192,116500,5,0,0:0:0:0:
256,192,116671,5,8,0:0:0:0:
256,192,116843,5,0,0:0:0:0:
256,192,117014,5,8,0:0:0:0:
256,192,117100,5,0,0:0:0:0:
256,192,117271,1,0,0:0:0:0:
256,192,117357,5,8,0:0:0:0:
256,192,117528,5,0,0:0:0:0:
256,192,117614,1,0,0:0:0:0:
256,192,117700,5,8,0:0:0:0:
256,192,117871,5,0,0:0:0:0:
256,192,117957,1,0,0:0:0:0:
256,192,118043,5,8,0:0:0:0:
256,192,118385,5,0,0:0:0:0:
256,192,118557,5,8,0:0:0:0:
256,192,118728,5,0,0:0:0:0:
256,192,118900,5,8,0:0:0:0:
256,192,118985,1,8,0:0:0:0:
256,192,119071,5,0,0:0:0:0:
256,192,119243,1,0,0:0:0:0:
256,192,119328,5,8,0:0:0:0:
256,192,119414,5,0,0:0:0:0:
256,192,119500,5,8,0:0:0:0:
256,192,119585,5,0,0:0:0:0:
256,192,119757,1,8,0:0:0:0:
256,192,119843,5,0,0:0:0:0:
256,192,119928,5,8,0:0:0:0:
256,192,120100,1,8,0:0:0:0:
256,192,120271,5,0,0:0:0:0:
256,192,120443,5,8,0:0:0:0:
256,192,120614,5,0,0:0:0:0:
256,192,120785,5,8,0:0:0:0:
256,192,121128,1,8,0:0:0:0:
256,192,121300,5,0,0:0:0:0:
256,192,121643,5,8,0:0:0:0:
256,192,121814,1,8,0:0:0:0:
256,192,121985,1,8,0:0:0:0:
256,192,122100,1,8,0:0:0:0:
256,192,122214,1,8,0:0:0:0:
256,192,122328,5,0,0:0:0:0:
256,192,122500,1,0,0:0:0:0:
256,192,122671,5,8,0:0:0:0:
256,192,122843,1,12,0:0:0:0:
256,192,123185,5,0,0:0:0:0:
256,192,123271,5,8,0:0:0:0:
256,192,123357,5,0,0:0:0:0:
256,192,123528,1,0,0:0:0:0:
256,192,123700,1,0,0:0:0:0:
256,192,123871,5,8,0:0:0:0:
256,192,124043,5,0,0:0:0:0:
256,192,124385,5,0,0:0:0:0:
256,192,124471,1,8,0:0:0:0:
256,192,124557,5,0,0:0:0:0:
256,192,124643,1,0,0:0:0:0:
256,192,124728,5,8,0:0:0:0:
256,192,125071,5,0,0:0:0:0:
256,192,125156,5,8,0:0:0:0:
256,192,125242,5,0,0:0:0:0:
256,192,125328,5,8,0:0:0:0:
256,192,125414,5,0,0:0:0:0:
256,192,125757,5,0,0:0:0:0:
256,192,125928,1,0,0:0:0:0:
256,192,126014,1,0,0:0:0:0:
256,192,126100,5,8,0:0:0:0:
256,192,126271,1,8,0:0:0:0:
256,192,126443,1,8,0:0:0:0:
256,192,126528,1,8,0:0:0:0:
256,192,126614,5,0,0:0:0:0:
256,192,126700,1,0,0:0:0:0:
256,192,126785,1,0,0:0:0:0:
256,192,127128,5,12,0:0:0:0:
256,192,127471,1,12,0:0:0:0:
256,192,127814,1,8,0:0:0:0:
256,192,127985,5,0,0:0:0:0:
256,192,128328,1,0,0:0:0:0:
256,192,128500,1,0,0:0:0:0:
256,192,128671,5,8,0:0:0:0:
256,192,129014,5,0,0:0:0:0:
256,192,129357,1,0,0:0:0:0:
256,192,129528,1,0,0:0:0:0:
256,192,129700,5,8,0:0:0:0:
256,192,130043,5,0,0:0:0:0:
256,192,130214,5,8,0:0:0:0:
256,192,130385,1,8,0:0:0:0:
256,192,130728,5,0,0:0:0:0:
256,192,130814,1,0,0:0:0:0:
256,192,130900,5,8,0:0:0:0:
256,192,131071,5,0,0:0:0:0:
256,192,131243,1,0,0:0:0:0:
256,192,131414,5,8,0:0:0:0:
256,192,131757,1,8,0:0:0:0:
256,192,132100,1,8,0:0:0:0:
256,192,132271,5,0,0:0:0:0:
256,192,132614,5,8,0:0:0:0:
256,192,132785,1,8,0:0:0:0:
256,192,132871,1,8,0:0:0:0:
256,192,132957,1,8,0:0:0:0:
256,192,133128,5,0,0:0:0:0:
256,192,133300,5,8,0:0:0:0:
256,192,133471,1,8,0:0:0:0:
256,192,133557,1,8,0:0:0:0:
256,192,133643,5,0,0:0:0:0:
256,192,133814,1,0,0:0:0:0:
256,192,133985,1,0,0:0:0:0:
256,192,134157,5,8,0:0:0:0:
256,192,134500,1,0,0:0:0:0:
256,192,134843,1,0,0:0:0:0:
256,192,135014,1,0,0:0:0:0:
256,192,135185,5,8,0:0:0:0:
256,192,135528,5,0,0:0:0:0:
256,192,135700,5,8,0:0:0:0:
256,192,135871,5,0,0:0:0:0:
256,192,135957,1,0,0:0:0:0:
256,192,136043,5,8,0:0:0:0:
256,192,136214,5,0,0:0:0:0:
256,192,136385,5,8,0:0:0:0:
256,192,136471,1,8,0:0:0:0:
256,192,136557,5,0,0:0:0:0:
256,192,136728,1,0,0:0:0:0:
256,192,136900,5,8,0:0:0:0:
256,192,137243,1,8,0:0:0:0:
256,192,137414,5,0,0:0:0:0:
256,192,137500,5,8,0:0:0:0:
256,192,137585,5,0,0:0:0:0:
256,192,137671,1,0,0:0:0:0:
256,192,137757,5,8,0:0:0:0:
256,192,137928,5,0,0:0:0:0:
256,192,138100,5,12,0:0:0:0:
256,192,138443,1,12,0:0:0:0:
256,192,138785,1,8,0:0:0:0:
256,192,138957,5,0,0:0:0:0:
256,192,139300,1,0,0:0:0:0:
256,192,139471,1,0,0:0:0:0:
256,192,139643,5,8,0:0:0:0:
256,192,139985,5,0,0:0:0:0:
256,192,140328,1,0,0:0:0:0:
256,192,140500,1,0,0:0:0:0:
256,192,140671,5,8,0:0:0:0:
256,192,141014,5,0,0:0:0:0:
256,192,141185,5,8,0:0:0:0:
256,192,141357,1,8,0:0:0:0:
256,192,141700,5,0,0:0:0:0:
256,192,141785,1,0,0:0:0:0:
256,192,141871,5,8,0:0:0:0:
256,192,142043,5,0,0:0:0:0:
256,192,142214,1,0,0:0:0:0:
256,192,142385,5,8,0:0:0:0:
256,192,142728,1,8,0:0:0:0:
256,192,143071,1,8,0:0:0:0:
256,192,143243,5,0,0:0:0:0:
256,192,143585,5,8,0:0:0:0:
256,192,143757,1,8,0:0:0:0:
256,192,143843,1,8,0:0:0:0:
256,192,143928,1,8,0:0:0:0:
256,192,144100,5,0,0:0:0:0:
256,192,144271,5,8,0:0:0:0:
256,192,144443,1,8,0:0:0:0:
256,192,144528,1,8,0:0:0:0:
256,192,144614,5,0,0:0:0:0:
256,192,144785,1,0,0:0:0:0:
256,192,144957,1,0,0:0:0:0:
256,192,145128,5,8,0:0:0:0:
256,192,145471,5,0,0:0:0:0:
256,192,145814,1,0,0:0:0:0:
256,192,145985,1,0,0:0:0:0:
256,192,146157,5,8,0:0:0:0:
256,192,146500,5,0,0:0:0:0:
256,192,146671,5,8,0:0:0:0:
256,192,146843,5,0,0:0:0:0:
256,192,146928,1,0,0:0:0:0:
256,192,147014,5,8,0:0:0:0:
256,192,147185,5,0,0:0:0:0:
256,192,147357,5,8,0:0:0:0:
256,192,147528,5,0,0:0:0:0:
256,192,147614,1,0,0:0:0:0:
256,192,147700,1,0,0:0:0:0:
256,192,147785,1,0,0:0:0:0:
256,192,147871,1,0,0:0:0:0:
256,192,148043,5,8,0:0:0:0:
256,192,148214,5,0,0:0:0:0:
256,192,148300,1,0,0:0:0:0:
256,192,148385,5,8,0:0:0:0:
256,192,148557,1,8,0:0:0:0:
256,192,148643,1,8,0:0:0:0:
256,192,148728,5,0,0:0:0:0:
256,192,148814,1,0,0:0:0:0:
256,192,148900,1,0,0:0:0:0:
256,192,149071,5,12,0:0:0:0:
256,192,149414,5,4,0:0:0:0:
256,192,149757,1,0,0:0:0:0:
256,192,149928,1,0,0:0:0:0:
256,192,150271,1,0,0:0:0:0:
256,192,150443,1,0,0:0:0:0:
256,192,150614,5,8,0:0:0:0:
256,192,150957,5,0,0:0:0:0:
256,192,151300,1,0,0:0:0:0:
256,192,151471,1,0,0:0:0:0:
256,192,151643,5,8,0:0:0:0:
256,192,151985,5,0,0:0:0:0:
256,192,152157,5,8,0:0:0:0:
256,192,152328,1,8,0:0:0:0:
256,192,152671,5,0,0:0:0:0:
256,192,152757,1,0,0:0:0:0:
256,192,152843,1,8,0:0:0:0:
256,192,153014,5,0,0:0:0:0:
256,192,153185,1,0,0:0:0:0:
256,192,153357,5,8,0:0:0:0:
256,192,153700,1,8,0:0:0:0:
256,192,154043,1,8,0:0:0:0:
256,192,154214,5,0,0:0:0:0:
256,192,154557,5,8,0:0:0:0:
256,192,154728,1,8,0:0:0:0:
256,192,154814,1,8,0:0:0:0:
256,192,154900,1,8,0:0:0:0:
256,192,155071,5,0,0:0:0:0:
256,192,155243,5,8,0:0:0:0:
256,192,155414,1,8,0:0:0:0:
256,192,155500,1,8,0:0:0:0:
256,192,155585,5,0,0:0:0:0:
256,192,155757,1,0,0:0:0:0:
256,192,155928,1,0,0:0:0:0:
256,192,156100,5,8,0:0:0:0:
256,192,156443,5,0,0:0:0:0:
256,192,156785,1,0,0:0:0:0:
256,192,156957,1,0,0:0:0:0:
256,192,157128,5,8,0:0:0:0:
256,192,157471,5,0,0:0:0:0:
256,192,157643,5,8,0:0:0:0:
256,192,157814,5,0,0:0:0:0:
256,192,157900,1,0,0:0:0:0:
256,192,157985,5,8,0:0:0:0:
256,192,158157,5,0,0:0:0:0:
256,192,158328,5,8,0:0:0:0:
256,192,158500,5,0,0:0:0:0:
256,192,158671,1,0,0:0:0:0:
256,192,158843,5,8,0:0:0:0:
256,192,159185,1,8,0:0:0:0:
256,192,159357,5,0,0:0:0:0:
256,192,159443,5,8,0:0:0:0:
256,192,159528,1,0,0:0:0:0:
256,192,159614,5,0,0:0:0:0:
256,192,159700,5,8,0:0:0:0:
256,192,159871,5,0,0:0:0:0:
256,192,160043,5,12,0:0:0:0:
256,192,160214,1,8,0:0:0:0:
256,192,160300,1,8,0:0:0:0:
256,192,160385,1,8,0:0:0:0:
256,192,160557,5,0,0:0:0:0:
256,192,160728,5,8,0:0:0:0:
256,192,160900,1,8,0:0:0:0:
256,192,160985,1,8,0:0:0:0:
256,192,161071,5,0,0:0:0:0:
256,192,161243,1,0,0:0:0:0:
256,192,161414,1,0,0:0:0:0:
256,192,161585,5,8,0:0:0:0:
256,192,161928,5,0,0:0:0:0:
256,192,162271,1,0,0:0:0:0:
256,192,162443,1,0,0:0:0:0:
256,192,162528,1,0,0:0:0:0:
256,192,162614,5,8,0:0:0:0:
256,192,162957,5,0,0:0:0:0:
256,192,163128,5,8,0:0:0:0:
256,192,163214,1,8,0:0:0:0:
256,192,163300,1,8,0:0:0:0:
256,192,163643,5,0,0:0:0:0:
256,192,163728,1,0,0:0:0:0:
256,192,163814,5,8,0:0:0:0:
256,192,163985,5,0,0:0:0:0:
256,192,164071,1,0,0:0:0:0:
256,192,164157,1,0,0:0:0:0:
256,192,164328,5,8,0:0:0:0:
256,192,164500,1,8,0:0:0:0:
256,192,164671,1,8,0:0:0:0:
256,192,165014,1,8,0:0:0:0:
256,192,165185,5,0,0:0:0:0:
256,192,165528,5,12,0:0:0:0:
256,192,165700,5,8,0:0:0:0:
256,192,165785,1,8,0:0:0:0:
256,192,165871,1,8,0:0:0:0:
256,192,166043,5,0,0:0:0:0:
256,192,166214,5,12,0:0:0:0:
256,192,166385,1,8,0:0:0:0:
256,192,166471,1,8,0:0:0:0:
256,192,166557,5,0,0:0:0:0:
256,192,166728,1,0,0:0:0:0:
256,192,166900,1,0,0:0:0:0:
256,192,167071,5,8,0:0:0:0:
256,192,167414,5,0,0:0:0:0:
256,192,167757,1,0,0:0:0:0:
256,192,167928,1,0,0:0:0:0:
256,192,168014,1,0,0:0:0:0:
256,192,168100,5,8,0:0:0:0:
256,192,168271,1,12,0:0:0:0:
256,192,168443,5,0,0:0:0:0:
256,192,168528,1,0,0:0:0:0:
256,192,168614,5,8,0:0:0:0:
256,192,168785,1,0,0:0:0:0:
256,192,168957,1,12,0:0:0:0:
256,192,169128,5,0,0:0:0:0:
256,192,169214,1,0,0:0:0:0:
256,192,169300,5,8,0:0:0:0:
256,192,169471,1,8,0:0:0:0:
256,192,169643,1,12,0:0:0:0:
256,192,169814,1,8,0:0:0:0:
256,192,169900,1,8,0:0:0:0:
256,192,169985,5,0,0:0:0:0:
256,192,170157,1,0,0:0:0:0:
256,192,170328,5,8,0:0:0:0:
256,192,170414,1,8,0:0:0:0:
256,192,170500,5,0,0:0:0:0:
256,192,170585,1,0,0:0:0:0:
256,192,170671,5,8,0:0:0:0:
256,192,171014,12,0,172385,0:0:0:0:
256,192,173071,5,8,0:0:0:0:
256,192,173157,1,8,0:0:0:0:
256,192,173243,5,0,0:0:0:0:
256,192,173414,5,8,0:0:0:0:
256,192,173585,1,8,0:0:0:0:
256,192,173757,1,12,0:0:0:0:
256,192,174100,1,8,0:0:0:0:
256,192,174443,1,8,0:0:0:0:
256,192,174614,5,0,0:0:0:0:
256,192,174700,1,0,0:0:0:0:
256,192,174785,1,0,0:0:0:0:
256,192,174957,5,8,0:0:0:0:
256,192,175300,1,8,0:0:0:0:
256,192,175471,1,8,0:0:0:0:
256,192,175814,1,8,0:0:0:0:
256,192,176157,1,8,0:0:0:0:
256,192,176500,5,0,0:0:0:0:
256,192,177014,1,0,0:0:0:0:
256,192,177357,1,0,0:0:0:0:
256,192,177700,5,8,0:0:0:0:
256,192,178043,1,8,0:0:0:0:
256,192,178214,1,8,0:0:0:0:
256,192,178557,1,8,0:0:0:0:
256,192,178900,5,0,0:0:0:0:
256,192,179243,5,8,0:0:0:0:
256,192,179585,1,8,0:0:0:0:
256,192,179928,1,8,0:0:0:0:
256,192,180100,1,8,0:0:0:0:
256,192,180185,1,8,0:0:0:0:
256,192,180271,5,0,0:0:0:0:
256,192,180443,5,8,0:0:0:0:
256,192,180785,1,8,0:0:0:0:
256,192,180957,1,8,0:0:0:0:
256,192,181300,1,8,0:0:0:0:
256,192,181643,1,8,0:0:0:0:
256,192,181985,5,0,0:0:0:0:
256,192,182500,1,0,0:0:0:0:
256,192,182843,1,0,0:0:0:0:
256,192,183185,1,0,0:0:0:0:
256,192,183357,5,8,0:0:0:0:
256,192,183528,5,0,0:0:0:0:
256,192,183614,1,0,0:0:0:0:
256,192,183700,5,8,0:0:0:0:
256,192,184043,5,0,0:0:0:0:
256,192,184128,5,8,0:0:0:0:
256,192,184214,5,0,0:0:0:0:
256,192,184300,1,0,0:0:0:0:
256,192,184385,5,8,0:0:0:0:
256,192,184728,5,8,0:0:0:0:
256,192,185071,1,8,0:0:0:0:
256,192,185414,1,8,0:0:0:0:
256,192,185585,5,0,0:0:0:0:
256,192,185928,5,8,0:0:0:0:
256,192,186271,1,8,0:0:0:0:
256,192,186443,1,8,0:0:0:0:
256,192,186785,1,8,0:0:0:0:
256,192,187128,1,8,0:0:0:0:
256,192,187471,5,0,0:0:0:0:
256,192,187985,1,0,0:0:0:0:
256,192,188328,1,0,0:0:0:0:
256,192,188671,5,8,0:0:0:0:
256,192,189014,1,8,0:0:0:0:
256,192,189185,1,8,0:0:0:0:
256,192,189528,1,8,0:0:0:0:
256,192,189871,5,0,0:0:0:0:
256,192,190214,5,8,0:0:0:0:
256,192,190557,1,8,0:0:0:0:
256,192,190900,1,8,0:0:0:0:
256,192,191071,5,0,0:0:0:0:
256,192,191414,5,8,0:0:0:0:
256,192,191757,1,8,0:0:0:0:
256,192,191928,1,8,0:0:0:0:
256,192,192271,1,8,0:0:0:0:
256,192,192614,1,8,0:0:0:0:
256,192,192957,5,4,0:0:0:0:
256,192,193471,1,4,0:0:0:0:
256,192,193814,1,4,0:0:0:0:
256,192,194157,5,12,0:0:0:0:
