osu file format v12

[General]
AudioFilename: Hatsune Miku - Netoge Haijin Sprechchor.mp3
AudioLeadIn: 1000
PreviewTime: 14500
Countdown: 0
SampleSet: Normal
StackLeniency: 0.7
Mode: 1
LetterboxInBreaks: 0
WidescreenStoryboard: 0

[Editor]
DistanceSpacing: 0.8
BeatDivisor: 2
GridSize: 32

[Metadata]
Title:Netoge Haijin Sprechchor
TitleUnicode:ネトゲ廃人シュプレヒコール
Artist:Satsuki ga Tenkomori
ArtistUnicode:さつき が てんこもり
Creator:aabc271
Version:Kantan
Source:Hatsune Miku: Project DIVA F
Tags:Taiko Vocaloid2 MMORPG Online Game Addicts Chorus of Voices Climbb65588 CBB NewibornCLivee NCL
BeatmapID:230216
BeatmapSetID:83349

[Difficulty]
HPDrainRate:3
CircleSize:5
OverallDifficulty:3
ApproachRate:5
SliderMultiplier:1.2
SliderTickRate:1

[Events]
//Background and Video events
0,0,"TaikoBG.jpg",0,110
//Break Periods
//Storyboard Layer 0 (Background)
//Storyboard Layer 1 (Fail)
//Storyboard Layer 2 (Pass)
//Storyboard Layer 3 (Foreground)
//Storyboard Sound Samples
//Background Colour Transformations
3,100,163,162,255

[TimingPoints]
2328.81307038487,342.857142857143,4,1,0,100,1,0
14671,-100,4,1,0,100,0,1
37985,-100,4,1,0,100,0,0
81871,-100,4,1,0,100,0,1
105185,-100,4,1,0,100,0,0
127128,-100,4,1,0,100,0,1
173757,-100,4,1,0,100,0,0

[HitObjects]
256,192,3700,1,12,0:0:0:0:
256,192,4385,5,0,0:0:0:0:
256,192,5071,5,8,0:0:0:0:
256,192,5414,1,8,0:0:0:0:
256,192,5757,1,8,0:0:0:0:
256,192,6443,5,0,0:0:0:0:
256,192,7128,1,0,0:0:0:0:
256,192,7814,5,8,0:0:0:0:
256,192,9185,5,8,0:0:0:0:
256,192,9871,1,8,0:0:0:0:
256,192,10557,1,8,0:0:0:0:
256,192,10900,1,8,0:0:0:0:
256,192,11243,1,8,0:0:0:0:
256,192,11928,5,0,0:0:0:0:
256,192,12614,1,0,0:0:0:0:
256,192,13300,5,8,0:0:0:0:
256,192,13643,1,8,0:0:0:0:
256,192,13985,1,8,0:0:0:0:
256,192,14671,1,12,0:0:0:0:
256,192,15014,1,12,0:0:0:0:
256,192,15357,5,0,0:0:0:0:
256,192,16043,5,8,0:0:0:0:
256,192,16557,5,0,0:0:0:0:
256,192,17414,5,8,0:0:0:0:
256,192,18100,1,8,0:0:0:0:
256,192,18785,5,0,0:0:0:0:
256,192,19128,5,8,0:0:0:0:
256,192,19471,5,0,0:0:0:0:
256,192,20157,1,8,0:0:0:0:
256,192,20500,1,8,0:0:0:0:
256,192,20843,1,8,0:0:0:0:
256,192,21528,5,0,0:0:0:0:
256,192,22043,1,0,0:0:0:0:
256,192,22900,5,8,0:0:0:0:
256,192,23585,1,8,0:0:0:0:
256,192,24271,5,0,0:0:0:0:
256,192,24614,5,8,0:0:0:0:
256,192,24957,1,8,0:0:0:0:
256,192,25643,1,12,0:0:0:0:
256,192,25985,1,12,0:0:0:0:
256,192,26328,5,0,0:0:0:0:
256,192,27014,5,8,0:0:0:0:
256,192,27528,5,0,0:0:0:0:
256,192,28385,1,8,0:0:0:0:
256,192,29071,1,8,0:0:0:0:
256,192,29757,5,0,0:0:0:0:
256,192,30100,5,8,0:0:0:0:
256,192,30443,1,8,0:0:0:0:
256,192,31128,5,0,0:0:0:0:
256,192,31471,1,0,0:0:0:0:
256,192,31814,5,8,0:0:0:0:
256,192,32500,1,8,0:0:0:0:
256,192,33014,5,0,0:0:0:0:
256,192,33871,5,8,0:0:0:0:
256,192,34214,5,0,0:0:0:0:
256,192,34557,5,8,0:0:0:0:
256,192,35243,1,8,0:0:0:0:
256,192,35585,1,8,0:0:0:0:
256,192,35928,5,0,0:0:0:0:
256,192,36614,2,0,P|128:96|256:0,1,360
256,192,37985,1,4,0:0:0:0:
256,192,38328,5,8,0:0:0:0:
256,192,39014,1,8,0:0:0:0:
256,192,40385,1,8,0:0:0:0:
256,192,40728,5,0,0:0:0:0:
256,192,41071,5,8,0:0:0:0:
256,192,41757,1,8,0:0:0:0:
256,192,42442,1,8,0:0:0:0:
256,192,42785,5,0,0:0:0:0:
256,192,43128,5,8,0:0:0:0:
256,192,43471,5,0,0:0:0:0:
256,192,43814,5,8,0:0:0:0:
256,192,44500,1,8,0:0:0:0:
256,192,45871,1,8,0:0:0:0:
256,192,46214,5,0,0:0:0:0:
256,192,46557,5,8,0:0:0:0:
256,192,47243,1,8,0:0:0:0:
256,192,47585,5,0,0:0:0:0:
256,192,48957,1,4,0:0:0:0:
256,192,49300,5,8,0:0:0:0:
256,192,49985,1,8,0:0:0:0:
256,192,50671,1,8,0:0:0:0:
256,192,51014,5,0,0:0:0:0:
256,192,51357,5,8,0:0:0:0:
256,192,52043,1,8,0:0:0:0:
256,192,52385,5,0,0:0:0:0:
256,192,53071,1,0,0:0:0:0:
256,192,53414,5,8,0:0:0:0:
256,192,53757,5,0,0:0:0:0:
256,192,54100,5,8,0:0:0:0:
256,192,54443,5,0,0:0:0:0:
256,192,55128,5,8,0:0:0:0:
256,192,55814,1,8,0:0:0:0:
256,192,56500,1,8,0:0:0:0:
256,192,57185,5,0,0:0:0:0:
256,192,57871,5,8,0:0:0:0:
256,192,58557,1,8,0:0:0:0:
256,192,58900,5,0,0:0:0:0:
256,192,59243,5,8,0:0:0:0:
256,192,59585,5,0,0:0:0:0:
256,192,59928,5,12,0:0:0:0:
256,192,60614,1,0,0:0:0:0:
256,192,61300,1,0,0:0:0:0:
256,192,61814,5,8,0:0:0:0:
256,192,62157,5,0,0:0:0:0:
256,192,62500,5,8,0:0:0:0:
256,192,65414,5,0,0:0:0:0:
256,192,65757,5,8,0:0:0:0:
256,192,66100,5,0,0:0:0:0:
256,192,66785,1,0,0:0:0:0:
256,192,67300,5,8,0:0:0:0:
256,192,67814,1,8,0:0:0:0:
256,192,68157,5,0,0:0:0:0:
256,192,68843,1,0,0:0:0:0:
256,192,69528,1,8,0:0:0:0:
256,192,70214,1,8,0:0:0:0:
256,192,70900,5,0,0:0:0:0:
256,192,71243,5,8,0:0:0:0:
256,192,71585,5,0,0:0:0:0:
256,192,72271,1,8,0:0:0:0:
256,192,72785,1,8,0:0:0:0:
256,192,73128,5,0,0:0:0:0:
256,192,73471,5,8,0:0:0:0:
256,192,76385,5,0,0:0:0:0:
256,192,76728,5,8,0:0:0:0:
256,192,77071,1,8,0:0:0:0:
256,192,77414,1,8,0:0:0:0:
256,192,77757,5,0,0:0:0:0:
256,192,78271,5,8,0:0:0:0:
256,192,78614,5,0,0:0:0:0:
256,192,79128,1,0,0:0:0:0:
256,192,79814,1,0,0:0:0:0:
256,192,80500,5,8,0:0:0:0:
256,192,81185,1,8,0:0:0:0:
256,192,81871,1,12,0:0:0:0:
256,192,82214,1,12,0:0:0:0:
256,192,82557,5,0,0:0:0:0:
256,192,83243,5,8,0:0:0:0:
256,192,83757,5,0,0:0:0:0:
256,192,84614,5,8,0:0:0:0:
256,192,85300,1,8,0:0:0:0:
256,192,85985,5,0,0:0:0:0:
256,192,86328,5,8,0:0:0:0:
256,192,86671,5,0,0:0:0:0:
256,192,87357,1,8,0:0:0:0:
256,192,87700,1,8,0:0:0:0:
256,192,88043,1,8,0:0:0:0:
256,192,88728,5,0,0:0:0:0:
256,192,89243,1,0,0:0:0:0:
256,192,90100,5,8,0:0:0:0:
256,192,90785,1,8,0:0:0:0:
256,192,91471,5,0,0:0:0:0:
256,192,91814,5,8,0:0:0:0:
256,192,92157,1,8,0:0:0:0:
256,192,92843,1,12,0:0:0:0:
256,192,93185,1,12,0:0:0:0:
256,192,93528,5,0,0:0:0:0:
256,192,94214,5,8,0:0:0:0:
256,192,94728,5,0,0:0:0:0:
256,192,95585,1,8,0:0:0:0:
256,192,96271,1,8,0:0:0:0:
256,192,96957,5,0,0:0:0:0:
256,192,97300,5,8,0:0:0:0:
256,192,97643,1,8,0:0:0:0:
256,192,98328,5,0,0:0:0:0:
256,192,98671,1,0,0:0:0:0:
256,192,99014,5,8,0:0:0:0:
256,192,99700,1,8,0:0:0:0:
256,192,100214,5,0,0:0:0:0:
256,192,101071,5,8,0:0:0:0:
256,192,101414,5,0,0:0:0:0:
256,192,101757,5,8,0:0:0:0:
256,192,102443,1,8,0:0:0:0:
256,192,102785,1,8,0:0:0:0:
256,192,103128,5,0,0:0:0:0:
256,192,103814,2,0,P|128:96|256:0,1,360
256,192,105185,1,4,0:0:0:0:
256,192,105528,5,8,0:0:0:0:
256,192,105871,5,0,0:0:0:0:
256,192,106557,1,0,0:0:0:0:
256,192,106900,5,8,0:0:0:0:
256,192,107928,1,8,0:0:0:0:
256,192,108271,1,8,0:0:0:0:
256,192,108614,5,0,0:0:0:0:
256,192,108957,5,8,0:0:0:0:
256,192,109300,5,0,0:0:0:0:
256,192,109643,5,8,0:0:0:0:
256,192,109985,5,0,0:0:0:0:
256,192,110671,1,8,0:0:0:0:
256,192,111014,1,8,0:0:0:0:
256,192,111357,5,0,0:0:0:0:
256,192,111871,5,8,0:0:0:0:
256,192,112385,5,0,0:0:0:0:
256,192,112728,1,0,0:0:0:0:
256,192,113414,1,0,0:0:0:0:
256,192,113585,1,0,0:0:0:0:
256,192,113757,1,0,0:0:0:0:
256,192,114100,5,8,0:0:0:0:
256,192,114785,5,0,0:0:0:0:
256,192,115128,5,8,0:0:0:0:
256,192,115471,5,0,0:0:0:0:
256,192,116157,1,4,0:0:0:0:
256,192,116500,5,8,0:0:0:0:
256,192,116843,5,0,0:0:0:0:
256,192,117528,1,0,0:0:0:0:
256,192,117871,5,8,0:0:0:0:
256,192,118900,1,8,0:0:0:0:
256,192,119243,1,8,0:0:0:0:
256,192,119585,5,0,0:0:0:0:
256,192,119928,5,8,0:0:0:0:
256,192,120271,5,0,0:0:0:0:
256,192,120614,5,8,0:0:0:0:
256,192,120957,5,0,0:0:0:0:
256,192,121643,1,8,0:0:0:0:
256,192,121985,1,8,0:0:0:0:
256,192,122328,5,0,0:0:0:0:
256,192,122843,5,8,0:0:0:0:
256,192,123357,5,0,0:0:0:0:
256,192,123700,1,0,0:0:0:0:
256,192,124385,1,0,0:0:0:0:
256,192,124557,1,0,0:0:0:0:
256,192,124728,1,0,0:0:0:0:
256,192,125071,5,8,0:0:0:0:
256,192,125757,5,0,0:0:0:0:
256,192,126100,5,8,0:0:0:0:
256,192,126443,5,0,0:0:0:0:
256,192,127128,5,12,0:0:0:0:
256,192,127471,1,12,0:0:0:0:
256,192,127814,5,0,0:0:0:0:
256,192,128500,5,8,0:0:0:0:
256,192,129014,5,0,0:0:0:0:
256,192,129871,5,8,0:0:0:0:
256,192,130557,1,8,0:0:0:0:
256,192,131243,5,0,0:0:0:0:
256,192,131585,5,8,0:0:0:0:
256,192,131928,5,0,0:0:0:0:
256,192,132614,1,8,0:0:0:0:
256,192,132957,1,8,0:0:0:0:
256,192,133300,1,8,0:0:0:0:
256,192,133985,5,0,0:0:0:0:
256,192,134500,1,0,0:0:0:0:
256,192,135357,5,8,0:0:0:0:
256,192,135700,5,0,0:0:0:0:
256,192,136043,5,8,0:0:0:0:
256,192,136728,5,0,0:0:0:0:
256,192,137071,5,8,0:0:0:0:
256,192,137414,1,8,0:0:0:0:
256,192,138100,1,12,0:0:0:0:
256,192,138443,1,12,0:0:0:0:
256,192,138785,5,0,0:0:0:0:
256,192,139471,5,8,0:0:0:0:
256,192,139985,5,0,0:0:0:0:
256,192,140843,5,8,0:0:0:0:
256,192,141528,1,8,0:0:0:0:
256,192,142214,5,0,0:0:0:0:
256,192,142557,5,8,0:0:0:0:
256,192,142900,1,8,0:0:0:0:
256,192,143585,5,0,0:0:0:0:
256,192,143928,1,0,0:0:0:0:
256,192,144271,5,8,0:0:0:0:
256,192,144957,1,8,0:0:0:0:
256,192,145471,5,0,0:0:0:0:
256,192,146328,5,8,0:0:0:0:
256,192,147014,1,8,0:0:0:0:
256,192,147528,5,0,0:0:0:0:
256,192,148214,5,8,0:0:0:0:
256,192,148728,5,0,0:0:0:0:
256,192,149071,5,12,0:0:0:0:
256,192,149414,5,4,0:0:0:0:
256,192,149757,1,0,0:0:0:0:
256,192,150443,5,8,0:0:0:0:
256,192,150957,5,0,0:0:0:0:
256,192,151814,1,8,0:0:0:0:
256,192,152500,1,8,0:0:0:0:
256,192,153185,5,0,0:0:0:0:
256,192,153528,5,8,0:0:0:0:
256,192,153871,1,8,0:0:0:0:
256,192,154557,5,0,0:0:0:0:
256,192,154900,1,0,0:0:0:0:
256,192,155243,5,8,0:0:0:0:
256,192,155928,5,0,0:0:0:0:
256,192,156271,5,8,0:0:0:0:
256,192,156614,5,0,0:0:0:0:
256,192,157300,1,8,0:0:0:0:
256,192,157985,1,8,0:0:0:0:
256,192,158671,5,0,0:0:0:0:
256,192,159014,5,8,0:0:0:0:
256,192,159357,1,8,0:0:0:0:
256,192,160043,1,12,0:0:0:0:
256,192,160728,5,0,0:0:0:0:
256,192,161414,1,0,0:0:0:0:
256,192,161585,5,8,0:0:0:0:
256,192,161928,5,0,0:0:0:0:
256,192,162785,5,8,0:0:0:0:
256,192,163471,1,8,0:0:0:0:
256,192,164157,5,0,0:0:0:0:
256,192,164328,5,8,0:0:0:0:
256,192,164671,1,8,0:0:0:0:
256,192,165528,5,0,0:0:0:0:
256,192,166214,5,8,0:0:0:0:
256,192,166900,5,0,0:0:0:0:
256,192,167071,5,8,0:0:0:0:
256,192,167414,5,0,0:0:0:0:
256,192,168271,1,0,0:0:0:0:
256,192,168614,1,0,0:0:0:0:
256,192,168957,5,8,0:0:0:0:
256,192,169643,1,8,0:0:0:0:
256,192,169985,5,0,0:0:0:0:
256,192,170328,5,8,0:0:0:0:
256,192,171014,12,0,173414,0:0:0:0:
256,192,173757,5,12,0:0:0:0:
256,192,174443,5,0,0:0:0:0:
256,192,175128,5,8,0:0:0:0:
256,192,175471,1,8,0:0:0:0:
256,192,175814,1,8,0:0:0:0:
256,192,176500,5,0,0:0:0:0:
256,192,177185,1,0,0:0:0:0:
256,192,177871,5,8,0:0:0:0:
256,192,178557,1,8,0:0:0:0:
256,192,178900,5,0,0:0:0:0:
256,192,179243,5,8,0:0:0:0:
256,192,179928,1,8,0:0:0:0:
256,192,180614,1,8,0:0:0:0:
256,192,180957,1,8,0:0:0:0:
256,192,181300,1,8,0:0:0:0:
256,192,181985,5,0,0:0:0:0:
256,192,182671,1,0,0:0:0:0:
256,192,183357,5,8,0:0:0:0:
256,192,183700,1,8,0:0:0:0:
256,192,184043,1,8,0:0:0:0:
256,192,184728,1,8,0:0:0:0:
256,192,185414,1,8,0:0:0:0:
256,192,186100,1,8,0:0:0:0:
256,192,187471,5,0,0:0:0:0:
256,192,188157,1,0,0:0:0:0:
256,192,188843,5,8,0:0:0:0:
256,192,189528,1,8,0:0:0:0:
256,192,189871,5,0,0:0:0:0:
256,192,190214,5,8,0:0:0:0:
256,192,190900,1,8,0:0:0:0:
256,192,191585,1,8,0:0:0:0:
256,192,192957,5,4,0:0:0:0:
256,192,193471,1,4,0:0:0:0:
256,192,193814,1,4,0:0:0:0:
256,192,194157,5,12,0:0:0:0:
