osu file format v9

[General]
AudioFilename: onigokko_op.mp3
AudioLeadIn: 0
PreviewTime: 72804
Countdown: 0
SampleSet: Normal
StackLeniency: 0.7
Mode: 0
LetterboxInBreaks: 0

[Editor]
DistanceSpacing: 1.2
BeatDivisor: 4
GridSize: 4

[Metadata]
Title:Hyakka Ryouran Phantasm Aoi-chan ReMIX (Short Ver.)
Artist:Satou Shizuku
Creator:MiLu
Version:Melophobia
Source:Onigokko! Fan Disk
Tags:alcot melophobia swish

[Difficulty]
HPDrainRate:6
CircleSize:4
OverallDifficulty:6
ApproachRate:7
SliderMultiplier:1.5
SliderTickRate:1

[Events]
//Background and Video events
0,0,"BG.jpg"
Video,880,"video.avi"
//Break Periods
//Storyboard Layer 0 (Background)
//Storyboard Layer 1 (Fail)
//Storyboard Layer 2 (Pass)
//Storyboard Layer 3 (Foreground)
//Storyboard Sound Samples
//Background Colour Transformations
3,100,163,162,255

[TimingPoints]
7159,375.117224132541,4,1,0,60,1,0
17474,-100,4,2,0,20,0,0
17568,-100,4,1,0,60,0,0
18881,-100,4,2,0,30,0,0
19069,-133.333333333333,4,2,1,60,0,0
28447,-133.333333333333,4,1,0,80,0,0
28822,-133.333333333333,4,2,1,80,0,0
29197,-133.333333333333,4,1,0,80,0,0
30323,-100,4,2,1,80,0,0
41389,-133.333333333333,4,1,1,70,0,0
41951,-133.333333333333,4,1,0,70,0,0
43358,-100,4,1,0,50,0,0
43733,-100,4,1,0,40,0,0
44108,-100,4,1,0,30,0,0
44484,-100,4,1,0,20,0,0
45140,-100,4,2,1,50,0,0
55080,-100,4,2,1,70,0,0
58081,-100,4,2,1,20,0,0
58456,-100,4,2,1,70,0,0
67459,-100,4,2,0,60,0,0
69428,-100,4,1,0,60,0,0
70084,-100,4,2,1,80,0,0
72992,-100,4,1,0,60,0,1
94186,-100,4,1,0,50,0,1
94561,-100,4,1,0,40,0,1
94936,-100,4,1,0,30,0,1
95217,-100,4,1,0,50,0,1
96999,-100,4,1,0,50,0,0
101501,-100,4,1,0,30,0,0
101595,-100,4,1,0,50,0,0
103095,-100,4,2,1,50,0,0
104314,-100,4,1,0,40,0,0
105814,-100,4,1,0,30,0,0
107315,-100,4,1,0,20,0,0
108815,-100,4,2,0,5,0,0

[Colours]
Combo1 : 128,255,255
Combo2 : 255,128,64
Combo3 : 128,128,255
Combo4 : 128,255,128

[HitObjects]
168,240,7158,2,0,B|144:208|136:152,2,75,4|0|8
240,288,7721,2,0,B|288:224|392:192,1,150,0|0
448,224,8284,1,8
424,136,8471,2,0,B|432:96|416:56,1,75,0|0
336,120,8847,2,0,B|320:80|288:64,2,75,0|8|0
240,136,9409,2,0,B|152:128|88:176,1,150,0|8
408,240,10159,6,0,B|368:216|328:216,1,75,4|0
248,224,10535,1,8
296,304,10722,2,0,B|208:296|128:320,1,150,0|0
72,360,11285,1,8
64,272,11472,2,0,B|56:232|64:184,1,75,0|0
104,112,11847,2,0,B|112:72|104:32,2,75,0|8|0
152,200,12410,2,0,B|192:208|232:200,1,75
192,112,12785,2,0,B|232:104|280:112,1,75,8|0
344,48,13160,5,4
360,136,13348,1,0
432,80,13535,1,8
360,136,13723,2,0,B|352:232|368:296,1,150,0|0
464,296,14286,1,8
424,208,14473,2,0,B|352:200|264:208,1,150,0|0
200,272,15036,2,0,B|192:312|200:352,2,75,8|0|0
104,240,15599,2,0,B|112:200|104:160,2,75,0|8|4
256,192,16068,12,0,17474
256,80,17662,5,4
256,80,17849,1,0
96,168,18224,1,4
256,256,18600,2,0,B|328:240|400:280,1,150
464,320,19163,6,0,B|503:236|463:156,1,168.749994970858,2|0
424,96,19913,2,0,B|376:72|312:96,1,112.499996647239,2|0
320,172,20476,1,2
248,140,20664,1,0
176,172,20851,1,2
200,248,21039,2,0,B|256:272|312:248,1,112.499996647239,0|2
256,72,21789,5,0
256,72,21977,1,0
256,72,22164,2,0,B|328:80|368:144,1,112.499996647239,2|4
256,312,22914,2,0,B|184:304|144:240,1,112.499996647239,2|4
256,144,23665,6,0,B|256:80,2,56.2499983236194,2|0|4
256,224,24227,1,2
256,304,24415,1,4
256,80,25165,6,0,B|256:160,1,56.2499983236194,8|2
256,256,25728,1,2
256,256,25915,1,4
208,128,26478,6,0,B|168:72,2,56.2499983236194,0|8|8
304,128,27041,2,0,B|336:80,2,56.2499983236194,0|0|4
256,280,27791,5,2
256,280,27978,1,0
256,280,28166,2,0,B|256:144,1,112.499996647239,0|4
304,56,28916,6,0,B|346:92,2,56.2499983236194
208,56,29666,2,0,B|168:95,1,56.2499983236194
432,200,30416,6,0,B|440:240|432:280,1,75,2|0
416,308,30697,1,2
388,332,30792,2,0,B|348:324|308:332,1,75,2|2
216,336,31167,6,0,B|200:264|216:184,1,150,4|8
288,120,31730,1,0
215,187,31917,2,0,B|144:208|68:184,1,150,0|8
52,80,32480,1,2
148,120,32667,1,0
68,184,32855,1,2
64,288,33042,2,0,B|56:328|64:368,1,75,8|0
160,328,33418,2,0,B|200:320|248:328,1,75,4|0
256,232,33793,5,8
256,232,33980,1,0
344,184,34168,2,0,B|352:144|376:112,1,75
256,64,34543,2,0,B|256:144,1,75,4|0
168,184,34917,2,0,B|160:144|136:112,1,75
256,232,35293,1,4
256,232,35387,1,0
256,232,35481,1,0
256,136,35668,6,0,B|296:144|336:136,2,75,0|0|8
256,232,36231,2,0,B|216:224|176:232,2,75,0|0|8
256,232,36794,1,8
104,112,37169,6,0,B|176:80|256:112,1,150,4|8
344,144,37731,1,0
440,112,37919,2,0,B|448:152|440:192,2,75,0|0|8
344,144,38481,1,0
360,240,38668,2,0,B|352:280|360:328,1,75,0|0
264,208,39044,2,0,B|272:160|264:128,1,75,8|0
176,240,39419,2,0,B|168:280|176:328,1,75,0|0
88,344,39795,5,8
24,272,39982,1,0
120,248,40170,2,0,B|144:176|120:96,1,150,4|8
40,56,40732,1,0
40,152,40920,2,0,B|104:168|192:152,1,150,4|8
256,208,41483,6,0,B|256:336,1,112.499996647239,0|0
176,336,42045,1,0
256,320,42232,1,0
336,336,42420,1,0
256,320,42608,1,4
256,192,42983,12,0,44484
144,184,45234,6,0,B|208:144|288:184,1,150,8|2
360,240,45796,2,0,B|360:288|336:320,1,75,8|8
272,256,46172,2,0,B|272:176|336:112,1,150,4|2
224,56,46734,1,8
224,56,46922,1,0
224,56,47108,2,0,B|224:136|160:200,1,150,2|2
96,336,47860,5,2
96,336,48047,2,0,B|112:296|168:280,1,75,0|8
160,200,48422,2,0,B|192:176|248:184,1,75,2|0
264,96,48797,2,0,B|304:88|344:96,1,75,2|0
416,144,49173,2,0,B|432:216|416:296,1,150,8|0
344,352,49735,1,2
256,320,49923,2,0,B|184:296|104:320,1,150,8|0
40,256,50485,6,0,B|56:168|136:144,1,150,8|2
216,136,51048,1,0
216,136,51236,1,8
296,168,51423,2,0,B|304:136|296:88,2,75
344,248,51986,1,0
256,248,52173,2,0,B|184:208|112:248,1,150,8|0
304,336,52736,5,8
392,352,52924,1,0
456,288,53111,2,0,B|464:248|456:208,1,75,2|0
368,240,53486,2,0,B|360:200|368:152,1,75,8|2
408,88,53861,1,0
324,52,54049,2,0,B|260:92|180:52,2,150
220,233,55174,6,0,B|152:264,1,75,4|0
288,136,55549,1,0
288,136,55737,2,0,B|352:184,1,75,4|0
432,160,56112,1,0
464,248,56300,1,4
376,280,56487,2,0,B|304:248|224:280,1,150,4|0
200,360,57049,1,2
288,344,57238,6,0,B|312:264|288:192,1,150,4|0
248,104,57800,1,0
328,48,57987,1,0
416,80,58174,2,0,B|440:160|414:227,1,150,4|4
368,312,58738,5,0
264,268,58926,1,0
352,200,59113,1,4
112,56,59488,2,0,B|88:136|112:208,1,150,4|0
168,272,60051,5,2
168,272,60426,2,0,B|208:264|248:288,1,75,4|0
328,264,60801,2,0,B|328:176|368:120,2,150,0|2|4
416,232,61739,1,0
384,80,61926,1,2
264,176,62114,1,4
80,304,62489,6,0,B|72:264|80:224,1,75,4|0
160,160,62864,2,0,B|168:200|160:240,1,75,0|0
168,328,63239,1,4
168,328,63333,1,0
168,328,63427,1,0
256,304,63615,1,0
344,272,63802,1,0
408,336,63990,1,2
344,272,64177,2,0,B|280:224|184:224,1,150,4|2
160,144,64740,6,0,B|200:136|240:144,1,75,0|4
320,120,65115,1,2
320,120,65303,1,0
320,120,65490,2,0,B|392:120|456:192,2,150,4|2|2
264,48,66428,2,0,B|224:56|184:96,1,75,2|0
256,152,66803,2,0,B|256:312,1,150,2|4
100,164,67553,5,8
100,164,67741,1,0
108,68,67928,2,0,B|148:68|180:108,1,75
236,176,68303,2,0,B|272:192|316:172,1,75,8|0
380,244,68679,2,0,B|380:281,2,37.5
400,148,69054,2,0,B|424:116|424:72,2,75,8|0|4
308,176,69616,2,0,B|256:232|256:320,1,150,4|4
76,272,70366,5,0
56,192,70553,1,0
76,112,70741,1,0
144,64,70928,1,0
228,52,71117,5,0
228,52,71304,2,0,B|268:48|304:52,1,75
384,68,71679,2,0,B|432:132|408:224,1,150,4|0
356,284,72241,2,0,B|328:324,7,37.5,4|0|0|0|0|0|0|0
296,320,72992,6,0,B|224:296|144:320,1,150,4|0
56,360,73555,1,8
72,264,73743,2,0,B|64:224|72:176,1,75,0|0
88,96,74118,1,0
88,96,74212,1,0
88,96,74305,1,8
176,136,74493,6,0,B|184:104|176:56,1,75
264,152,74868,2,0,B|256:192|264:232,1,75,2|8
344,192,75243,1,0
344,192,75337,1,0
344,192,75431,1,0
424,224,75618,2,0,B|432:184|424:144,1,75,2|8
384,72,75993,6,0,B|312:32|240:72,1,150,0|0
184,136,76556,1,8
96,176,76744,2,0,B|88:136|96:88,1,75
184,136,77119,2,0,B|192:176|184:216,1,75,0|8
256,272,77494,6,0,B|248:312|256:352,2,75,0|0|0
280,184,78057,1,8
368,224,78244,2,0,B|376:192|368:144,2,75,0|0|0
272,256,78807,1,8
184,208,78994,6,0,B|160:136|184:56,1,150,4|0
288,136,79557,1,8
184,208,79745,1,2
64,160,79932,2,0,B|56:120|64:80,1,75,4|0
182,60,80307,1,8
182,60,80495,1,2
296,112,80682,6,0,B|288:72|296:32,1,75,4|0
400,112,81057,2,0,B|408:152|400:192,1,75,8|2
312,288,81433,1,4
312,152,81620,1,4
136,144,81995,6,0,B|144:232|216:272,1,150,2|0
296,296,82558,1,8
368,240,82745,2,0,B|376:200|368:152,1,75,2|0
320,88,83121,1,2
232,96,83308,1,8
144,64,83496,2,0,B|88:128|88:208,1,150,2|4
112,288,84058,5,4
192,328,84246,1,0
280,336,84434,1,0
368,312,84621,1,0
432,248,84809,1,4
440,160,84996,6,0,B|360:136|272:176,1,150,4|0
240,96,85559,1,8
208,184,85746,1,0
272,248,85934,1,0
208,184,86122,1,0
272,248,86309,1,8
344,312,86497,6,0,B|384:320|424:312,1,75
272,248,86872,2,0,B|232:256|192:248,1,75,2|8
344,184,87247,2,0,B|384:176|424:184,1,75
480,256,87622,1,2
480,256,87810,1,8
408,312,87997,6,0,B|336:336|256:312,1,150,0|0
200,232,88560,1,8
256,152,88747,2,0,B|288:176|296:224,2,75,0|0|0
160,144,89310,1,8
64,144,89498,6,0,B|64:104|88:72,1,75,4|0
112,224,89873,2,0,B|112:264|88:296,1,75,2|8
176,336,90248,2,0,B|216:328|256:336,1,75,4|0
336,288,90623,2,0,B|376:296|416:288,1,75,2|8
480,220,90997,2,0,B|504:156|476:68,1,150,4|0
477,72,91560,1,8
176,136,92123,5,0
176,136,92311,1,8
176,136,92499,2,0,B|248:176|320:136,1,150,4|0
408,112,93061,2,0,B|376:184|400:264,1,150,8|0
320,304,93624,1,4
256,192,93999,12,0,94937
128,224,95312,5,0
128,224,95499,2,0,B|128:312,2,75,0|4|4
296,56,96250,6,0,B|360:104|376:200,1,150,0|0
312,248,96812,1,0
224,232,97000,2,0,B|184:208|176:152,1,75
168,88,97375,6,0,B|128:72|88:88,2,75,2|0|2
344,296,98125,2,0,B|384:312|416:296,2,75,2|0|2
344,88,98876,2,0,B|384:72|416:88,2,75,2|0|2
168,296,99626,2,0,B|128:312|88:296,2,75,2|0|2
256,192,100095,12,0,101501
256,192,101689,5,0
256,192,101876,1,0
80,192,102252,5,4
80,192,102627,2,0,B|80:267,2,75
256,192,103095,12,0,108815
