osu file format v9

[General]
AudioFilename: onigokko_op.mp3
AudioLeadIn: 0
PreviewTime: 72804
Countdown: 0
SampleSet: Soft
StackLeniency: 0.7
Mode: 0
LetterboxInBreaks: 0

[Editor]
DistanceSpacing: 1
BeatDivisor: 4
GridSize: 8

[Metadata]
Title:Hyakka Ryouran Phantasm Aoi-chan ReMIX (Short Ver.)
Artist:Satou Shizuku
Creator:MiLu
Version:Insane
Source:Onigokko! Fan Disk
Tags:alcot melophobia swish

[Difficulty]
HPDrainRate:7
CircleSize:4
OverallDifficulty:7
ApproachRate:8
SliderMultiplier:1.8
SliderTickRate:1

[Events]
//Background and Video events
0,0,"BG.jpg"
Video,880,"video.avi"
//Break Periods
//Storyboard Layer 0 (Background)
//Storyboard Layer 1 (Fail)
//Storyboard Layer 2 (Pass)
//Storyboard Layer 3 (Foreground)
//Storyboard Sound Samples
//Background Colour Transformations
3,100,163,162,255

[TimingPoints]
7159,375.117224132541,4,2,1,60,1,0
7252,-100,4,2,1,50,0,0
9315,-100,4,2,1,55,0,0
9878,-100,4,2,1,45,0,0
10066,-100,4,2,1,50,0,0
12316,-100,4,2,1,55,0,0
13067,-100,4,2,1,60,0,0
13254,-100,4,2,1,50,0,0
15505,-100,4,2,1,35,0,0
15692,-100,4,2,1,45,0,0
15880,-100,4,2,1,55,0,0
16068,-100,4,2,1,30,0,0
17193,-100,4,2,1,40,0,0
17568,-100,4,2,1,50,0,0
18506,-125,4,2,1,50,0,0
19068,-125,4,2,1,40,0,0
22069,-125,4,2,1,35,0,0
25070,-125,4,2,1,40,0,0
28071,-125,4,2,1,45,0,0
28446,-125,4,2,1,50,0,0
28822,-125,4,2,1,45,0,0
29197,-125,4,2,1,50,0,0
29572,-125,4,2,1,55,0,0
30322,-125,4,2,1,40,0,0
31072,-100,4,2,1,55,0,0
31260,-100,4,2,1,50,0,0
34448,-100,4,2,1,60,0,0
34636,-100,4,2,1,50,0,0
35199,-100,4,2,1,60,0,0
35386,-100,4,2,1,50,0,0
35574,-100,4,2,1,55,0,0
35761,-100,4,2,1,50,0,0
37074,-100,4,2,1,55,0,0
37262,-100,4,2,1,50,0,0
42888,-100,4,2,1,45,0,0
46640,-125,4,2,1,40,0,0
47390,-125,4,2,1,35,0,0
47577,-125,4,2,1,45,0,0
49078,-125,4,2,1,40,0,0
49265,-125,4,2,1,45,0,0
53392,-125,4,2,1,40,0,0
53579,-125,4,2,1,45,0,0
55080,-100,4,2,1,50,0,0
56393,-125,4,2,1,50,0,0
56955,-100,4,2,1,50,0,0
58456,-125,4,2,1,40,0,0
59394,-125,4,2,1,45,0,0
61082,-125,4,2,1,40,0,0
61269,-125,4,2,1,45,0,0
67083,-100,4,2,1,50,0,0
72148,-200,4,2,1,40,0,0
72992,-100,4,1,1,60,0,1
73085,-100,4,1,1,55,0,1
74398,-100,4,1,1,45,0,1
74586,-100,4,1,1,55,0,1
74773,-100,4,1,1,45,0,1
74961,-100,4,1,1,55,0,1
75148,-100,4,1,1,45,0,1
75336,-100,4,1,1,55,0,1
75524,-100,4,1,1,45,0,1
75711,-100,4,1,1,55,0,1
75899,-100,4,1,1,60,0,1
76086,-100,4,1,1,55,0,1
78900,-100,4,1,1,60,0,1
79087,-100,4,1,1,55,0,1
79462,-100,4,1,1,45,0,1
79650,-100,4,1,1,55,0,1
80213,-100,4,1,1,45,0,1
80400,-100,4,1,1,55,0,1
80963,-100,4,1,1,45,0,1
81150,-100,4,1,1,55,0,1
81338,-100,4,1,1,45,0,1
81901,-100,4,1,1,60,0,1
82088,-100,4,1,1,55,0,1
83401,-100,4,1,1,45,0,1
84902,-100,4,1,1,60,0,1
85089,-100,4,1,1,55,0,1
86402,-100,4,1,1,45,0,1
86590,-100,4,1,1,55,0,1
86777,-100,4,1,1,45,0,1
86965,-100,4,1,1,55,0,1
87152,-100,4,1,1,45,0,1
87340,-100,4,1,1,55,0,1
87527,-100,4,1,1,45,0,1
87715,-100,4,1,1,55,0,1
87902,-100,4,1,1,60,0,1
88090,-100,4,1,1,55,0,1
90903,-100,4,1,1,60,0,1
91091,-100,4,1,1,50,0,1
93904,-100,4,1,1,55,0,1
94092,-100,4,1,1,50,0,1
94373,-100,4,1,1,35,0,1
95686,-100,4,1,1,45,0,1
96999,-100,4,2,1,60,0,0
97093,-100,4,2,1,55,0,0
101688,-100,4,2,1,60,0,0
103095,-100,4,2,1,50,0,0
104126,-100,4,2,1,45,0,0
105252,-100,4,2,1,35,0,0
106377,-100,4,2,1,25,0,0
107502,-100,4,2,1,15,0,0
108628,-100,4,2,1,5,0,0

[Colours]
Combo1 : 128,255,255
Combo2 : 255,128,64
Combo3 : 128,128,255
Combo4 : 128,255,128

[HitObjects]
88,192,7158,2,0,B|48:168|56:104,1,90,4|0
120,48,7534,1,0
184,112,7721,2,0,B|272:128|376:120,1,180,2|0
432,64,8284,1,0
480,136,8471,2,0,B|512:176|504:232,1,90,2|0
336,280,8847,2,0,B|304:240|312:184,2,90,0|0|2
448,320,9409,2,0,B|384:136,1,180,4|4
376,56,9972,1,0
288,32,10159,6,0,B|248:48|200:40,1,90,4|0
112,24,10535,1,0
120,112,10722,2,0,B|144:200|152:312,1,180,2|0
64,280,11285,1,0
64,280,11472,2,0,B|32:240|40:192,1,90,2|0
216,192,11847,2,0,B|248:232|240:280,2,90,0|0|2
280,72,12410,1,4
160,8,12598,1,0
96,128,12785,1,4
216,192,12973,1,0
256,272,13160,6,0,B|288:304|344:296,1,90,4|0
408,360,13535,1,0
480,304,13723,2,0,B|464:216|416:120,1,180,2|0
336,104,14286,1,0
248,88,14473,2,0,B|264:176|312:272,1,180,2|0
392,224,15036,1,0
376,312,15224,2,0,B|344:352|288:344,1,90,2|6
208,344,15599,1,0
80,296,15786,1,2
72,160,15974,1,4
256,192,16161,12,2,17287
120,320,17662,5,8
120,320,17849,1,8
392,320,18224,1,8
256,88,18600,2,0,B|248:184|264:232,1,144,8|0
328,264,19162,6,0,B|272:328|192:304,1,144,2|0
136,264,19725,1,0
136,264,19912,1,2
72,136,20288,1,0
128,88,20475,2,0,B|176:96|208:72,1,72,2|2
256,40,20850,1,0
320,80,21038,2,0,B|328:168|352:232,1,144,2|2
416,192,21601,2,0,B|432:232|424:272,1,72,0|0
392,328,21976,1,2
320,304,22163,6,0,B|168:304,1,144,8|0
112,216,22726,1,2
112,216,22913,2,0,B|264:216,1,144,8|0
320,304,23476,1,2
320,304,23664,2,0,B|352:240|320:160,1,144,8|0
280,104,24226,1,2
216,64,24414,1,8
144,80,24601,2,0,B|112:64,2,36,2|0|0
168,152,24977,1,2
216,208,25164,6,0,B|208:248|176:264,1,72,12|0
40,320,25727,1,2
40,320,25914,1,0
256,352,26289,5,2
256,352,26477,2,0,B|296:360|328:344,1,72,0|8
400,360,26852,1,8
472,336,27040,2,0,B|464:264|424:192,1,144,2|2
360,176,27602,2,0,B|336:208|344:248,2,72,0|0|2
416,128,28165,6,0,B|400:96|360:80,1,72,0|0
256,56,28540,1,4
96,256,28915,2,0,B|112:288|152:304,1,72,0|0
256,328,29290,1,4
256,192,29666,1,4
256,192,29853,1,4
408,32,30416,6,0,B|432:64|424:128,1,72,2|0
425,100,30697,1,0
425,100,30791,1,2
424,176,30978,1,2
344,128,31166,6,0,B|256:144|152:104,1,180,4|8
152,24,31729,1,0
72,64,31916,1,0
96,152,32104,2,0,B|112:192|104:240,1,90,0|8
88,328,32479,2,0,B|40:352|0:328,2,90
176,304,33042,2,0,B|264:328|360:328,1,180,8|0
440,304,33604,1,8
472,136,33792,1,8
312,192,33979,1,0
368,264,34167,6,0,B|400:232|400:176,1,90,2|0
256,120,34542,2,0,B|224:152|224:208,1,90,4|0
368,264,34917,2,0,B|400:296|456:296,1,90,2|0
256,120,35292,2,0,B|224:88|168:88,1,90,4|0
96,48,35667,6,0,B|56:128|56:240,1,180,4|2
24,304,36230,1,0
152,352,36418,1,2
240,248,36605,1,0
168,136,36793,1,2
40,168,36980,1,0
24,304,37168,6,0,B|121:301|115:269|212:267,1,180,4|8
272,320,37731,2,0,B|232:352|184:344,1,90
104,216,38106,2,0,B|144:184|192:192,1,90,0|8
264,232,38481,1,0
352,248,38668,1,0
400,168,38856,1,0
344,96,39043,2,0,B|296:176|312:280,1,180,8|8
360,344,39606,1,0
272,344,39794,2,0,B|224:360|184:344,1,90,8|0
96,336,40169,6,0,B|80:232|176:176,1,180,2|8
256,192,40731,1,0
416,48,40919,2,0,B|432:152|336:208,1,180,2|8
256,192,41482,6,0,B|208:176|200:128,1,90,4|0
168,40,41857,1,0
112,112,42044,2,0,B|72:112|64:136|24:136,2,90,4|0|2
200,128,42607,1,4
200,128,42795,1,0
256,192,42982,12,0,44483
64,256,44858,1,0
88,168,45045,1,0
176,192,45233,2,0,B|256:264|336:192,1,180,2|0
256,80,45796,1,2
176,192,45983,1,0
256,304,46171,1,4
440,192,46733,5,2
440,192,46921,1,0
440,192,47108,1,2
440,192,47484,6,0,B|424:272|352:304,1,144,4|0
296,344,48046,1,2
232,312,48234,1,0
176,360,48421,2,0,B|144:336|152:288,1,72,0|0
80,312,48797,2,0,B|64:275|95:237,1,72,2|0
24,216,49172,2,0,B|40:136|128:120,1,144,4|0
192,104,49734,1,0
208,32,49922,2,0,B|288:48|304:136,1,144,2|0
360,176,50485,6,0,B|365:215|326:243,2,72,2|0|0
416,128,51047,2,0,B|455:122|483:161,2,72,2|0|0
368,72,51610,1,0
312,120,51797,1,2
240,112,51985,1,0
152,56,52173,6,0,B|128:136|152:216,1,144,4|0
216,224,52735,1,2
216,224,52923,2,0,B|232:264|216:296,1,72
176,352,53298,1,2
104,328,53485,2,0,B|48:296|40:192,1,144,4|0
88,144,54048,2,0,B|128:64,1,72,2|0
224,48,54423,2,0,B|184:128,1,72,0|0
232,216,54798,2,0,B|272:136,1,72,2|0
328,88,55174,6,0,B|360:176|352:272,1,180,4|8
184,296,55736,2,0,B|152:208|160:112,1,180,4|0
256,80,56299,1,8
256,80,56486,2,0,B|200:128|312:160|256:208,1,144,4|0
256,304,57049,1,8
336,192,57237,6,0,B|256:120|176:192,1,180,2|0
256,304,57799,1,2
336,192,57987,1,0
256,80,58174,1,4
111,64,58550,6,0,B|135:144|72:192,1,144,0|0
72,192,59112,1,2
72,192,59487,6,0,B|88:272|160:304,1,144,4|0
216,344,60050,2,0,B|248:360|288:352,1,72,2|0
360,360,60425,1,0
424,328,60613,1,0
472,272,60800,2,0,B|448:240|408:248,1,72,2|0
344,280,61175,2,0,B|296:216|336:144,1,144,4|0
400,112,61738,2,0,B|424:144|464:144,2,72,2|0|0
360,48,62301,1,0
288,32,62488,6,0,B|208:40|128:72,1,144,2|0
80,40,63051,1,0
96,112,63239,2,0,B|152:160|240:192,1,144,2|0
280,144,63801,1,2
328,200,63989,1,0
296,264,64176,2,0,B|240:312|152:344,1,144,4|2
104,320,64739,1,0
104,320,64833,1,0
104,320,64927,2,0,B|56:240|104:160,1,144,4|0
136,128,65489,5,2
256,48,65864,1,2
376,128,66239,1,2
376,128,66427,2,0,B|336:272,1,144,2|0
320,298,66896,1,0
298,327,66990,1,0
267,345,67083,1,0
232,344,67177,6,0,B|144:344,1,90,6|0
40,256,67552,2,0,B|128:256,1,90,8|0
200,200,67927,1,0
336,152,68115,1,0
256,272,68303,1,8
256,128,68490,1,0
336,248,68678,6,0,B|368:280|424:272,1,90
424,128,69053,2,0,B|392:96|336:104,1,90,8|0
256,128,69428,1,4
256,128,69616,1,4
256,304,69991,1,4
256,192,70178,12,8,71679
256,344,72241,6,0,B|256:208,1,135,2|0
336,168,72992,6,0,B|256:96|176:168,1,180,4|0
184,256,73554,1,8
112,312,73742,2,0,B|72:344|24:336,2,90
192,344,74304,1,8
184,256,74492,2,0,B|160:208|176:160,1,90,2|0
328,128,74867,2,0,B|352:176|336:224,1,90,2|0
199,93,75242,2,0,B|160:80|112:104,1,90,2|0
312,290,75617,2,0,B|352:304|400:280,1,90,2|0
304,344,75993,6,0,B|256:248|280:160,1,180,4|0
320,88,76555,1,8
240,40,76743,1,0
176,104,76930,2,0,B|120:112|88:144,1,90
40,208,77305,1,8
104,272,77493,2,0,B|136:312|128:360,2,90
40,208,78056,1,8
104,272,78243,2,0,B|192:256|216:120,1,180,0|0
256,64,78806,1,8
300,141,78993,6,0,B|320:256|408:272,1,180,4|0
488,232,79556,1,2
488,232,79744,1,0
464,96,79931,2,0,B|416:72|376:96,1,90
300,141,80306,1,2
300,141,80494,1,0
256,16,80681,6,0,B|192:88|224:184,1,180,0|6
200,320,81244,1,2
336,344,81432,1,4
360,208,81619,1,6
256,368,81994,6,0,B|320:296|288:200,1,180,4|0
256,112,82557,1,8
176,160,82745,2,0,B|136:192|80:184,1,90
128,56,83120,2,0,B|168:24|224:32,1,90,0|8
256,112,83495,6,0,B|240:216|304:288,1,180,0|2
408,360,84058,1,10
472,240,84245,1,0
432,112,84433,1,10
320,32,84620,1,0
184,40,84808,1,10
104,152,84995,6,0,B|72:248|136:320,1,180,4|0
216,280,85558,1,8
296,240,85746,2,0,B|328:200|384:216,2,90
288,328,86308,1,8
216,280,86496,2,0,B|168:304|128:280,1,90,2|0
296,104,86871,2,0,B|344:80|384:104,1,90,2|0
424,232,87246,2,0,B|448:280|424:320,1,90,2|0
88,152,87621,2,0,B|64:104|88:64,1,90,2|0
184,320,87996,6,0,B|224:240|184:144,1,180,4|0
128,72,88559,1,8
88,152,88746,2,0,B|112:192|168:184,1,90
256,160,89122,1,0
256,160,89215,1,0
256,160,89309,1,8
184,216,89497,6,0,B|176:264|192:312,1,90,6|0
272,344,89872,1,0
352,296,90059,1,8
432,344,90247,2,0,B|456:304|448:256,1,90,2|0
384,192,90622,1,0
440,104,90810,1,8
272,48,90997,6,0,B|256:144|264:232,1,180,4|0
384,192,91560,2,0,B|392:240|376:288,1,90,8|0
313,344,91935,1,0
157,233,92123,2,0,B|144:192|152:144,1,90,0|8
136,320,92498,2,0,B|224:352|328:344,1,180,4|0
400,360,93060,1,8
456,288,93248,1,0
368,280,93435,2,0,B|352:240|376:192,1,90
448,144,93811,1,8
416,64,93998,6,0,B|336:8|240:40,1,180,4|0
221,52,94467,1,0
199,69,94561,1,0
179,88,94655,1,0
168,112,94748,1,0
161,138,94842,1,0
161,165,94936,1,0
200,248,95123,2,0,B|245:259|267:304,2,90
112,256,95686,1,2
24,232,95874,5,2
216,40,96249,1,2
288,304,96624,1,2
288,304,96812,1,0
376,280,96999,6,0,B|432:208|384:104,1,180,4|0
344,32,97562,1,2
280,96,97749,2,0,B|192:136|88:136,1,180,4|0
56,64,98312,1,2
24,144,98500,2,0,B|32:232|64:336,1,180,4|0
136,280,99062,1,2
208,336,99250,2,0,B|400:320,1,180,4|0
472,352,99812,1,2
456,264,100000,2,0,B|440:216|456:176,1,90,4|0
440,88,100375,5,0
422,64,100469,1,0
399,53,100563,1,2
373,46,100656,1,0
346,49,100750,1,0
321,60,100844,1,0
301,79,100938,1,2
285,101,101032,1,0
281,127,101125,1,0
285,153,101219,1,0
301,175,101313,1,2
321,194,101407,1,0
346,205,101500,1,0
373,208,101594,1,0
399,201,101688,1,4
488,232,101876,5,4
296,40,102251,1,4
224,304,102626,1,4
224,304,102813,1,2
224,304,103001,1,4
256,192,103189,12,0,108815
