osu file format v11

[General]
AudioFilename: Eternal Melodia.mp3
AudioLeadIn: 0
PreviewTime: 72193
Countdown: 0
SampleSet: Soft
StackLeniency: 0.7
Mode: 0
LetterboxInBreaks: 0

[Editor]
DistanceSpacing: 0.9
BeatDivisor: 4
GridSize: 4

[Metadata]
Title:Eternal Melodia (Short Ver.)
TitleUnicode:Eternal Melodia (Short Ver.)
Artist:Satou Shizuku & Sakakibara Yui
ArtistUnicode:Satou Shizuku & Sakakibara Yui
Creator:terametis
Version:Patchy
Source:Ryuuyoku no Melodia -Diva with the blessed dragonol-
Tags:whirlpool NewRulerNA Patchouli wring ReySHeL
BeatmapID:195158
BeatmapSetID:63267

[Difficulty]
HPDrainRate:7
CircleSize:4
OverallDifficulty:8
ApproachRate:9
SliderMultiplier:1.8
SliderTickRate:2

[Events]
//Background and Video events
0,0,"BG8.jpg"
//Break Periods
//Storyboard Layer 0 (Background)
//Storyboard Layer 1 (Fail)
//Storyboard Layer 2 (Pass)
//Storyboard Layer 3 (Foreground)
//Storyboard Sound Samples
//Background Colour Transformations
3,100,163,162,255

[TimingPoints]
2919,363.636363636364,4,2,2,70,1,0
2919,-133.333333333333,4,2,2,70,0,0
10464,-100,4,2,2,70,0,0
11737,-100,4,2,1,70,0,0
15373,-100,4,2,2,70,0,0
15555,-100,4,2,1,70,0,0
15919,-100,4,2,2,70,0,0
16100,-100,4,2,1,70,0,0
16282,-100,4,2,2,70,0,0
16464,-100,4,2,1,70,0,0
16646,-100,4,2,1,40,0,0
17009,-100,4,2,1,50,0,0
17282,-100,4,2,1,60,0,0
17464,-100,4,2,2,70,0,0
17555,-100,4,2,1,70,0,0
19009,-100,4,2,2,70,0,0
19191,-100,4,2,1,70,0,0
21919,-100,4,2,2,70,0,0
22100,-100,4,2,1,70,0,0
29191,-100,4,2,2,70,0,0
29373,-100,4,2,1,70,0,0
31191,-100,4,2,2,70,0,0
31373,-100,4,2,1,70,0,0
32009,-100,4,2,1,60,0,0
33373,-100,4,1,2,50,0,0
33555,-100,4,2,1,60,0,0
35009,-100,4,2,2,60,0,0
35191,-100,4,2,1,60,0,0
35737,-100,4,2,2,60,0,0
35919,-100,4,2,1,60,0,0
37919,-100,4,2,2,60,0,0
38100,-100,4,2,1,60,0,0
41373,-100,4,1,2,60,0,0
41555,-100,4,2,1,60,0,0
41919,-100,4,2,2,60,0,0
42100,-100,4,2,1,60,0,0
42646,-100,4,2,1,50,0,0
43646,-100,4,2,2,60,0,0
43737,-100,4,2,1,60,0,0
45009,-100,4,2,2,60,0,0
45191,-100,4,2,1,60,0,0
46646,-100,4,2,2,60,0,0
46828,-100,4,2,1,60,0,0
47009,-100,4,2,2,60,0,0
47191,-100,4,2,1,60,0,0
47919,-100,4,2,2,60,0,0
48100,-100,4,2,1,60,0,0
49555,-100,4,2,2,60,0,0
49737,-100,4,2,1,60,0,0
52282,-133.333333333333,4,2,1,60,0,0
52464,-133.333333333333,4,2,2,60,0,0
52646,-133.333333333333,4,2,1,60,0,0
54646,-133.333333333333,4,2,2,60,0,0
54828,-133.333333333333,4,2,1,60,0,0
55373,-133.333333333333,4,2,2,60,0,0
55555,-133.333333333333,4,2,1,60,0,0
57555,-133.333333333333,4,2,2,50,0,0
57737,-133.333333333333,4,2,1,60,0,0
58100,-200,4,2,2,70,0,0
63373,-100,4,2,1,70,0,0
65555,-100,4,2,2,70,0,0
65737,-100,4,2,1,70,0,0
67009,-100,4,2,2,70,0,0
67191,-100,4,2,1,70,0,0
69191,-100,4,2,2,70,0,0
69373,-100,4,2,1,70,0,0
70646,-100,4,2,2,70,0,0
70828,-100,4,2,1,70,0,0
71373,-100,4,2,2,70,0,0
71555,-100,4,2,1,70,0,0
71737,-100,4,2,2,70,0,0
71919,-100,4,2,1,70,0,0
72737,-100,4,2,2,70,0,1
72828,-100,4,2,1,70,0,1
74282,-100,4,2,2,70,0,1
74464,-100,4,2,1,70,0,1
75737,-100,4,2,2,70,0,1
75919,-100,4,2,1,60,0,1
76100,-100,4,2,1,70,0,1
77191,-100,4,2,2,70,0,1
77373,-100,4,2,1,70,0,1
80646,-100,4,1,2,60,0,1
80828,-100,4,2,1,70,0,1
83555,-100,4,2,1,60,0,1
84373,-100,4,2,2,70,0,1
84646,-100,4,2,1,60,0,1
84828,-100,4,2,1,70,0,1
85919,-100,4,2,2,70,0,1
86100,-100,4,2,1,70,0,1
87373,-100,4,2,2,70,0,1
87555,-100,4,2,1,70,0,1
88828,-100,4,2,2,70,0,1
89009,-100,4,2,1,70,0,1
90282,-100,4,2,2,70,0,1
90464,-100,4,2,1,70,0,1
91737,-100,4,2,2,70,0,1
91919,-100,4,2,1,70,0,1
94464,-100,4,2,2,70,0,1
94646,-100,4,2,1,50,0,1
95373,-100,4,2,1,90,0,1
95919,-100,4,2,1,70,0,1
97555,-100,4,2,2,70,0,1
97737,-100,4,2,1,70,0,1
101191,-100,4,2,2,70,0,1
101373,-100,4,2,1,70,0,1
103009,-200,4,2,2,70,0,1
103555,-100,4,2,2,70,0,1
105191,-100,4,2,1,70,0,1
107646,-100,4,2,2,70,0,1
107737,-100,4,2,1,70,0,1
109009,-100,4,2,2,70,0,1
109191,-100,4,2,1,70,0,1
111373,-100,4,2,2,70,0,1
111555,-100,4,2,1,70,0,1
112646,-100,4,2,2,70,0,1
112828,-100,4,2,1,70,0,1
115919,-100,4,2,1,60,0,1
116373,-100,4,2,2,70,0,0

[Colours]
Combo1 : 209,209,209
Combo2 : 0,128,255
Combo3 : 255,255,255
Combo4 : 0,240,0

[HitObjects]
34,205,2919,2,0,P|62:310,2,101.250003862381,2|0|2,0:0|0:0|0:0,0:0:0
89,155,3646,2,0,P|218:219,1,135.000005149841
384,341,4373,6,0,P|404:277|465:230,1,135.000005149841,2|0,0:0|0:0,0:0:0
464,160,4919,1,0,0:0:0
438,133,5009,1,0,0:0:0
404,117,5100,2,0,P|329:104,1,67.5000025749207,2|0,0:0|0:0,0:0:0
228,62,5464,2,0,P|294:44,1,67.5000025749207,2|0,0:0|0:0,0:0:0
295,171,5828,6,0,P|251:166|195:131,2,101.250003862381,2|0|2,0:0|0:0|0:0,0:0:0
368,179,6555,1,0,0:0:0
486,268,6919,1,2,0:0:0
356,340,7282,2,0,P|260:366|155:344,1,202.500007724762,2|0,0:0|0:0,0:0:0
205,287,8009,2,0,P|281:291|347:259,2,135.000005149841,2|0|0,0:0|0:0|0:0,0:0:0
134,261,8919,5,0,0:0:0
85,205,9100,2,0,P|62:121,1,67.5000025749207,2|0,0:0|0:0,0:0:0
189,213,9464,1,0,0:0:0
197,139,9646,2,0,P|256:95,1,67.5000025749207,2|0,0:0|0:0,0:0:0
324,109,10009,1,4,0:0:0
324,109,10555,5,8,0:0:0
57,171,10919,1,8,0:0:0
202,241,11100,1,8,0:0:0
241,249,11191,1,8,0:0:0
280,240,11282,1,8,0:0:0
313,216,11373,1,0,0:0:0
352,208,11464,1,8,0:0:0
391,214,11555,1,8,0:0:0
426,233,11646,5,12,0:0:0
362,296,11828,2,0,P|323:318|268:326,1,90
426,233,12191,1,4,0:0:0
243,167,12373,2,0,P|206:142|178:97,1,90,8|0,0:0|0:0,0:0:0
302,111,12737,5,4,0:0:0
340,99,12828,1,0,0:0:0
380,97,12919,2,0,P|424:97|478:75,2,90,4|0|4,0:0|0:0|0:0,0:0:0
271,42,13464,2,0,P|225:35|173:43,1,90,8|0,0:0|0:0,0:0:0
45,64,13828,2,0,P|83:72|126:99,1,90,8|4,0:0|0:0,0:0:0
156,174,14191,1,8,0:0:0
142,212,14282,1,8,0:0:0
159,248,14373,1,8,0:0:0
140,284,14464,1,8,0:0:0
161,318,14555,1,4,0:0:0
235,213,14737,6,0,P|251:256|287:289,1,90
359,310,15100,1,4,0:0:0
307,176,15282,2,0,P|359:104|361:8,1,180,8|4,0:0|0:0,0:0:0
278,96,15828,6,8,P|325:192|393:236,2,180
397,117,16737,1,8,0:0:0
431,138,16828,1,8,0:0:0
457,168,16919,1,8,0:0:0
471,205,17009,1,8,0:0:0
475,245,17100,1,8,0:0:0
464,284,17191,1,8,0:0:0
443,318,17282,1,8,0:0:0
412,345,17373,1,8,0:0:0
373,357,17464,6,0,P|326:363|270:348,1,90,4|0,0:0|0:0,0:0:0
216,309,17828,1,8,0:0:0
138,332,18009,1,0,0:0:0
198,228,18191,2,0,P|231:193|284:173,1,90,4|4,0:0|0:0,0:0:0
430,198,18555,2,0,P|388:213|345:204,1,90,8|0,0:0|0:0,0:0:0
111,79,18919,6,0,P|49:72|75:157,1,180,4|8,0:0|0:0,0:0:0
180,175,19464,1,0,0:0:0
280,124,19646,1,4,0:0:0
319,113,19737,1,0,0:0:0
359,109,19828,1,4,0:0:0
399,114,19919,1,0,0:0:0
437,126,20009,1,8,0:0:0
468,359,20373,6,0,P|468:270,1,90,4|0,0:0|0:0,0:0:0
292,213,20737,2,0,P|292:307,1,90,8|0,0:0|0:0,0:0:0
419,161,21100,2,4,P|419:71,1,90
95,208,21464,2,0,P|95:314,1,90,8|0,0:0|0:0,0:0:0
175,309,21828,6,0,P|246:240|170:216|245:133,1,180,4|8,0:0|0:0,0:0:0
311,119,22373,1,4,0:0:0
170,99,22555,1,0,0:0:0
292,213,22737,1,4,0:0:0
401,85,22919,1,8,0:0:0
468,128,23100,1,8,0:0:0
487,163,23191,1,8,0:0:0
489,203,23282,5,4,0:0:0
455,276,23464,1,0,0:0:0
378,249,23646,2,0,P|393:142,1,90,8|0,0:0|0:0,0:0:0
273,193,24009,2,0,P|252:87,1,90,8|0,0:0|0:0,0:0:0
155,174,24373,2,0,P|99:98,1,90,8|0,0:0|0:0,0:0:0
24,74,24737,5,4,0:0:0
24,74,24828,1,0,0:0:0
24,74,24919,1,0,0:0:0
139,38,25100,2,0,P|186:30|238:41,1,90,8|0,0:0|0:0,0:0:0
248,118,25464,2,0,P|221:155|213:209,1,90,8|0,0:0|0:0,0:0:0
263,351,25828,2,0,P|270:307|257:265,1,90,8|0,0:0|0:0,0:0:0
143,151,26191,5,4,0:0:0
369,62,26373,1,4,0:0:0
472,236,26555,1,8,0:0:0
59,320,26919,6,4,P|9:333,2,45
291,247,27282,2,0,P|321:285|329:337,1,90,8|0,0:0|0:0,0:0:0
388,218,27646,5,8,0:0:0
407,182,27737,1,0,0:0:0
427,146,27828,1,0,0:0:0
340,26,28009,2,0,P|352:116,1,90,8|0,0:0|0:0,0:0:0
264,119,28373,2,0,P|280:168|315:196,1,90,8|0,0:0|0:0,0:0:0
466,261,28737,1,8,0:0:0
441,293,28828,1,8,0:0:0
407,316,28919,1,8,0:0:0
369,331,29009,1,8,0:0:0
329,339,29100,6,0,P|240:344|149:312,1,180,4|0,0:0|0:0,0:0:0
45,261,29646,2,0,P|92:257|139:228,1,90,8|0,0:0|0:0,0:0:0
189,182,30009,5,4,0:0:0
400,195,30191,1,4,0:0:0
291,248,30373,1,4,0:0:0
397,73,30555,5,4,0:0:0
368,102,30646,1,0,0:0:0
340,131,30737,1,0,0:0:0
297,61,30919,1,8,0:0:0
218,80,31100,2,4,P|143:131|200:177|114:237,1,180
63,175,31646,1,8,0:0:0
49,136,31737,1,8,0:0:0
70,101,31828,1,8,0:0:0
53,63,31919,1,8,0:0:0
72,27,32009,1,4,0:0:0
140,327,32373,6,0,P|231:359,1,90,4|0,0:0|0:0,0:0:0
286,303,32737,2,0,P|388:278,1,90,4|0,0:0|0:0,0:0:0
450,306,33100,1,4,0:0:0
209,264,33282,2,0,P|280:211|393:209,1,180
179,187,33828,2,0,P|137:169|89:168,1,90,4|0,0:0|0:0,0:0:0
13,180,34191,1,4,0:0:0
13,180,34555,5,4,0:0:0
159,109,34737,1,0,0:0:0
248,243,34919,2,4,P|309:308|398:324,1,180
472,298,35464,1,0,0:0:0
412,243,35646,2,4,P|373:165|417:59,1,180
286,28,36191,1,0,0:0:0
289,68,36282,1,0,0:0:0
281,107,36373,6,0,P|273:152|244:198,1,90,4|0,0:0|0:0,0:0:0
204,123,36737,2,0,P|186:78|188:26,1,90,4|0,0:0|0:0,0:0:0
360,99,37100,2,0,P|370:141|363:203,1,90,4|0,0:0|0:0,0:0:0
77,218,37464,2,0,P|164:195,1,90,4|0,0:0|0:3,0:3:0
323,164,37828,6,4,P|235:189|271:249|176:273,1,180
78,218,38373,1,0,0:0:0
110,143,38555,2,0,P|143:111|191:98,1,90,4|0,0:0|0:0,0:0:0
423,263,38919,2,0,P|381:266|337:249,1,90,4|0,0:0|0:0,0:0:0
268,205,39282,1,4,0:0:0
163,80,39646,5,4,0:0:0
429,177,40009,1,4,0:0:0
88,306,40373,1,4,0:0:0
343,338,40737,5,4,0:0:0
297,270,40919,2,0,P|208:237,1,90,0|4,0:0|0:0,0:0:0
198,158,41282,2,0,P|264:100|367:85,1,180
428,113,41828,1,4,0:0:0
488,59,42009,1,4,0:0:0
61,45,42373,5,8,0:0:0
74,83,42464,1,0,0:0:0
87,121,42555,1,8,0:0:0
56,196,42737,1,8,0:0:0
94,207,42828,2,8,P|130:231|156:284,1,90
159,310,43100,1,8,0:0:0
187,339,43191,1,0,0:0:0
226,349,43282,1,8,0:0:0
265,337,43373,1,8,0:0:0
294,308,43464,1,8,0:0:0
305,269,43555,1,8,0:0:0
295,229,43646,6,0,P|295:127,1,90,4|0,0:0|0:0,0:0:0
382,223,44009,2,0,P|418:134,1,90,8|0,0:0|0:0,0:0:0
219,184,44373,1,4,0:0:0
185,110,44555,2,0,P|148:82|96:76,1,90,0|8,0:0|0:0,0:0:0
295,147,44919,6,0,P|383:123|447:60,1,180,4|4,0:0|0:0,0:0:0
324,74,45464,1,8,0:0:0
449,176,45646,1,0,0:0:0
398,286,45828,2,0,P|366:322|317:342,1,90,4|0,0:0|0:0,0:0:0
294,266,46191,2,0,P|248:274|200:260,1,90,8|0,0:0|0:0,0:0:0
136,222,46555,6,0,P|48:229|92:295,2,180,4|8|4,0:0|0:0|0:0,0:0:0
239,286,47464,1,0,0:0:0
360,288,47646,1,8,0:0:0
469,234,47828,2,4,P|503:150|476:36,1,180
412,42,48373,6,0,P|370:134,1,90,8|0,0:0|0:0,0:0:0
293,119,48737,1,4,0:0:0
300,158,48828,1,0,0:0:0
326,188,48919,1,0,0:0:0
470,234,49100,2,0,P|425:229|379:250,1,90,8|0,0:0|0:0,0:0:0
240,320,49464,6,0,P|155:344|52:321,1,180,4|8,0:0|0:0,0:0:0
264,241,50009,2,0,P|299:265|322:313,1,90,0|4,0:0|0:0,0:0:0
184,259,50373,1,0,0:0:0
294,165,50555,2,0,P|335:144|386:142,1,90,8|0,0:0|0:0,0:0:0
270,84,50919,6,0,P|178:37,1,90,4|0,0:0|0:0,0:0:0
162,119,51282,2,0,P|73:145,1,90,8|0,0:0|0:0,0:0:0
318,149,51646,2,0,P|360:165|419:163,1,90,4|0,0:0|0:0,0:0:0
481,141,52009,1,8,0:0:0
319,18,52191,1,0,0:0:0
248,189,52373,6,0,P|240:257|256:350,1,135.000005149842,4|0,0:0|0:0,0:0:0
247,322,52919,1,4,0:0:0
322,226,53100,2,0,P|333:195|339:142,1,67.5000025749208,8|0,0:0|0:0,0:0:0
392,270,53464,1,4,0:0:0
495,205,53646,1,8,0:0:0
318,149,53828,5,4,0:0:0
248,189,54009,1,4,0:0:0
169,170,54191,2,0,P|149:143|143:95,1,67.5000025749208,8|0,0:0|0:0,0:0:0
397,165,54555,2,0,P|420:209|426:265,1,101.250003862381,8|4,0:0|0:0,0:0:0
426,259,54919,2,0,P|498:275,1,67.5000025749208,4|8,0:0|0:0,0:0:0
362,309,55282,6,0,P|300:333|225:323,1,135.000005149842,4|0,0:0|0:0,0:0:0
164,282,55828,1,4,0:0:0
83,280,56009,2,0,P|53:340,1,67.5000025749208,8|0,0:0|0:0,0:0:0
51,204,56373,2,0,P|80:143,1,67.5000025749208,4|8,0:0|0:0,0:0:0
60,64,56737,5,4,0:0:0
60,64,56919,1,4,0:0:0
136,37,57100,2,0,P|140:70|128:111,1,67.5000025749208,8|4,0:0|0:0,0:0:0
211,9,57464,2,0,P|251:59|244:147,1,135.000005149842,8|4,0:0|0:0,0:0:0
201,190,58009,1,8,0:0:0
124,215,58191,6,0,P|97:250|94:305,1,90,2|0,0:0|0:0,0:0:0
233,267,58919,2,0,P|267:238|281:183,1,90,2|0,0:0|0:0,0:0:0
265,125,59464,1,0,0:0:0
303,64,59646,1,2,0:0:0
437,114,60009,6,0,P|454:161,1,45
382,176,60373,2,0,P|388:233,1,45,2|0,0:0|0:0,0:0:0
314,223,60737,2,0,P|305:274,1,45
340,105,61100,6,0,P|313:70|262:43,1,90,2|0,0:0|0:0,0:0:0
387,257,61828,2,0,P|410:294|458:324,1,90,2|0,0:0|0:0,0:0:0
447,320,62373,1,0,0:0:0
467,249,62555,5,2,0:0:0
332,198,62919,1,0,0:0:0
254,319,63282,1,2,0:0:0
254,319,63464,5,4,0:0:0
270,138,63646,2,8,P|308:117|362:116,1,90
411,170,64009,6,0,P|413:216|393:257,1,90,4|0,0:0|0:0,0:0:0
316,279,64373,2,0,P|272:257|250:216,1,90,8|0,0:0|0:0,0:0:0
196,114,64737,2,0,P|160:84|120:71,1,90,4|4,0:0|0:0,0:0:0
38,177,65100,2,0,P|78:174|122:151,1,90,8|0,0:0|0:0,0:0:0
237,42,65464,6,0,P|291:126|268:205,1,180,4|8,0:0|0:0,0:0:0
203,240,66009,1,0,0:0:0
125,215,66191,1,4,0:0:0
125,215,66282,1,8,0:0:0
125,215,66373,1,4,0:0:0
352,227,66555,2,0,P|379:265|385:321,1,90,8|0,0:0|0:0,0:0:0
451,204,66919,6,0,P|455:115|401:36,1,180,4|0,0:0|0:0,0:0:0
329,17,67464,1,4,0:0:0
359,92,67646,2,0,P|331:180,1,90,8|0,0:0|0:0,0:0:0
331,177,68009,1,4,0:0:0
468,90,68191,1,8,0:0:0
258,48,68373,6,0,P|235:140,1,90,4|8,0:0|0:0,0:0:0
440,249,68737,2,0,P|413:164,1,90,4|0,0:0|0:0,0:0:0
345,119,69100,2,0,P|251:108|273:169|163:147,1,180,8|0,0:0|0:0,0:0:0
95,120,69646,1,4,0:0:0
161,74,69828,5,8,0:0:0
240,214,70009,1,0,0:0:0
78,199,70191,2,0,P|34:172|15:130,1,90,4|8,0:0|0:0,0:0:0
172,162,70555,2,0,P|118:235|183:259|108:323,1,180,4|8,0:0|0:0,0:0:0
194,345,71100,1,4,0:0:0
230,327,71191,1,4,0:0:0
268,314,71282,6,0,P|334:307|408:334,1,135,8|0,0:0|0:0,0:0:0
434,347,71646,2,0,P|410:277|434:219,1,135,8|8,0:0|0:0,0:0:0
455,190,72009,1,8,0:0:0
467,151,72100,1,8,0:0:0
467,110,72191,1,8,0:0:0
452,72,72282,1,8,0:0:0
425,41,72373,1,8,0:0:0
385,30,72464,1,8,0:0:0
344,33,72555,1,8,0:0:0
313,59,72646,1,8,0:0:0
294,95,72737,6,0,P|280:142|277:202,1,90,4|0,0:0|0:0,0:0:0
321,250,73100,1,8,0:0:0
363,135,73282,1,0,0:0:0
375,173,73373,1,0,0:0:0
399,204,73464,2,0,P|431:232|473:254,1,90,4|0,0:0|0:0,0:0:0
367,316,73828,2,0,P|324:329|273:322,1,90,8|0,0:0|0:0,0:0:0
64,104,74191,6,0,P|29:185|53:276,1,180,4|8,0:0|0:0,0:0:0
124,304,74737,1,0,0:0:0
161,287,74828,1,0,0:0:0
198,270,74919,1,4,0:0:0
273,299,75100,1,4,0:0:0
214,192,75282,2,0,P|173:169|121:164,1,90,8|0,0:0|0:0,0:0:0
151,84,75646,6,0,P|208:51|292:54,2,135,4|0|0,0:0|0:0|0:0,0:0:0
293,202,76373,2,0,P|285:156|251:120,1,90,4|0,0:0|0:0,0:0:0
54,200,76737,2,0,P|93:221|148:218,1,90,8|0,0:0|0:0,0:0:0
183,287,77100,6,0,P|127:344|27:357,1,180,4|8,0:0|0:0,0:0:0
31,357,77646,1,0,0:0:0
212,210,77828,1,4,0:0:0
285,354,78009,1,0,0:0:0
314,249,78191,1,8,0:0:0
417,211,78373,1,8,0:0:0
439,177,78464,1,8,0:0:0
445,137,78555,6,0,P|442:88|426:48,1,90,4|0,0:0|0:0,0:0:0
427,50,78919,1,8,0:0:0
370,107,79100,2,0,P|336:75|285:55,1,90,0|4,0:0|0:0,0:0:0
145,127,79464,2,0,P|186:112|232:107,1,90,0|8,0:0|0:0,0:0:0
300,150,79828,1,0,0:0:0
445,137,80009,5,4,0:0:0
351,17,80191,2,0,P|370:105,1,90,0|8,0:0|0:0,0:0:0
351,17,80555,2,0,P|280:74|305:155,1,180,0|4,0:0|0:0,0:0:0
366,197,81100,1,8,0:0:0
437,44,81282,1,0,0:0:0
211,41,81464,6,0,P|169:59|134:92,1,90,4|0,0:0|0:0,0:0:0
55,88,81828,2,0,P|75:124|77:178,1,90,8|0,0:0|0:0,0:0:0
47,247,82191,1,4,0:0:0
159,142,82373,1,8,0:0:0
159,142,82464,1,8,0:0:0
159,142,82555,2,0,P|159:187|133:237,1,90,8|4,0:0|0:0,0:0:0
59,342,82919,6,0,P|149:297,1,90,8|0,0:0|0:0,0:0:0
166,332,83191,2,0,P|238:256,1,90,8|0,0:0|0:0,0:0:0
268,264,83464,1,4,0:0:0
263,183,83646,1,8,0:0:0
264,151,83737,1,8,0:0:0
274,121,83828,1,8,0:0:0
300,96,83919,1,8,0:0:0
333,83,84009,1,8,0:0:0
369,83,84100,1,8,0:0:0
405,101,84191,1,8,0:0:0
430,132,84282,1,8,0:0:0
434,172,84373,6,0,P|425:232|382:298,2,135,4|0|0,0:0|0:0|0:0,0:0:0
337,243,85100,2,0,P|345:196|337:153,1,90,4|0,0:0|0:0,0:0:0
266,280,85464,2,0,P|272:324|298:375,1,90,8|0,0:0|0:0,0:0:0
250,195,85828,6,0,P|287:284|362:327,1,180,4|8,0:0|0:0,0:0:0
501,340,86373,1,4,0:0:0
476,309,86464,1,8,0:0:0
437,295,86555,1,4,0:0:0
394,225,86737,1,4,0:0:0
450,166,86919,2,0,P|485:72,1,90,8|0,0:0|0:0,0:0:0
326,36,87282,6,0,P|354:95|334:174,1,135,4|0,0:0|0:0,0:0:0
341,161,87646,2,0,P|245:168,1,90,8|0,0:0|0:0,0:0:0
189,218,88009,1,4,0:0:0
113,189,88191,1,4,0:0:0
174,47,88373,2,0,P|185:88|173:134,1,90,8|0,0:0|0:0,0:0:0
45,232,88737,6,0,P|113:292|205:297,1,180,4|8,0:0|0:0,0:0:0
277,277,89282,1,4,0:0:0
317,275,89373,1,8,0:0:0
354,291,89464,1,4,0:0:0
409,350,89646,1,4,0:0:0
459,192,89828,2,0,P|433:151|395:122,1,90,8|0,0:0|0:0,0:0:0
343,182,90191,6,0,P|357:267|313:360,1,180,4|8,0:0|0:0,0:0:0
193,345,90737,2,0,P|224:312|264:292,1,90,0|8,0:0|0:0,0:0:0
64,245,91100,2,0,P|109:256|146:280,1,90,0|8,0:0|0:0,0:0:0
194,345,91464,1,0,0:0:0
185,208,91646,6,0,P|148:290|66:330,1,180,8|8,0:0|0:0,0:0:0
245,269,92191,2,0,P|337:285,1,90,0|8,0:0|0:0,0:0:0
478,302,92555,2,0,P|448:268|408:252,1,90,0|8,0:0|0:0,0:0:0
90,170,93100,5,4,0:0:0
201,120,93282,2,0,P|156:22,1,90,4|8,0:0|0:0,0:0:0
90,170,93646,1,0,0:0:0
166,196,93828,2,0,P|209:202|257:181,2,90,4|4|8,0:0|0:0|0:0,0:0:0
309,128,94373,6,0,P|403:141|371:193|480:202,1,180,4|8,0:0|0:0,0:0:0
469,200,94828,1,8,0:0:0
469,200,94919,1,8,0:0:0
343,234,95100,1,8,0:0:0
343,234,95191,1,8,0:0:0
343,234,95282,1,8,0:0:0
426,104,95464,5,8,0:0:0
86,39,95646,1,8,0:0:0
86,39,96009,6,0,P|96:85|89:136,1,90,4|0,0:0|0:0,0:0:0
169,149,96373,2,0,P|158:211|135:255,1,90,0|4,0:0|0:0,0:0:0
228,239,96737,2,0,P|233:290|253:339,1,90,8|0,0:0|0:0,0:0:0
408,320,97100,1,4,0:0:0
337,280,97282,1,8,0:0:0
309,203,97464,6,0,P|291:115|329:31,1,180,4|4,0:0|0:0,0:0:0
325,34,98009,1,0,0:0:0
463,71,98191,2,0,P|424:91|379:95,1,90,8|0,0:0|0:0,0:0:0
54,50,98555,1,4,0:0:0
128,81,98737,1,8,0:0:0
253,140,98919,6,0,P|164:153,1,90,4|0,0:0|0:0,0:0:0
54,136,99282,2,0,P|71:179|104:208,1,90,0|4,0:0|0:0,0:0:0
104,329,99646,2,0,P|125:290|173:260,1,90,8|0,0:0|0:0,0:0:0
242,257,100009,5,4,0:0:0
401,123,100191,1,8,0:0:0
342,179,100373,2,0,P|293:172|238:173,1,90,4|0,0:0|0:0,0:0:0
116,175,100737,2,0,P|148:144|187:122,1,90,4|0,0:0|0:0,0:0:0
443,232,101100,2,0,P|405:159|324:103,1,180,8|0,0:0|0:0,0:0:0
115,40,101646,1,4,0:0:0
115,40,101737,1,8,0:0:0
115,40,101828,5,4,0:0:0
227,84,102009,1,0,0:0:0
71,131,102191,2,0,P|65:178|77:235,1,90,8|0,0:0|0:0,0:0:0
124,281,102555,1,8,0:0:0
318,223,102737,1,4,0:0:0
199,195,102919,1,4,0:0:0
199,195,103100,6,0,P|252:328,1,135,8|8,0:0|0:0,0:0:0
369,338,103919,5,8,0:0:0
380,299,104009,2,8,P|403:260|449:233,1,90
468,206,104282,1,8,0:0:0
475,166,104373,1,8,0:0:0
420,38,104555,1,8,0:0:0
423,79,104646,1,8,0:0:0
415,118,104737,6,0,P|304:72|369:50,1,270,4|4,0:0|0:0,0:0:0
468,206,105464,2,0,P|436:236|385:256,1,90,8|0,0:0|0:0,0:0:0
312,260,105828,1,0,0:0:0
239,224,106009,6,0,P|194:223|137:244,1,90,4|0,0:0|0:0,0:0:0
97,174,106373,2,0,P|72:211|71:261,1,90,4|8,0:0|0:0,0:0:0
96,332,106737,1,4,0:0:0
136,332,106828,1,8,0:0:0
173,317,106919,1,4,0:0:0
240,224,107100,1,4,0:0:0
184,116,107282,1,8,0:0:0
206,81,107373,1,8,0:0:0
245,70,107464,1,8,0:0:0
272,40,107555,1,8,0:0:0
312,39,107646,1,4,0:0:0
351,120,107828,6,0,P|261:158,1,90,0|0,0:0|0:0,0:0:0
268,155,108191,1,4,0:0:0
403,182,108373,2,0,P|428:146|427:91,1,90,8|0,0:0|0:0,0:0:0
206,104,108737,1,4,0:0:0
212,298,108919,6,0,P|291:340|398:331,1,180,8|8,0:0|0:0,0:0:0
469,306,109464,1,4,0:0:0
395,271,109646,2,0,P|353:247|331:210,1,90,8|0,0:0|0:0,0:0:0
320,132,110009,1,8,0:0:0
450,73,110191,1,8,0:0:0
450,105,110282,1,8,0:0:0
443,136,110373,1,8,0:0:0
430,165,110464,1,8,0:0:0
410,190,110555,5,4,0:0:0
242,36,110737,2,0,P|242:135,1,90,4|0,0:0|0:0,0:0:0
276,199,111100,1,4,0:0:0
161,98,111282,2,0,P|148:190|218:177|187:287,1,180,8|0,0:0|0:0,0:0:0
75,343,111828,6,0,P|110:260,1,90,4|0,0:0|0:0,0:0:0
55,199,112191,1,4,0:0:0
48,118,112373,1,8,0:0:0
182,311,112555,2,4,P|228:230|155:218|206:121,1,180
273,40,113100,1,8,0:0:0
290,65,113191,1,8,0:0:0
298,95,113282,1,8,0:0:0
298,126,113373,1,8,0:0:0
290,156,113464,5,4,0:0:0
364,187,113646,2,0,P|337:222|329:273,1,90,4|0,0:0|0:0,0:0:0
349,344,114009,1,4,0:0:0
437,136,114191,2,0,P|411:99|366:71,1,90,8|0,0:0|0:0,0:0:0
210,99,114555,1,4,0:0:0
411,272,114737,6,0,P|456:285|504:277,1,90,8|0,0:0|0:0,0:0:0
292,219,115100,2,0,P|247:229|204:254,1,90,8|4,0:0|0:0,0:0:0
29,328,115464,2,0,P|35:281|64:227,1,90,8|0,0:0|0:0,0:0:0
141,159,115828,1,8,0:0:0
263,128,116009,1,8,0:0:0
295,103,116100,1,8,0:0:0
335,109,116191,1,8,0:0:0
367,85,116282,1,8,0:0:0
406,94,116373,1,4,0:0:0
256,192,116464,12,0,119282,0:0:0
