osu file format v12

[General]
AudioFilename: Eternal Melodia.mp3
AudioLeadIn: 0
PreviewTime: 72193
Countdown: 0
SampleSet: Soft
StackLeniency: 0.7
Mode: 0
LetterboxInBreaks: 0

[Editor]
DistanceSpacing: 0.8
BeatDivisor: 4
GridSize: 4

[Metadata]
Title:Eternal Melodia (Short Ver.)
TitleUnicode:Eternal Melodia (Short Ver.)
Artist:Satou Shizuku & Sakakibara Yui
ArtistUnicode:Satou Shizuku & Sakakibara Yui
Creator:terametis
Version:Normal
Source:Ryuuyoku no Melodia -Diva with the blessed dragonol-
Tags:whirlpool NewRulerNA Patchouli wring ReySHeL
BeatmapID:191803
BeatmapSetID:63267

[Difficulty]
HPDrainRate:3
CircleSize:3
OverallDifficulty:3
ApproachRate:3
SliderMultiplier:1.1
SliderTickRate:1

[Events]
//Background and Video events
0,0,"BGno.jpg",0,0
//Break Periods
//Storyboard Layer 0 (Background)
//Storyboard Layer 1 (Fail)
//Storyboard Layer 2 (Pass)
//Storyboard Layer 3 (Foreground)
//Storyboard Sound Samples
//Background Colour Transformations
3,100,163,162,255

[TimingPoints]
2919,363.636363636364,4,2,2,70,1,0
16737,-100,4,2,2,100,0,0
17100,-100,4,2,2,70,0,0
22100,-100,4,2,1,60,0,0
22373,-100,4,2,2,70,0,0
26555,-100,4,2,1,60,0,0
26919,-100,4,2,2,70,0,0
28009,-100,4,2,1,60,0,0
28373,-100,4,2,1,70,0,0
30009,-100,4,2,2,50,0,0
30373,-100,4,2,2,70,0,0
30555,-100,4,2,0,70,0,0
30600,-100,4,2,2,70,0,0
31464,-100,4,2,2,50,0,0
31828,-100,4,2,2,70,0,0
38100,-100,4,2,1,60,0,0
38373,-100,4,2,2,70,0,0
41009,-100,4,2,1,60,0,0
41282,-100,4,2,2,70,0,0
44646,-100,4,2,1,60,0,0
44919,-100,4,2,2,70,0,0
47646,-100,4,2,1,60,0,0
47828,-100,4,2,2,70,0,0
65828,-100,4,2,1,60,0,0
66191,-100,4,2,2,70,0,0
70191,-100,4,2,1,60,0,0
70555,-100,4,2,2,70,0,0
71464,-100,4,2,1,60,0,0
71646,-100,4,2,2,70,0,0
72737,-100,4,2,2,70,0,1
73100,-100,4,2,1,60,0,1
73282,-100,4,2,2,70,0,1
74555,-100,4,2,1,60,0,1
74737,-100,4,2,2,70,0,1
76009,-100,4,2,1,60,0,1
76191,-100,4,2,2,70,0,1
77464,-100,4,2,1,60,0,1
77646,-100,4,2,2,70,0,1
81828,-100,4,2,1,60,0,1
82009,-100,4,2,2,70,0,1
82555,-100,4,2,1,60,0,1
82737,-100,4,2,2,70,0,1
84737,-100,4,2,1,60,0,1
84919,-100,4,2,2,70,0,1
86191,-100,4,2,1,60,0,1
86373,-100,4,2,2,70,0,1
87646,-100,4,2,1,60,0,1
87828,-100,4,2,2,70,0,1
89100,-100,4,2,1,60,0,1
89282,-100,4,2,2,70,0,1
104737,-100,4,2,2,70,0,0
108919,-100,4,2,2,55,0,0
109828,-100,4,2,2,70,0,0
116373,-100,4,2,2,70,0,0

[Colours]
Combo1 : 209,209,209
Combo2 : 0,128,255
Combo3 : 255,255,255
Combo4 : 0,240,0

[HitObjects]
32,92,2919,2,0,P|120:72|180:108,1,165,2|0,0:0|0:0,0:0:0:0:
196,148,3646,2,0,P|164:208|180:264,1,110,2|0,0:0|0:0,0:0:0:0:
136,328,4373,2,0,P|196:272|276:284,1,165,2|0,0:0|0:0,0:0:0:0:
304,312,5100,2,0,P|348:336|408:316,1,110,2|0,0:0|0:0,0:0:0:0:
436,236,5828,6,0,P|484:244|524:248,2,82.5,2|0|0,0:0|0:0|0:0,0:0:0:0:
392,228,6555,2,0,P|328:184|280:180,1,110,2|0,0:0|0:0,0:0:0:0:
240,244,7282,2,0,P|152:244|100:304,1,165,2|0,0:0|0:0,0:0:0:0:
85,334,8009,2,0,P|21:250|65:142,1,220,2|0,0:0|0:0,0:0:0:0:
136,184,9100,6,0,P|192:176|236:144,1,110,2|0,0:0|0:0,0:0:0:0:
264,112,9646,2,0,P|316:100|380:136,1,110,0|4,0:0|0:0,0:0:0:0:
420,240,10555,6,8,P|452:224|472:204,2,55,8|0|8,0:0|0:0|0:0,0:0:0:0:
376,252,11100,1,0,0:0:0:0:
332,248,11282,2,0,P|292:304|236:324,1,110,8|4,0:0|0:0,0:0:0:0:
256,192,11828,12,0,15282,0:0:0:0:
92,104,16009,5,8,0:0:0:0:
92,104,16373,1,8,0:0:0:0:
152,168,16737,2,0,P|236:104|336:144,1,220,2|4,0:0|0:0,0:0:0:0:
304,224,17828,6,0,P|316:292|456:280,1,220,8|8,0:0|0:0,0:0:0:0:
448,208,18919,2,0,L|356:132,1,110,6|8,0:0|0:0,0:0:0:0:
300,76,19646,2,0,L|340:36,2,55,0|0|10,0:0|0:0|0:0,0:0:0:0:
212,56,20373,6,0,P|164:96|112:116,1,110,4|8,0:0|0:0,0:0:0:0:
32,104,21100,1,2,0:0:0:0:
32,104,21464,1,8,0:0:0:0:
64,188,21828,6,0,P|120:220|112:312,1,165,4|0,0:0|0:0,0:0:0:0:
84,340,22555,2,0,L|220:336,1,110,2|8,0:0|0:0,0:0:0:0:
256,276,23282,6,0,P|300:304|368:312,1,110,4|8,0:0|0:0,0:0:0:0:
424,256,24009,2,0,P|424:204|476:152,1,110,8|8,0:0|0:0,0:0:0:0:
448,72,24737,5,4,0:0:0:0:
448,72,25100,1,8,0:0:0:0:
376,120,25464,1,8,0:0:0:0:
376,120,25828,1,8,0:0:0:0:
308,64,26191,6,0,P|204:40|148:136,1,220,4|8,0:0|0:0,0:0:0:0:
200,196,27282,1,8,0:0:0:0:
200,196,27646,2,0,P|168:288|48:276,1,220,6|8,0:0|0:0,0:0:0:0:
60,200,28737,1,8,0:0:0:0:
60,112,29100,5,4,0:0:0:0:
60,112,29646,1,8,0:0:0:0:
144,92,30009,6,0,L|136:28,2,55,8|8|0,0:0|0:0|0:0,0:0:0:0:
188,96,30555,2,0,B|300:112|300:112|278:158,1,165,4|8,0:0|0:0,0:0:0:0:
244,240,31464,2,0,L|176:240,2,55,8|8|0,0:0|0:0|0:0,0:0:0:0:
288,240,32009,6,0,P|308:304|356:344,1,110,4|8,0:0|0:0,0:0:0:0:
424,332,32737,1,0,0:0:0:0:
476,260,33100,1,8,0:0:0:0:
476,260,33282,2,0,P|464:192|404:116,1,165,0|8,0:0|0:0,0:0:0:0:
340,176,34191,5,0,0:0:0:0:
340,176,34555,1,8,0:0:0:0:
256,156,34919,2,0,L|236:268,1,110,4|8,0:0|0:0,0:0:0:0:
148,252,35646,2,0,P|128:304|80:344,2,110,0|8|2,0:0|0:0|0:0,0:0:0:0:
100,176,36737,1,8,0:0:0:0:
60,96,37100,2,0,P|96:44|140:28,1,110,0|8,0:0|0:0,0:0:0:0:
204,88,37828,6,0,P|280:148|364:136,1,165,4|0,0:0|0:0,0:0:0:0:
428,112,38737,2,0,L|440:52,2,55,0|8|0,0:0|0:0|0:0,0:0:0:0:
400,240,39646,5,8,0:0:0:0:
380,324,40009,1,2,0:0:0:0:
312,268,40373,1,8,0:0:0:0:
312,268,40737,6,0,P|232:312|156:292,1,165,4|0,0:0|0:0,0:0:0:0:
92,248,41646,6,0,L|60:308,2,55,0|8|4,0:0|0:0|0:0,0:0:0:0:
136,172,42373,2,0,L|208:172,2,55,8|8|4,0:0|0:0|0:0,0:0:0:0:
48,172,43100,1,8,0:0:0:0:
48,172,43282,2,0,P|28:120|48:72,1,110,8|6,0:0|0:0,0:0:0:0:
136,92,44009,5,8,0:0:0:0:
216,56,44373,2,0,P|264:16|364:24,2,165,0|0|8,0:0|0:0|0:0,0:0:0:0:
204,144,45828,2,0,P|240:192|236:248,1,110,0|8,0:0|0:0,0:0:0:0:
188,312,46555,5,4,0:0:0:0:
188,312,46918,1,8,0:0:0:0:
276,320,47282,2,0,P|340:352|428:328,1,165
408,244,48191,2,0,L|464:224,2,55,0|8|0,0:0|0:0|0:0,0:0:0:0:
320,244,48918,6,0,L|264:224,1,55,0|8,0:0|0:0,0:0:0:0:
232,208,49282,2,0,P|220:160|180:116,1,110,2|0,0:0|0:0,0:0:0:0:
140,100,49828,6,0,L|84:80,1,55,8|2,0:0|0:0,0:0:0:0:
52,160,50373,2,0,L|-4:140,2,55,0|8|2,0:0|0:0|0:0,0:0:0:0:
140,260,51282,6,0,P|120:316|132:376,2,110,8|2|8,0:0|0:0|0:0,0:0:0:0:
224,292,52373,1,4,0:0:0:0:
256,192,52555,12,0,55282,0:0:0:0:
160,120,56009,6,0,P|256:72|352:120,1,220,8|0,0:0|0:0,0:0:0:0:
308,200,57100,2,0,P|256:216|204:200,1,110,0|8,0:0|0:0,0:0:0:0:
256,68,58191,5,2,0:0:0:0:
388,184,58918,5,0,0:0:0:0:
388,184,59282,1,0,0:0:0:0:
388,184,59646,1,2,0:0:0:0:
256,300,60373,5,0,0:0:0:0:
256,300,60737,1,0,0:0:0:0:
256,300,61100,1,2,0:0:0:0:
124,184,61828,5,0,0:0:0:0:
124,184,62191,1,0,0:0:0:0:
124,184,62555,1,2,0:0:0:0:
256,68,63282,6,0,B|280:108|236:136|256:176,1,110,0|8,0:0|0:0,0:0:0:0:
308,244,64009,5,6,0:0:0:0:
308,244,64373,1,8,0:0:0:0:
384,200,64737,1,2,0:0:0:0:
384,200,65100,1,8,0:0:0:0:
356,116,65464,6,0,P|256:156|156:116,1,220,2|2,0:0|0:0,0:0:0:0:
96,48,66555,1,8,0:0:0:0:
60,128,66918,6,0,P|88:176|80:244,1,110,6|8,0:0|0:0,0:0:0:0:
24,288,67646,1,2,0:0:0:0:
108,316,68009,1,8,0:0:0:0:
108,316,68191,2,0,P|168:296|228:308,1,110,0|8,0:0|0:0,0:0:0:0:
292,344,68918,1,0,0:0:0:0:
292,344,69100,2,0,P|312:280|348:244,1,110,8|0,0:0|0:0,0:0:0:0:
424,228,69828,6,4,P|464:136|396:164,1,220,4|8,0:0|0:0,0:0:0:0:
316,156,70918,1,0,0:0:0:0:
316,156,71100,2,0,P|260:104|128:168,1,220,8|0,0:0|0:0,0:0:0:0:
132,192,72009,2,0,P|128:256|104:304,1,110,8|2,0:0|0:0,0:0:0:0:
36,348,72737,6,0,P|96:324|200:336,1,165,4|0,0:0|0:0,0:0:0:0:
228,356,73464,2,0,P|276:316|324:304,1,110,2|8,0:0|0:0,0:0:0:0:
416,316,74191,2,0,P|368:288|368:184,1,165,4|0,0:0|0:0,0:0:0:0:
392,148,74918,2,0,P|332:100|296:88,1,110,2|8,0:0|0:0,0:0:0:0:
216,52,75646,6,0,P|180:132|88:160,1,165,4|0,0:0|0:0,0:0:0:0:
68,160,76373,2,0,P|32:216|28:264,1,110,2|8,0:0|0:0,0:0:0:0:
116,240,77100,2,0,P|200:252|172:320,1,165,4|0,0:0|0:0,0:0:0:0:
168,348,77828,2,0,P|228:360|292:344,1,110,2|8,0:0|0:0,0:0:0:0:
352,308,78555,6,0,P|408:296|464:308,1,110,4|8,0:0|0:0,0:0:0:0:
508,232,79282,1,2,0:0:0:0:
508,232,79646,1,8,0:0:0:0:
420,220,80009,6,0,P|400:168|412:112,1,110,4|8,0:0|0:0,0:0:0:0:
356,48,80737,1,2,0:0:0:0:
356,48,81100,1,8,0:0:0:0:
304,120,81464,6,0,P|232:88|148:92,1,165,4|0,0:0|0:0,0:0:0:0:
108,108,82191,2,0,P|132:180|100:264,1,165,2|0,0:0|0:0,0:0:0:0:
72,284,82918,6,0,P|140:272|192:284,1,110,4|8,0:0|0:0,0:0:0:0:
216,300,83464,1,0,0:0:0:0:
244,336,83646,2,0,P|280:308|344:296,1,110,8|4,0:0|0:0,0:0:0:0:
424,332,84373,6,0,P|464:288|456:184,1,165,4|0,0:0|0:0,0:0:0:0:
432,152,85100,2,0,P|376:168|308:148,1,110,2|8,0:0|0:0,0:0:0:0:
260,100,85828,2,0,P|188:64|108:84,1,165,4|0,0:0|0:0,0:0:0:0:
76,112,86555,2,0,P|100:152|96:232,1,110,2|8,0:0|0:0,0:0:0:0:
52,288,87282,6,0,P|140:276|208:320,1,165,4|0,0:0|0:0,0:0:0:0:
232,352,88009,2,0,P|272:304|320:296,1,110,2|8,0:0|0:0,0:0:0:0:
408,324,88737,2,0,P|432:232|408:148,1,165,4|0,0:0|0:0,0:0:0:0:
376,156,89464,2,0,P|324:136|288:88,1,110,2|8,0:0|0:0,0:0:0:0:
208,60,90191,6,8,P|152:56|92:64,1,110,4|8,0:0|0:0,0:0:0:0:
120,148,90918,1,8,0:0:0:0:
120,148,91282,1,8,0:0:0:0:
100,232,91646,6,4,P|153:238|209:234,1,110,4|8,0:0|0:0,0:0:0:0:
256,308,92373,1,8,0:0:0:0:
256,308,92737,1,8,0:0:0:0:
302,234,93100,6,4,P|358:238|412:232,1,110,4|8,0:0|0:0,0:0:0:0:
444,148,93828,1,2,0:0:0:0:
444,148,94009,2,4,P|419:97|387:54,1,110,8|8,0:0|0:0,0:0:0:0:
304,80,94737,2,8,P|248:132|204:144,1,110,8|8,0:0|0:0,0:0:0:0:
172,136,95282,2,0,P|112:124|68:152,1,110,2|8,0:0|0:0,0:0:0:0:
80,196,95828,1,0,0:0:0:0:
92,244,96009,6,0,B|104:276|104:276|196:336|264:244,1,220,4|8,0:0|0:0,0:0:0:0:
304,164,97100,5,2,0:0:0:0:
304,164,97282,1,0,0:0:0:0:
304,164,97464,2,0,P|288:72|384:104,1,220,4|8,0:0|0:0,0:0:0:0:
392,176,98555,5,2,0:0:0:0:
392,176,98737,1,0,0:0:0:0:
392,176,98918,2,0,P|416:268|488:192,1,220,4|8,0:0|0:0,0:0:0:0:
468,132,100009,5,2,0:0:0:0:
468,132,100191,1,0,0:0:0:0:
360,60,100737,2,0,P|312:92|256:100,1,110,0|8,0:0|0:0,0:0:0:0:
176,72,101464,1,0,0:0:0:0:
192,160,101828,6,0,P|200:220|176:260,1,110,4|8,0:0|0:0,0:0:0:0:
116,324,102555,1,8,0:0:0:0:
116,324,102737,2,8,P|184:312|244:328,1,110,8|6,0:0|0:0,0:0:0:0:
344,324,103646,5,8,0:0:0:0:
344,324,103828,2,0,P|344:276|384:232,1,110
428,232,104373,2,0,L|408:112,1,110,8|6,0:0|0:0,0:0:0:0:
256,192,104828,12,4,108373,0:0:0:0:
256,52,108918,5,8,0:0:0:0:
212,168,109464,5,6,0:0:0:0:
300,168,109828,1,0,0:0:0:0:
256,244,110191,2,0,B|236:276|280:316|256:352,1,110,8|4,0:0|0:0,0:0:0:0:
256,192,110737,12,4,113464,0:0:0:0:
256,192,113555,12,2,116373,0:0:0:0:
