osu file format v12

[General]
AudioFilename: Eternal Melodia.mp3
AudioLeadIn: 0
PreviewTime: 72193
Countdown: 0
SampleSet: Soft
StackLeniency: 0.7
Mode: 0
LetterboxInBreaks: 0

[Editor]
DistanceSpacing: 1.2
BeatDivisor: 4
GridSize: 2

[Metadata]
Title:Eternal Melodia (Short Ver.)
TitleUnicode:Eternal Melodia (Short Ver.)
Artist:Satou Shizuku & Sakakibara Yui
ArtistUnicode:Satou Shizuku & Sakakibara Yui
Creator:terametis
Version:Collab
Source:Ryuuyoku no Melodia -Diva with the blessed dragonol-
Tags:whirlpool NewRulerNA Patchouli wring ReySHeL
BeatmapID:187051
BeatmapSetID:63267

[Difficulty]
HPDrainRate:2
CircleSize:2
OverallDifficulty:2
ApproachRate:3
SliderMultiplier:0.799999999999999
SliderTickRate:1

[Events]
//Background and Video events
0,0,"BGc.jpg",0,0
//Break Periods
//Storyboard Layer 0 (Background)
//Storyboard Layer 1 (Fail)
//Storyboard Layer 2 (Pass)
//Storyboard Layer 3 (Foreground)
//Storyboard Sound Samples
//Background Colour Transformations
3,100,163,162,255

[TimingPoints]
2919,363.636363636364,4,2,3,70,1,0
2919,-100,4,2,2,70,0,0
9100,-100,4,2,3,70,0,0
10555,-100,4,2,1,50,0,0
10919,-100,4,2,1,55,0,0
11646,-100,4,1,3,60,0,0
12373,-100,4,2,2,70,0,0
13464,-100,4,2,1,65,0,0
13828,-100,4,2,4,50,0,0
14191,-100,4,2,2,70,0,0
14555,-100,4,1,3,60,0,0
15282,-100,4,2,1,60,0,0
16009,-100,4,2,1,70,0,0
17191,-100,4,1,3,70,0,0
18009,-100,4,2,2,70,0,0
18100,-100,4,2,2,85,0,0
20009,-100,4,2,1,75,0,0
20373,-100,4,2,2,85,0,0
22191,-100,4,2,1,75,0,0
22555,-100,4,2,2,85,0,0
23646,-100,4,2,1,75,0,0
24009,-100,4,2,2,85,0,0
25100,-100,4,2,1,75,0,0
25464,-100,4,2,2,85,0,0
30191,-100,4,2,2,40,0,0
30555,-100,4,2,2,85,0,0
31646,-100,4,2,2,40,0,0
32009,-100,4,2,2,85,0,0
32373,-100,4,2,2,70,0,0
33100,-100,4,2,1,60,0,0
33464,-100,4,2,2,70,0,0
34555,-100,4,2,1,60,0,0
34919,-100,4,2,2,70,0,0
36737,-100,4,2,1,60,0,0
37100,-100,4,2,2,70,0,0
38191,-100,4,2,1,60,0,0
38555,-100,4,2,2,70,0,0
38919,-100,4,2,1,60,0,0
39282,-100,4,2,2,70,0,0
41100,-100,4,2,1,60,0,0
41282,-100,4,2,2,70,0,0
43100,-100,4,2,1,60,0,0
43282,-100,4,2,2,70,0,0
45100,-100,4,2,4,70,0,0
45464,-100,4,2,2,70,0,0
53100,-100,4,2,1,60,0,0
53464,-100,4,2,2,70,0,0
56009,-100,4,2,1,60,0,0
56373,-100,4,2,2,70,0,0
61100,-100,4,2,4,70,0,0
61464,-100,4,2,2,70,0,0
62191,-100,4,2,2,70,0,0
64009,-100,4,2,3,70,0,0
64373,-100,4,2,2,70,0,0
65828,-100,4,2,1,60,0,0
66191,-100,4,2,2,70,0,0
69828,-100,4,2,2,75,0,0
70191,-100,4,2,1,70,0,0
70555,-100,4,2,2,80,0,0
72737,-100,4,1,3,90,0,1
73100,-100,4,2,1,70,0,1
73464,-100,4,2,2,85,0,1
74191,-100,4,2,4,85,0,1
74555,-100,4,2,1,70,0,1
74919,-100,4,2,2,80,0,1
76009,-100,4,2,1,70,0,1
76191,-100,4,2,2,80,0,1
77464,-100,4,2,1,70,0,1
77828,-100,4,2,2,80,0,1
78919,-100,4,2,1,70,0,1
79282,-100,4,2,2,80,0,1
80373,-100,4,2,1,70,0,1
80737,-100,4,2,2,80,0,1
81828,-100,4,2,1,70,0,1
82191,-100,4,2,2,80,0,1
82555,-100,4,2,1,70,0,1
82919,-100,4,2,2,80,0,1
84737,-100,4,2,1,70,0,1
85100,-100,4,2,2,80,0,1
86191,-100,4,2,1,70,0,1
86555,-100,4,2,2,80,0,1
87646,-100,4,2,1,70,0,1
88009,-100,4,2,2,80,0,1
89100,-100,4,2,1,70,0,1
89464,-100,4,2,2,80,0,1
90555,-100,4,2,1,70,0,1
90737,-100,4,2,2,80,0,1
90919,-100,4,2,1,70,0,1
91282,-100,4,2,2,80,0,1
92009,-100,4,2,1,70,0,1
92191,-100,4,2,2,80,0,1
92373,-100,4,2,1,70,0,1
92737,-100,4,2,2,80,0,1
93828,-100,4,1,3,75,0,1
95282,-100,4,2,2,80,0,1
95646,-100,4,2,2,50,0,1
96009,-100,4,2,2,65,0,1
104373,-100,4,2,1,55,0,1
104737,-100,4,2,2,65,0,0
106191,-100,4,2,2,50,0,0
109464,-100,4,2,2,65,0,0
110555,-100,4,2,2,50,0,0

[Colours]
Combo1 : 209,209,209
Combo2 : 0,128,255
Combo3 : 255,255,255
Combo4 : 0,240,0

[HitObjects]
148,72,2919,2,0,B|258:-12|368:72,1,240,2|0,0:0|0:0,0:0:0:0:
400,162,4373,2,0,P|448:134|464:74,2,120,2|0|0,0:0|0:0|0:0,0:0:0:0:
304,154,5828,6,0,P|203:206|209:320,1,240,2|0,0:0|0:0,0:0:0:0:
296,278,7282,2,0,P|350:275|398:315,2,120,2|0|0,0:0|0:0|0:0,0:0:0:0:
318,372,8737,1,2,0:0:0:0:
222,364,9100,6,0,B|170:272|170:272|66:272,2,200,0|4|8,0:0|0:0|0:0,0:0:0:0:
318,372,11282,1,8,0:0:0:0:
386,304,11646,6,0,B|386:248|386:248|422:200|386:152,1,160,4|8,0:0|0:0,0:0:0:0:
310,92,12737,2,0,P|176:72|89:213,1,320,0|8,0:0|0:0,0:0:0:0:
142,294,14555,6,0,B|182:354|182:354|270:354,1,160,0|8,0:0|0:0,0:0:0:0:
364,350,15646,1,0,0:0:0:0:
428,280,16009,2,0,L|428:184,1,79.9999999999999,10|10,0:0|0:0,0:0:0:0:
342,246,16737,2,0,L|342:166,1,79.9999999999999,10|10,0:0|0:0,0:0:0:0:
256,212,17464,6,0,L|256:84,2,120,4|8|8,0:0|0:0|0:0,0:0:0:0:
170,166,18919,1,2,0:0:0:0:
108,238,19282,1,8,0:0:0:0:
34,176,19646,2,0,P|56:92|120:52,1,160,0|2,0:0|0:0,0:0:0:0:
206,82,20737,5,8,0:0:0:0:
290,36,21100,1,2,0:0:0:0:
359,101,21464,1,8,0:0:0:0:
318,186,21828,2,0,P|360:251|353:330,1,160,2|2,0:0|0:0,0:0:0:0:
164,292,23282,6,0,P|167:236|206:187,2,120,2|2|8,0:0|0:0|0:0,0:0:0:0:
256,268,24737,2,0,P|252:323|213:372,2,120,2|2|8,0:0|0:0|0:0,0:0:0:0:
205,187,26191,5,2,0:0:0:0:
150,108,26555,1,8,0:0:0:0:
62,142,26919,2,0,L|24:56,2,79.9999999999999,2|8|2,0:0|0:0|0:0,0:0:0:0:
38,234,28009,2,0,L|70:307,1,79.9999999999999,8|2,0:0|0:0,0:0:0:0:
164,332,28737,1,8,0:0:0:0:
256,304,29100,6,0,L|256:176,2,120,4|8|8,0:0|0:0|0:0,0:0:0:0:
348,332,30555,2,0,P|411:341|448:305,2,120,6|8|8,0:0|0:0|0:0,0:0:0:0:
256,304,32009,1,2,0:0:0:0:
164,332,32373,6,0,P|68:282|104:170,1,240,8|2,0:0|0:0,0:0:0:0:
194,190,33828,1,8,0:0:0:0:
282,152,34191,2,0,B|282:66|282:66|218:30,1,160,0|2,0:0|0:0,0:0:0:0:
44,112,35646,5,8,0:0:0:0:
108,292,36373,2,0,P|183:321|253:284,1,160,2|0,0:0|0:0,0:0:0:0:
286,200,37464,1,8,0:0:0:0:
204,150,37828,6,0,P|269:102|346:119,2,160,4|0|2,0:0|0:0|0:0,0:0:0:0:
200,246,39646,1,8,0:0:0:0:
280,298,40009,1,0,0:0:0:0:
366,255,40373,1,8,0:0:0:0:
446,308,40737,2,0,P|464:260|440:196,1,120,4|0,0:0|0:0,0:0:0:0:
260,172,42009,6,0,L|260:82,1,79.9999999999999,6|8,0:0|0:0,0:0:0:0:
186,30,42737,2,0,B|166:50|166:50|166:158,1,120,6|8,0:0|0:0,0:0:0:0:
166,238,43646,1,6,0:0:0:0:
147,331,44009,6,0,P|88:288|77:202,2,160,8|8|8,0:0|0:0|0:0,0:0:0:0:
238,302,45828,1,0,0:0:0:0:
256,208,46191,1,8,0:0:0:0:
336,156,46555,6,0,P|378:166|396:195,1,79.9999999999999,2|8,0:0|0:0,0:0:0:0:
396,292,47282,2,0,L|396:372,2,79.9999999999999,0|8|2,0:0|0:0|0:0,0:0:0:0:
480,246,48373,1,8,0:0:0:0:
384,80,49100,6,0,L|304:80,1,79.9999999999999,8|4,0:0|0:0,0:0:0:0:
274,172,49828,2,0,L|190:172,1,79.9999999999999,8|0,0:0|0:0,0:0:0:0:
164,264,50555,2,0,L|68:264,1,79.9999999999999,8|2,0:0|0:0,0:0:0:0:
108,358,51282,6,0,B|204:358|204:358|256:320,1,160,8|8,0:0|0:0,0:0:0:0:
328,256,52373,2,0,P|370:144|292:68,1,240,4|0,0:0|0:0,0:0:0:0:
148,192,54191,1,0,0:0:0:0:
136,288,54555,6,0,B|160:326|160:326|232:326|232:326|256:362,1,160,8|4,0:0|0:0,0:0:0:0:
308,282,55646,2,0,B|332:246|332:246|404:246|404:246|428:208,1,160
410,114,56737,2,0,P|358:54|282:44,1,160,2|8,0:0|0:0,0:0:0:0:
256,136,57828,1,0,0:0:0:0:
208,220,58191,6,0,B|160:256|112:220|112:220|56:220,2,160,2|0|2,0:0|0:0|0:0,0:0:0:0:
304,220,60009,2,0,B|352:256|400:220|400:220|456:220,2,160,0|0|0,0:0|0:0|0:0,0:0:0:0:
256,136,61828,2,0,L|256:12,2,120,0|0|0,0:0|0:0|0:0,0:0:0:0:
205,220,63282,5,2,0:0:0:0:
256,304,63646,1,8,0:0:0:0:
304,220,64009,2,0,L|396:220,2,79.9999999999999,4|8|2,0:0|0:0|0:0,0:0:0:0:
205,220,65100,1,8,0:0:0:0:
124,174,65464,2,0,P|130:96|194:56,1,160,2|2,0:0|0:0,0:0:0:0:
256,130,66555,5,8,0:0:0:0:
318,56,66918,2,0,P|382:96|388:174,2,160,4|8|2,0:0|0:0|0:0,0:0:0:0:
256,130,68737,1,0,0:0:0:0:
256,226,69100,2,0,L|256:312,1,79.9999999999999,8|0,0:0|0:0,0:0:0:0:
336,368,69828,6,0,P|412:346|452:280,1,160,4|8,0:0|0:0,0:0:0:0:
398,194,70918,1,0,0:0:0:0:
416,99,71282,2,0,P|448:78|490:72,2,79.9999999999999,10|10|10,0:0|0:0|0:0,0:0:0:0:
324,130,72373,1,10,0:0:0:0:
274,212,72737,6,0,P|144:218|86:128,2,240,4|8|0,0:0|0:0|0:0,0:0:0:0:
324,130,75282,1,8,0:0:0:0:
366,44,75646,6,0,P|416:108|412:162,2,120,4|0|8,0:0|0:0|0:0,0:0:0:0:
270,44,77100,2,0,B|196:44|196:44|162:126,1,160,2|0,0:0|0:0,0:0:0:0:
244,298,78555,6,0,B|189:298|189:298|164:237,2,120,4|0|8,0:0|0:0|0:0,0:0:0:0:
340,298,80009,2,0,L|462:298,2,120,2|0|8,0:0|0:0|0:0,0:0:0:0:
292,214,81464,6,0,L|292:36,2,160,4|2|4,0:0|0:0|0:0,0:0:0:0:
244,298,83282,1,8,0:0:0:0:
150,316,83646,2,0,P|108:314|75:295,1,79.9999999999999,2|4,0:0|0:0,0:0:0:0:
18,220,84373,6,0,B|18:86|18:86|120:38,1,240,4|8,1:0|0:0,0:0:0:0:
188,102,85828,2,0,B|228:110|256:142|256:142|284:110|324:102,1,160,2|0,0:0|0:0,0:0:0:0:
494,220,87282,6,0,B|494:86|494:86|392:38,1,240,4|8,0:0|0:0,0:0:0:0:
324,102,88737,2,0,B|284:110|256:142|256:142|228:110|188:102,1,160,2|0,0:0|0:0,0:0:0:0:
94,96,89828,1,8,0:0:0:0:
72,190,90191,6,0,L|44:320,2,120,4|0|8,0:0|0:0|0:0,0:0:0:0:
164,219,91646,2,0,L|189:101,2,120,2|0|8,0:0|0:0|0:0,0:0:0:0:
198,308,93100,5,4,0:0:0:0:
384,356,93828,1,0,0:0:0:0:
432,170,94555,2,0,P|406:96|339:51,1,160,0|2,0:3|0:0,0:0:0:0:
278,126,95646,5,8,0:0:0:0:
216,200,96009,2,0,P|149:155|124:82,1,160,4|8,0:0|0:0,0:0:0:0:
28,70,97100,1,0,0:0:0:0:
0,162,97464,2,0,P|-7:241|30:310,1,160,2|8,0:0|0:0,0:0:0:0:
120,274,98555,5,0,0:0:0:0:
188,344,98918,2,0,B|228:336|256:304|256:304|284:336|324:344,1,160,4|8,0:0|0:0,0:0:0:0:
392,274,100009,1,0,0:0:0:0:
481,308,100373,2,0,P|519:241|512:160,1,160,2|8,0:0|0:0,0:0:0:0:
420,132,101464,6,0,L|332:106,1,79.9999999999999,0|4,0:0|0:0,0:0:0:0:
260,158,102191,1,8,0:0:0:0:
164,148,102555,2,0,P|128:110|127:45,1,120,8|4,0:0|0:0,0:0:0:0:
18,138,103646,2,0,P|-7:184|9:246,2,120,8|0|4,0:0|0:0|0:0,0:0:0:0:
256,192,104918,12,8,108373,0:0:0:0:
256,296,109464,6,0,L|256:380,2,79.9999999999999,8|0|8,0:0|0:0|0:0,0:0:0:0:
256,192,110555,12,2,113464,0:0:0:0:
256,192,113646,12,4,116373,0:0:0:0:
