osu file format v12

[General]
AudioFilename: Eternal Melodia.mp3
AudioLeadIn: 0
PreviewTime: 72193
Countdown: 0
SampleSet: Soft
StackLeniency: 0.7
Mode: 0
LetterboxInBreaks: 0

[Editor]
Bookmarks: 47191,82282
DistanceSpacing: 1.2
BeatDivisor: 4
GridSize: 4

[Metadata]
Title:Eternal Melodia (Short Ver.)
TitleUnicode:Eternal Melodia (Short Ver.)
Artist:Satou Shizuku & Sakakibara Yui
ArtistUnicode:佐藤しずく & 榊原ゆい
Creator:Melophobia
Version:Eternal Melophobia
Source:Ryuuyoku no Melodia -Diva with the blessed dragonol-
Tags:Erophobia icee-nyan hentai eroge game visual novel whirlpool cRyo[iceeicee]
BeatmapID:203269
BeatmapSetID:70716

[Difficulty]
HPDrainRate:7
CircleSize:4
OverallDifficulty:7
ApproachRate:8
SliderMultiplier:1.7
SliderTickRate:2

[Events]
//Background and Video events
0,0,"BG.jpg",0,0
Video,0,"melophodia.avi"
//Break Periods
//Storyboard Layer 0 (Background)
//Storyboard Layer 1 (Fail)
//Storyboard Layer 2 (Pass)
//Storyboard Layer 3 (Foreground)
//Storyboard Sound Samples
//Background Colour Transformations
3,100,163,162,255

[TimingPoints]
2919,363.636363636364,4,2,1,40,1,0
2919,-133.333333333333,4,2,1,40,0,0
10009,-133.333333333333,4,2,0,40,0,0
10100,-133.333333333333,4,2,1,40,0,0
11646,-100,4,2,0,60,0,0
11737,-100,4,2,1,60,0,0
17464,-100,4,2,0,70,0,0
17555,-100,4,2,1,70,0,0
23282,-100,4,2,0,70,0,0
23373,-100,4,2,1,70,0,0
26191,-100,4,2,0,70,0,0
26282,-100,4,2,1,70,0,0
29100,-133.333333333333,4,2,0,50,0,0
29191,-133.333333333333,4,2,1,50,0,0
30555,-133.333333333333,4,2,0,50,0,0
30646,-133.333333333333,4,2,1,50,0,0
32009,-133.333333333333,4,2,0,50,0,0
32100,-133.333333333333,4,2,1,50,0,0
37828,-133.333333333333,4,2,0,50,0,0
37919,-133.333333333333,4,2,1,50,0,0
42009,-100,4,2,0,70,0,0
42100,-100,4,2,1,70,0,0
42737,-100,4,2,0,70,0,0
42828,-100,4,2,1,70,0,0
43646,-100,4,2,0,70,0,0
43737,-100,4,2,1,60,0,0
48009,-100,4,2,2,50,0,0
48100,-100,4,2,1,60,0,0
49464,-100,4,2,0,60,0,0
49555,-100,4,2,1,60,0,0
51828,-100,4,2,2,50,0,0
51919,-100,4,2,1,60,0,0
52373,-133.333333333333,4,2,0,50,0,0
52464,-133.333333333333,4,2,1,50,0,0
54828,-133.333333333333,4,2,1,30,0,0
54919,-133.333333333333,4,2,1,50,0,0
55282,-133.333333333333,4,2,0,50,0,0
55373,-133.333333333333,4,2,1,50,0,0
58191,-200,4,2,0,40,0,0
58282,-200,4,2,1,40,0,0
63464,-100,4,2,1,50,0,0
63646,-100,4,2,1,30,0,0
64009,-100,4,2,0,70,0,0
64100,-100,4,2,2,60,0,0
64282,-100,4,2,1,70,0,0
66919,-133.333333333333,4,2,0,60,0,0
67009,-133.333333333333,4,2,1,60,0,0
69828,-133.333333333333,4,2,0,70,0,0
69919,-133.333333333333,4,2,1,70,0,0
71282,-133.333333333333,4,2,1,60,0,0
71646,-100,4,2,1,60,0,0
72009,-80,4,2,1,60,0,0
72373,-66.6666666666667,4,2,1,60,0,0
72737,-100,4,2,0,80,0,1
72828,-100,4,2,1,80,0,1
78555,-100,4,2,0,80,0,1
78646,-100,4,2,1,80,0,1
84373,-100,4,2,0,80,0,1
84464,-100,4,2,1,80,0,1
90191,-100,4,2,0,80,0,1
90282,-100,4,2,1,80,0,1
93100,-100,4,2,0,80,0,1
93191,-100,4,2,1,80,0,1
94373,-100,4,2,0,80,0,1
94464,-100,4,2,1,80,0,1
94737,-100,4,2,1,40,0,1
95464,-100,4,2,1,50,0,1
96009,-133.333333333333,4,2,0,60,0,1
96100,-133.333333333333,4,2,1,60,0,1
96737,-133.333333333333,4,2,0,60,0,1
96828,-133.333333333333,4,2,1,60,0,1
98919,-133.333333333333,4,2,0,60,0,1
99009,-133.333333333333,4,2,1,60,0,1
99646,-133.333333333333,4,2,0,60,0,1
99737,-133.333333333333,4,2,1,60,0,1
101828,-100,4,1,1,30,0,1
102009,-100,4,1,1,35,0,1
102191,-100,4,1,1,40,0,1
102373,-100,4,1,1,45,0,1
102555,-100,4,1,1,50,0,1
102737,-100,4,1,1,55,0,1
102919,-100,4,1,1,60,0,1
103100,-100,4,1,1,65,0,1
103646,-133.333333333333,4,2,1,60,0,1
104737,-100,4,2,0,60,0,0
104828,-100,4,2,1,60,0,0
110555,-100,4,2,0,60,0,0
110646,-100,4,2,1,60,0,0
113464,-100,4,2,0,60,0,0
113555,-100,4,2,1,60,0,0
116373,-100,4,2,0,60,0,0
116464,-100,4,2,1,5,0,0

[Colours]
Combo1 : 128,255,128
Combo2 : 0,128,255
Combo3 : 255,128,128
Combo4 : 255,128,64
Combo5 : 128,128,255

[HitObjects]
136,128,2919,2,0,P|128:80|104:40,2,95.6250036478044,2|0|0,0:0|0:0|0:0,0:0:0:0:
88,204,3646,2,0,P|144:180|209:183,1,127.500004863739,2|2,0:0|0:0,0:0:0:0:
448,300,4373,6,0,P|392:324|326:320,1,127.500004863739,2|0,0:0|0:0,0:0:0:0:
240,300,4919,1,2,0:0:0:0:
240,300,5009,1,2,0:0:0:0:
240,300,5100,2,0,L|104:328,1,127.500004863739,0|2,0:0|0:0,0:0:0:0:
408,64,5828,6,0,P|428:104|430:154,2,95.6250036478044,2|0|0,0:0|0:0|0:0,0:0:0:0:
316,40,6555,2,0,P|264:72|192:72,1,127.500004863739,2|2,0:0|0:0,0:0:0:0:
52,200,7282,6,0,P|44:264|74:320,1,127.500004863739,2|0,0:0|0:0,0:0:0:0:
144,244,7828,1,2,0:0:0:0:
236,288,8009,2,0,P|244:224|213:167,1,127.500004863739,2|0,0:0|0:0,0:0:0:0:
40,64,8737,6,0,P|94:35|158:43,1,127.500004863739,2|2,0:0|0:0,0:0:0:0:
249,89,9282,2,0,L|264:152,1,63.7500024318696,0|2,0:0|0:0,0:0:0:0:
348,72,9646,2,0,L|333:9,1,63.7500024318696,2|0,0:0|0:0,0:0:0:0:
116,152,10009,5,4,0:0:0:0:
116,152,10555,2,0,P|85:138|44:128,2,63.7500024318696,8|0|8,0:0|0:0|0:0,0:0:0:0:
188,216,11100,1,0,0:0:0:0:
188,216,11191,1,8,0:0:0:0:
188,216,11282,2,0,P|240:212|276:190,1,95.6250036478044,8|8,0:0|0:0,0:0:0:0:
300,152,11646,5,4,0:0:0:0:
360,236,11828,2,0,P|404:220|452:220,2,85
324,332,12373,1,8,0:0:0:0:
48,104,12737,1,4,0:0:0:0:
16,204,12919,6,0,P|100:216|179:188,1,170,4|0,0:0|0:0,0:0:0:0:
292,80,13464,2,0,P|252:80|210:94,1,85,10|0,0:0|0:0,0:0:0:0:
284,272,13828,2,0,P|324:284|372:280,1,85,2|4,0:0|0:0,0:0:0:0:
432,140,14191,1,8,0:0:0:0:
432,140,14282,1,8,0:0:0:0:
432,140,14373,1,8,0:0:0:0:
432,140,14464,1,8,0:0:0:0:
432,140,14555,1,4,0:0:0:0:
340,188,14737,6,0,P|396:248|476:232,1,170,4|4,0:0|0:0,0:0:0:0:
480,60,15282,2,0,P|440:52|396:56,1,85,8|0,0:0|0:0,0:0:0:0:
300,96,15646,1,4,0:0:0:0:
204,56,15828,6,0,P|120:44|52:88,2,170,8|8|8,0:0|0:0|0:0,0:0:0:0:
196,172,16737,1,0,0:0:0:0:
196,172,16828,1,0,0:0:0:0:
196,172,16919,1,0,0:0:0:0:
196,172,17009,1,0,0:0:0:0:
196,172,17100,2,0,L|240:204,1,42.5,0|8,0:0|0:0,0:0:0:0:
180,276,17282,2,0,L|136:252,1,42.5,8|8,0:0|0:0,0:0:0:0:
104,160,17464,6,0,B|112:104|176:64|233:86,1,170,4|8,0:0|0:0,0:0:0:0:
332,108,18009,2,0,P|376:96|412:60,2,85,2|0|0,0:0|0:0|0:0,0:0:0:0:
264,188,18555,2,0,P|260:232|273:269,1,85,10|0,0:0|0:0,0:0:0:0:
352,340,18919,6,0,L|440:324,1,85,2|0,0:0|0:0,0:0:0:0:
273,270,19282,2,0,L|189:285,1,85,8|0,0:0|0:0,0:0:0:0:
88,276,19646,1,2,0:0:0:0:
88,276,19737,1,0,0:0:0:0:
88,276,19828,1,0,0:0:0:0:
88,276,19919,1,0,0:0:0:0:
88,276,20009,2,0,P|72:236|69:194,1,85,8|0,0:0|0:0,0:0:0:0:
252,76,20373,6,0,P|332:40|414:45,2,170,2|8|2,0:0|0:0|0:0,0:0:0:0:
224,172,21282,1,0,0:0:0:0:
132,124,21464,2,0,P|88:112|32:128,1,85,8|0,0:0|0:0,0:0:0:0:
84,216,21828,6,0,P|168:228|224:172,1,170,2|8,0:0|0:0,0:0:0:0:
304,104,22373,1,2,0:0:0:0:
304,104,22555,2,0,L|400:76,1,85,2|0,0:0|0:0,0:0:0:0:
440,268,22919,1,8,0:0:0:0:
488,176,23100,5,8,0:0:0:0:
488,176,23191,1,8,0:0:0:0:
488,176,23282,2,0,P|404:164|348:220,1,170,6|8,0:0|0:0,0:0:0:0:
328,336,23828,1,2,0:0:0:0:
216,320,24009,2,0,L|134:296,1,85,8|0,0:0|0:0,0:0:0:0:
82,172,24373,2,0,L|164:196,1,85,10|0,0:0|0:0,0:0:0:0:
188,96,24737,6,0,P|260:64|364:80,1,170,10|8,0:0|0:0,0:0:0:0:
428,140,25282,2,0,P|468:140|510:125,2,85,2|8|0,0:0|0:0|0:0,0:0:0:0:
332,180,25828,2,0,P|320:220|328:284,1,85,10|0,0:0|0:0,0:0:0:0:
424,260,26191,5,4,0:0:0:0:
424,260,26373,1,4,0:0:0:0:
272,352,26555,1,8,0:0:0:0:
272,352,26737,1,2,0:0:0:0:
372,348,26919,1,4,0:0:0:0:
332,180,27100,1,4,0:0:0:0:
196,288,27282,2,0,P|152:296|113:285,1,85,10|4,0:0|0:0,0:0:0:0:
44,152,27646,6,0,P|100:88|188:80,1,170,2|8,0:0|0:0,0:0:0:0:
280,104,28191,2,0,P|324:104|368:84,1,85,2|8,0:0|0:0,0:0:0:0:
432,12,28555,1,0,0:0:0:0:
460,112,28737,2,0,P|472:156|472:200,1,85,10|0,0:0|0:0,0:0:0:0:
384,316,29100,6,0,P|328:340|264:328,1,127.500004863739,4|0,0:0|0:0,0:0:0:0:
120,188,29646,2,0,P|176:164|239:175,1,127.500004863739,2|4,0:0|0:0,0:0:0:0:
312,240,30191,1,4,0:0:0:0:
400,208,30373,1,4,0:0:0:0:
404,56,30555,6,0,P|348:32|284:43,1,127.500004863739,4|4,0:0|0:0,0:0:0:0:
120,160,31100,2,0,P|176:184|239:172,1,127.500004863739,2|4,0:0|0:0,0:0:0:0:
320,124,31646,1,4,0:0:0:0:
320,124,31737,1,4,0:0:0:0:
320,124,31828,1,4,0:0:0:0:
412,144,32009,6,0,P|444:200|436:264,1,127.500004863739,6|0,0:0|0:0,0:0:0:0:
372,324,32555,1,2,0:0:0:0:
292,284,32737,1,0,0:0:0:0:
212,328,32919,2,0,P|148:324|84:272,1,127.500004863739,2|0,0:0|0:0,0:0:0:0:
104,200,33464,6,0,P|168:204|232:256,1,127.500004863739,2|0,0:0|0:0,0:0:0:0:
396,248,34191,2,0,P|436:200|441:137,1,127.500004863739,2|0,0:0|0:0,0:0:0:0:
416,52,34737,1,0,0:0:0:0:
328,68,34919,6,0,P|264:76|208:44,1,127.500004863739,2|0,0:0|0:0,0:0:0:0:
124,68,35464,1,0,0:0:0:0:
124,156,35646,2,0,P|188:148|244:180,1,127.500004863739,2|0,0:0|0:0,0:0:0:0:
296,248,36191,5,0,0:0:0:0:
296,248,36282,1,0,0:0:0:0:
296,248,36373,2,0,P|288:184|320:128,1,127.500004863739,2|0,0:0|0:0,0:0:0:0:
372,204,36919,1,2,0:0:0:0:
124,320,37282,2,0,P|96:312|64:292,2,63.7500024318696,0|2|0,0:0|0:0|0:0,0:0:0:0:
212,300,37828,6,0,P|272:288|340:308,1,127.500004863739,4|0,0:0|0:0,0:0:0:0:
412,348,38373,1,2,0:0:0:0:
444,172,38737,1,2,0:0:0:0:
396,96,38919,1,0,0:0:0:0:
320,140,39100,5,2,0:0:0:0:
320,140,39191,1,0,0:0:0:0:
320,140,39282,2,0,P|256:144|188:112,1,127.500004863739,0|2,0:0|0:0,0:0:0:0:
48,20,40009,1,2,0:0:0:0:
12,196,40373,1,2,0:0:0:0:
152,308,40737,6,0,P|216:312|284:280,1,127.500004863739,2|0,0:0|0:0,0:0:0:0:
252,112,41282,2,0,P|188:108|130:131,1,127.500004863739,2|0,0:0|0:0,0:0:0:0:
204,212,41828,1,2,0:0:0:0:
388,320,42009,6,0,P|424:240|384:160,1,170,4|8,0:0|0:0,0:0:0:0:
312,80,42555,1,8,0:0:0:0:
256,184,42737,1,4,0:0:0:0:
256,184,42828,2,0,P|192:192|136:160,1,127.5,8|8,0:0|0:0,0:0:0:0:
124,44,43282,1,4,0:0:0:0:
28,116,43464,5,8,0:0:0:0:
28,116,43555,1,8,0:0:0:0:
28,116,43646,2,0,P|-8:192|0:275,1,170,4|8,0:0|0:0,0:0:0:0:
72,348,44191,1,0,0:0:0:0:
152,288,44373,1,4,0:0:0:0:
244,332,44555,2,0,P|284:340|352:328,1,85,4|8,0:0|0:0,0:0:0:0:
428,240,44918,6,0,P|424:288|433:323,1,85,0|4,0:0|0:0,0:0:0:0:
332,212,45282,2,0,P|336:164|320:116,1,85,0|8,0:0|0:0,0:0:0:0:
240,76,45646,1,0,0:0:0:0:
168,148,45828,2,0,P|105:154|45:134,1,127.5,4|4,0:0|0:0,0:0:0:0:
44,134,46191,2,0,L|28:44,1,85,8|0,0:0|0:0,0:0:0:0:
240,76,46555,6,0,P|280:156|264:232,1,170,4|8,0:0|0:0,0:0:0:0:
224,324,47100,1,0,0:0:0:0:
224,324,47191,1,8,0:0:0:0:
224,324,47282,2,0,L|139:333,1,85,0|4,0:0|0:0,0:0:0:0:
164,220,47646,1,8,0:0:0:0:
324,312,47828,6,0,P|404:316|444:228,1,170,0|0,0:0|0:0,0:0:0:0:
432,144,48373,1,8,0:0:0:0:
344,92,48555,2,0,P|300:92|260:103,1,85,4|0,0:0|0:0,0:0:0:0:
192,180,48918,1,4,0:0:0:0:
88,220,49100,1,8,0:0:0:0:
108,120,49282,1,0,0:0:0:0:
172,280,49464,6,0,P|188:320|183:360,1,85,4|0,0:0|0:0,0:0:0:0:
40,320,49828,1,8,0:0:0:0:
192,180,50009,2,0,P|236:176|300:184,1,85,0|4,0:0|0:0,0:0:0:0:
332,256,50373,1,4,0:0:0:0:
448,104,50555,1,8,0:0:0:0:
512,232,50737,2,0,P|468:236|404:228,1,85,0|4,0:0|0:0,0:0:0:0:
336,136,51100,5,0,0:0:0:0:
264,28,51282,2,0,P|221:25|160:52,1,85,8|0,0:0|0:0,0:0:0:0:
60,184,51646,2,0,P|136:204|216:160,1,170,4|8,0:0|0:0,0:0:0:0:
312,132,52191,5,0,0:0:0:0:
312,132,52282,1,0,0:0:0:0:
312,132,52373,2,0,L|384:156,1,63.7500024318696,4|0,0:0|0:0,0:0:0:0:
432,228,52737,1,0,0:0:0:0:
372,304,52918,1,4,0:0:0:0:
372,304,53009,1,0,0:0:0:0:
372,304,53100,2,0,P|324:276|256:292,1,127.500004863739,8|0,0:0|0:0,0:0:0:0:
168,332,53646,2,0,L|100:308,1,63.7500024318696,0|4,0:0|0:0,0:0:0:0:
8,148,54191,5,4,0:0:0:0:
172,52,54555,2,0,P|220:44|265:54,1,95.6250036478044,8|8,0:0|3:0,0:0:0:0:
304,80,54918,2,0,L|380:64,1,63.7500024318696,4|0,0:0|0:0,0:0:0:0:
462,142,55282,6,0,L|400:156,1,63.7500024318696,4|0,0:0|0:0,0:0:0:0:
345,265,55646,2,0,L|408:252,2,63.7500024318696,0|4|8,0:0|0:0|0:0,0:0:0:0:
105,205,56373,2,0,L|168:192,1,63.7500024318696
256,236,56737,6,0,P|224:184|226:118,1,127.500004863739,4|0,0:0|0:0,0:0:0:0:
288,44,57282,1,0,0:0:0:0:
376,80,57464,2,0,P|408:132|405:197,1,127.500004863739,8|0,0:0|0:0,0:0:0:0:
344,264,58009,1,8,0:0:0:0:
256,236,58191,6,0,P|180:224|96:259,1,170,4|2,0:0|0:0,0:0:0:0:
20,196,59282,1,0,0:0:0:0:
44,96,59646,2,0,P|88:108|126:105,1,85,2|0,0:0|0:0,0:0:0:0:
212,48,60373,1,2,0:0:0:0:
308,76,60737,1,0,0:0:0:0:
360,164,61100,6,0,P|404:172|443:164,2,85,2|0|2,0:0|0:0|0:0,0:0:0:0:
256,164,62191,1,0,0:0:0:0:
256,164,62373,2,0,P|232:224|240:288,1,127.5,2|0,0:0|0:0,0:0:0:0:
268,324,63100,1,2,0:0:0:0:
436,64,63464,5,0,0:0:0:0:
512,132,63646,1,8,3:0:0:0:
416,160,63828,1,8,3:0:0:0:
340,96,64009,6,0,P|256:72|164:96,1,170,4|0,0:0|0:0,0:0:0:0:
112,172,64555,1,0,0:0:0:0:
92,272,64737,2,0,P|52:292|12:296,1,85,4|4,0:0|0:0,0:0:0:0:
188,312,65100,2,0,P|228:292|280:288,1,85,8|0,0:0|0:0,0:0:0:0:
368,312,65464,6,0,P|400:236|385:151,1,170,4|8,0:0|0:0,0:0:0:0:
324,68,66009,1,0,0:0:0:0:
224,92,66191,2,0,P|184:100|140:97,1,85,4|4,0:0|0:0,0:0:0:0:
44,208,66555,1,8,0:0:0:0:
108,288,66737,1,0,0:0:0:0:
44,208,66919,6,0,P|104:188|176:208,1,127.500004863739,4|0,0:0|0:0,0:0:0:0:
236,268,67464,1,4,0:0:0:0:
332,260,67646,2,0,P|356:200|344:128,1,127.500004863739,8|0,0:0|0:0,0:0:0:0:
296,60,68191,5,8,0:0:0:0:
208,96,68373,2,0,P|172:105|132:104,1,63.7500024318696,4|8,0:0|0:0,0:0:0:0:
60,64,68737,1,4,0:0:0:0:
60,64,68918,1,0,0:0:0:0:
112,192,69100,1,8,0:0:0:0:
112,192,69464,2,0,L|51:211,1,63.7500024318696,8|8,0:0|0:0,0:0:0:0:
144,320,69828,6,0,P|196:296|272:312,1,127.500004863739,4|8,0:0|0:0,0:0:0:0:
352,340,70373,1,4,0:0:0:0:
444,308,70555,2,0,P|480:260|480:194,1,127.500004863739,8|0,0:0|0:0,0:0:0:0:
368,92,71100,5,8,0:0:0:0:
368,92,71191,1,8,0:0:0:0:
368,92,71282,2,0,P|344:132|352:192,1,95.6250036478044,8|8,0:0|0:0,0:0:0:0:
388,256,71646,6,0,P|336:220|273:220,1,127.5,8|8,0:0|0:0,0:0:0:0:
196,280,72009,6,0,P|108:284|55:241,1,159.375,8|0,0:0|0:0,0:0:0:0:
12,156,72373,6,0,L|2:94,1,63.7500024318696,8|8,0:0|0:0,0:0:0:0:
90,30,72555,2,0,L|100:92,1,63.7500024318696,8|8,0:0|0:0,0:0:0:0:
184,160,72737,6,0,P|252:172|302:146,1,127.5,4|4,0:0|0:0,0:0:0:0:
348,88,73100,2,0,L|440:72,1,85,8|0,0:0|0:0,0:0:0:0:
400,224,73464,1,4,0:0:0:0:
236,80,73646,1,4,0:0:0:0:
168,264,73828,2,0,P|112:276|64:256,1,85,8|0,0:0|0:0,0:0:0:0:
32,100,74191,6,0,P|92:52|180:59,1,170,4|8,0:0|0:0,0:0:0:0:
256,128,74737,1,0,0:0:0:0:
256,128,74828,1,0,0:0:0:0:
256,128,74918,1,4,0:0:0:0:
160,168,75100,1,4,0:0:0:0:
352,168,75282,2,0,P|360:128|352:84,1,85,8|0,0:0|0:0,0:0:0:0:
160,168,75646,6,0,P|140:224|172:304,1,127.5,4|4,0:0|0:0,0:0:0:0:
216,332,76009,2,0,P|256:344|304:344,1,85,8|0,0:0|0:0,0:0:0:0:
440,264,76373,1,4,0:0:0:0:
368,192,76555,1,4,0:0:0:0:
428,112,76737,2,0,P|470:99|520:108,1,85,8|0,0:0|0:0,0:0:0:0:
440,264,77100,6,0,P|364:292|284:252,1,170,4|8,0:0|0:0,0:0:0:0:
244,164,77646,1,0,0:0:0:0:
140,296,77828,1,4,0:0:0:0:
56,236,78009,1,4,0:0:0:0:
156,112,78191,1,8,0:0:0:0:
228,260,78373,5,8,0:0:0:0:
228,260,78464,1,8,0:0:0:0:
228,260,78555,2,0,P|272:268|312:260,1,85,4|0,0:0|0:0,0:0:0:0:
404,216,78918,1,8,0:0:0:0:
360,64,79100,2,0,P|316:56|276:64,1,85,4|0,0:0|0:0,0:0:0:0:
208,192,79464,1,4,0:0:0:0:
277,64,79646,1,8,0:0:0:0:
404,216,79828,6,0,P|448:224|488:216,1,85,0|4,0:0|0:0,0:0:0:0:
432,128,80191,1,0,0:0:0:0:
272,288,80373,1,8,0:0:0:0:
228,124,80555,2,0,L|220:40,1,85,0|4,0:0|0:0,0:0:0:0:
192,260,80918,1,4,0:0:0:0:
72,196,81100,1,8,0:0:0:0:
192,260,81282,1,0,0:0:0:0:
324,112,81464,6,0,P|264:56|176:52,1,170,4|8,0:0|0:0,0:0:0:0:
88,92,82009,1,0,0:0:0:0:
72,196,82191,1,4,0:0:0:0:
72,196,82282,1,8,0:0:0:0:
72,196,82373,1,4,0:0:0:0:
56,300,82555,1,8,0:0:0:0:
88,92,82737,1,0,0:0:0:0:
152,264,82918,6,0,P|204:296|280:288,1,127.5,4|4,0:0|0:0,0:0:0:0:
332,256,83282,2,0,P|384:244|428:256,1,85,8|4,0:0|0:0,0:0:0:0:
440,132,83646,1,8,0:0:0:0:
440,132,83737,1,8,0:0:0:0:
440,132,83828,1,0,0:0:0:0:
440,132,83918,1,8,0:0:0:0:
440,132,84009,2,0,P|380:152|320:136,1,127.5,8|8,0:0|0:0,0:0:0:0:
272,80,84373,5,4,0:0:0:0:
248,212,84555,1,4,0:0:0:0:
248,212,84646,1,0,0:0:0:0:
248,212,84737,1,8,0:0:0:0:
320,136,84918,1,0,0:0:0:0:
148,168,85100,2,0,P|140:212|146:251,1,85,4|4,0:0|0:0,0:0:0:0:
348,312,85464,2,0,P|356:268|349:228,1,85,8|0,0:0|0:0,0:0:0:0:
272,80,85828,6,0,P|204:44|116:62,1,170,4|8,0:0|0:0,0:0:0:0:
88,256,86373,1,0,0:0:0:0:
88,256,86464,1,0,0:0:0:0:
88,256,86555,1,4,0:0:0:0:
148,168,86737,1,4,0:0:0:0:
208,316,86918,2,0,L|312:304,1,85,8|0,0:0|0:0,0:0:0:0:
464,176,87282,6,0,P|408:156|342:168,1,127.5,4|4,0:0|0:0,0:0:0:0:
284,216,87646,2,0,L|196:200,1,85,8|0,0:0|0:0,0:0:0:0:
152,68,88009,1,4,0:0:0:0:
152,68,88191,1,4,0:0:0:0:
200,200,88373,2,0,P|204:248|194:283,1,85,8|0,0:0|0:0,0:0:0:0:
108,340,88737,6,0,P|192:316|269:336,1,170,4|8,0:0|0:0,0:0:0:0:
372,352,89282,1,0,0:0:0:0:
444,280,89464,1,4,0:0:0:0:
444,280,89555,1,8,0:0:0:0:
444,280,89646,1,4,0:0:0:0:
444,176,89828,2,0,P|380:168|332:148,1,85,8|0,0:0|0:0,0:0:0:0:
208,56,90191,6,0,P|168:56|124:67,1,85,4|0,0:0|0:0,0:0:0:0:
44,128,90555,1,8,0:0:0:0:
84,220,90737,2,0,P|100:260|100:304,1,85,0|8,0:0|0:0,0:0:0:0:
188,352,91100,2,0,P|228:340|270:340,1,85,0|8,0:0|0:0,0:0:0:0:
360,272,91464,1,0,0:0:0:0:
460,332,91646,6,0,P|472:236|408:168,1,170,8|8,0:0|0:0,0:0:0:0:
356,108,92191,2,0,P|308:108|252:128,1,85,0|8,0:0|0:0,0:0:0:0:
208,280,92555,2,0,P|256:280|291:270,2,85,0|8|0,0:0|0:0|0:0,0:0:0:0:
72,236,93100,5,4,0:0:0:0:
100,96,93282,1,4,0:0:0:0:
208,280,93464,2,0,P|276:304|359:263,1,170,8|4,0:0|0:0,0:0:0:0:
404,68,94009,2,0,P|356:64|304:76,1,85,4|8,0:0|0:0,0:0:0:0:
204,175,94373,2,0,P|240:179|287:168,1,85,4|0,0:0|0:0,0:0:0:0:
328,80,94737,5,0,0:0:0:0:
328,80,94828,1,8,3:0:0:0:
328,80,94918,1,8,3:0:0:0:
192,196,95100,1,0,0:0:0:0:
192,196,95191,1,8,3:0:0:0:
192,196,95282,1,8,3:0:0:0:
357,245,95464,1,8,0:0:0:0:
288,169,95646,1,8,0:0:0:0:
288,169,95828,1,0,0:0:0:0:
296,328,96009,6,0,P|360:348|415:329,1,127.500004863739,4|0,0:0|0:0,0:0:0:0:
472,248,96555,1,4,0:0:0:0:
440,156,96737,2,0,P|376:136|321:155,1,127.500004863739,4|0,0:0|0:0,0:0:0:0:
244,212,97282,1,0,0:0:0:0:
156,176,97464,6,0,L|141:113,1,63.7500024318696,4|0,0:0|0:0,0:0:0:0:
68,212,97828,2,0,L|82:274,1,63.7500024318696,4|0,0:0|0:0,0:0:0:0:
156,336,98191,2,0,P|212:312|277:317,1,127.500004863739,8|0,0:0|0:0,0:0:0:0:
368,348,98737,1,0,0:0:0:0:
348,256,98918,6,0,P|324:200|336:120,1,127.500004863739,4|0,0:0|0:0,0:0:0:0:
408,80,99464,1,4,0:0:0:0:
416,176,99646,2,0,P|360:200|280:188,1,127.500004863739,4|0,0:0|0:0,0:0:0:0:
212,148,100191,1,0,0:0:0:0:
212,148,100373,1,4,0:0:0:0:
116,312,100737,6,0,P|172:336|252:324,1,127.500004863739,4|8,0:0|0:0,0:0:0:0:
324,296,101282,2,0,P|359:294|396:308,2,63.7500024318696,4|0|4,0:0|0:0|0:0,0:0:0:0:
137,131,101828,5,4,0:0:0:0:
236,149,102009,1,0,0:0:0:0:
171,227,102191,1,0,0:0:0:0:
202,53,102373,1,0,0:0:0:0:
270,245,102555,1,0,0:0:0:0:
304,72,102737,1,0,0:0:0:0:
171,227,102918,1,0,0:0:0:0:
436,192,103100,1,4,0:0:0:0:
436,192,103646,6,0,P|472:184|496:168,2,63.7500024318696,8|0|8,0:0|0:0|0:0,0:0:0:0:
340,180,104191,1,0,0:0:0:0:
340,180,104282,1,8,0:0:0:0:
340,180,104373,2,0,P|296:164|247:164,1,95.6250036478044,8|8,0:0|0:0,0:0:0:0:
212,184,104737,5,4,0:0:0:0:
112,160,104918,2,0,P|98:118|99:77,2,85,4|0|4,0:0|0:0|0:0,0:0:0:0:
144,256,105464,2,0,P|224:284|306:271,1,170,8|4,0:0|0:0,0:0:0:0:
464,160,106009,6,0,P|384:132|301:144,1,170,4|4,0:0|0:0,0:0:0:0:
204,180,106555,1,8,0:0:0:0:
108,144,106737,2,0,P|92:104|96:48,2,85,0|0|4,0:0|0:0|0:0,0:0:0:0:
120,316,107282,1,8,0:0:0:0:
120,316,107373,1,8,0:0:0:0:
120,316,107464,1,8,0:0:0:0:
120,316,107555,1,8,0:0:0:0:
120,316,107646,1,4,0:0:0:0:
204,256,107828,6,0,P|284:224|368:241,1,170,4|4,0:0|0:0,0:0:0:0:
460,276,108373,2,0,P|480:236|484:196,1,85,8|0,0:0|0:0,0:0:0:0:
444,100,108737,1,4,0:0:0:0:
344,112,108918,6,0,P|264:80|172:92,1,170,8|8,0:0|0:0,0:0:0:0:
80,88,109464,1,0,0:0:0:0:
80,88,109555,1,0,0:0:0:0:
80,88,109646,2,0,P|104:124|111:164,1,85,8|0,0:0|0:0,0:0:0:0:
36,232,110009,1,0,0:0:0:0:
104,308,110191,1,0,0:0:0:0:
104,308,110282,1,8,0:0:0:0:
104,308,110373,1,8,0:0:0:0:
104,308,110464,1,8,0:0:0:0:
104,308,110555,6,0,P|144:328|188:332,1,85,4|4,0:0|0:0,0:0:0:0:
319,268,110918,2,0,P|279:248|240:244,1,85,0|4,0:0|0:0,0:0:0:0:
368,356,111282,2,0,P|412:308|392:200,1,170,8|4,0:0|0:0,0:0:0:0:
332,132,111828,6,0,P|292:144|249:147,1,85,4|0,0:0|0:0,0:0:0:0:
160,100,112191,1,4,0:0:0:0:
80,160,112373,1,8,0:0:0:0:
120,256,112555,2,0,P|136:300|136:337,1,85
236,368,112918,1,0,0:0:0:0:
316,304,113100,1,8,0:0:0:0:
316,304,113191,1,8,0:0:0:0:
316,304,113282,1,8,0:0:0:0:
316,304,113373,1,8,0:0:0:0:
316,304,113464,1,4,0:0:0:0:
416,332,113646,6,0,P|448:256|431:172,1,170,4|4,0:0|0:0,0:0:0:0:
332,44,114191,2,0,P|300:120|316:203,1,170,8|4,0:0|0:0,0:0:0:0:
316,304,114737,6,0,P|236:328|132:296,1,170,8|8,0:0|0:0,0:0:0:0:
52,172,115282,1,0,0:0:0:0:
52,172,115373,1,0,0:0:0:0:
52,172,115464,2,0,P|132:148|236:180,1,170,8|0,0:0|0:0,0:0:0:0:
300,224,116009,1,8,0:0:0:0:
300,224,116100,1,8,0:0:0:0:
300,224,116191,1,8,0:0:0:0:
300,224,116282,1,8,0:0:0:0:
300,224,116373,1,4,0:0:0:0:
256,192,116464,12,0,119373,0:0:0:0:
