osu file format v12

[General]
AudioFilename: 03 Come With Me!! (Ritsu Ver.).mp3
AudioLeadIn: 0
PreviewTime: 10020
Countdown: 0
SampleSet: Normal
StackLeniency: 0.7
Mode: 0
LetterboxInBreaks: 1
WidescreenStoryboard: 0

[Editor]
DistanceSpacing: 0.5
BeatDivisor: 4
GridSize: 8

[Metadata]
Title:Come With Me!! (Ritsu Ver.)
TitleUnicode:Come With Me!! (Ritsu Ver.)
Artist:Satou Satomi
ArtistUnicode:Satou Satomi
Creator:alvicala
Version:Insane
Source:K-ON!!
Tags:htt hokago tea time
BeatmapID:323196
BeatmapSetID:127376

[Difficulty]
HPDrainRate:6
CircleSize:4
OverallDifficulty:7
ApproachRate:9
SliderMultiplier:1.8
SliderTickRate:1

[Events]
//Background and Video events
0,0,"K-ON!_CISS_Volume_3_Ritsu.jpg",0,0
//Break Periods
2,33820,39420
2,83820,87820
//Storyboard Layer 0 (Background)
//Storyboard Layer 1 (Fail)
//Storyboard Layer 2 (Pass)
//Storyboard Layer 3 (Foreground)
//Storyboard Sound Samples
//Background Colour Transformations
3,100,163,162,255

[TimingPoints]
420,400,4,1,0,80,1,0
19620,-100,4,1,0,80,0,1
32420,-100,4,1,0,80,0,0
70820,-100,4,1,0,80,0,1
83620,-100,4,1,0,80,0,0
118820,-100,4,1,0,80,0,1
131620,-100,4,1,0,80,0,0
150820,-100,4,1,0,80,0,1
163620,-100,4,1,0,80,0,0
192420,-100,4,1,0,80,0,1
208420,-100,4,1,0,80,0,0

[HitObjects]
136,208,420,1,0,0:0:0:0:
72,264,620,1,0,0:0:0:0:
72,264,720,1,0,0:0:0:0:
72,264,820,2,0,P|128:296|176:264,1,90
176,296,1120,1,0,0:0:0:0:
208,304,1220,1,0,0:0:0:0:
320,280,1420,5,0,0:0:0:0:
320,280,1520,1,0,0:0:0:0:
320,280,1620,2,0,P|288:232|320:208,1,90
296,184,1920,1,0,0:0:0:0:
280,152,2020,1,0,0:0:0:0:
184,96,2220,6,0,P|128:128|112:136,1,45
104,120,2420,1,0,0:0:0:0:
224,200,2620,1,0,0:0:0:0:
224,200,2720,1,0,0:0:0:0:
224,200,2820,1,0,0:0:0:0:
328,72,3020,1,0,0:0:0:0:
408,208,3220,1,0,0:0:0:0:
328,72,3420,1,0,0:0:0:0:
328,240,3620,6,0,L|352:288|360:304,1,45
352,320,3820,1,0,0:0:0:0:
256,320,4020,1,0,0:0:0:0:
152,192,4220,1,0,0:0:0:0:
152,192,4320,1,0,0:0:0:0:
152,192,4420,1,0,0:0:0:0:
72,296,4620,2,0,L|136:296,2,45
168,296,5020,1,0,0:0:0:0:
256,88,5220,5,0,0:0:0:0:
256,88,5320,1,0,0:0:0:0:
256,88,5420,1,0,0:0:0:0:
360,64,5620,1,0,0:0:0:0:
424,128,5820,1,0,0:0:0:0:
392,208,6020,1,0,0:0:0:0:
352,288,6220,1,0,0:0:0:0:
264,240,6420,1,0,0:0:0:0:
264,240,6520,1,0,0:0:0:0:
264,240,6620,1,0,0:0:0:0:
136,104,6820,6,0,L|88:144,1,45
96,176,7020,1,0,0:0:0:0:
96,176,7220,1,0,0:0:0:0:
160,296,7420,2,0,L|184:248,2,45
288,112,7820,1,0,0:0:0:0:
288,112,7920,1,0,0:0:0:0:
288,112,8020,1,0,0:0:0:0:
384,232,8220,1,0,0:0:0:0:
272,296,8420,5,0,0:0:0:0:
272,296,8520,1,0,0:0:0:0:
272,296,8620,1,0,0:0:0:0:
192,192,8820,1,0,0:0:0:0:
96,272,9020,1,0,0:0:0:0:
136,136,9220,2,0,P|120:88|88:64,1,90
56,96,9520,1,0,0:0:0:0:
64,144,9620,2,0,P|112:192|160:168,1,90
320,104,10020,5,0,0:0:0:0:
344,80,10120,1,0,0:0:0:0:
368,56,10220,1,0,0:0:0:0:
384,176,10420,1,0,0:0:0:0:
456,232,10620,1,0,0:0:0:0:
376,304,10820,6,0,L|328:288,1,45
296,312,11020,1,0,0:0:0:0:
208,216,11220,1,0,0:0:0:0:
136,304,11420,1,0,0:0:0:0:
208,64,11620,5,0,0:0:0:0:
208,64,11720,1,0,0:0:0:0:
208,64,11820,1,0,0:0:0:0:
368,112,12020,2,0,L|320:144,1,45
296,160,12220,1,0,0:0:0:0:
168,152,12420,2,0,L|216:192,2,45
368,240,12820,5,0,0:0:0:0:
344,272,12920,1,0,0:0:0:0:
312,296,13020,1,0,0:0:0:0:
280,312,13120,1,0,0:0:0:0:
248,320,13220,2,0,P|192:320|168:296,1,90
216,128,13620,5,0,0:0:0:0:
216,128,13720,1,0,0:0:0:0:
216,128,13820,2,0,P|160:96|104:96,1,90
328,88,14220,2,0,L|368:128,1,45
368,160,14420,1,0,0:0:0:0:
440,232,14620,1,0,0:0:0:0:
368,296,14820,5,0,0:0:0:0:
328,312,14920,1,0,0:0:0:0:
288,312,15020,2,0,P|232:296|192:288,1,90
88,184,15420,5,0,0:0:0:0:
88,184,15520,1,0,0:0:0:0:
88,184,15620,1,0,0:0:0:0:
136,80,15820,1,0,0:0:0:0:
208,160,16020,2,0,L|256:192,1,45
248,232,16220,1,0,0:0:0:0:
368,152,16420,2,0,P|400:192|392:240,1,90
384,256,16720,2,0,L|344:288,1,45
96,304,17020,5,0,0:0:0:0:
120,272,17120,1,0,0:0:0:0:
144,240,17220,1,0,0:0:0:0:
176,264,17320,1,0,0:0:0:0:
208,288,17420,1,0,0:0:0:0:
304,216,17620,1,0,0:0:0:0:
184,80,17820,6,0,L|120:96,1,45
120,128,18020,1,0,0:0:0:0:
272,80,18220,1,0,0:0:0:0:
272,80,18320,1,0,0:0:0:0:
272,80,18420,1,0,0:0:0:0:
384,152,18620,1,0,0:0:0:0:
416,160,18720,1,0,0:0:0:0:
448,176,18820,1,0,0:0:0:0:
376,256,19020,5,0,0:0:0:0:
184,320,19220,1,0,0:0:0:0:
128,96,19620,6,0,P|88:160|96:208,1,90
144,240,20020,1,0,0:0:0:0:
224,176,20220,1,0,0:0:0:0:
320,160,20420,1,0,0:0:0:0:
416,184,20620,1,0,0:0:0:0:
448,128,20820,5,0,0:0:0:0:
416,104,20920,1,0,0:0:0:0:
384,88,21020,1,0,0:0:0:0:
344,72,21120,1,0,0:0:0:0:
304,64,21220,2,0,P|280:112|296:176,1,90
184,128,21620,1,0,0:0:0:0:
112,88,21820,1,0,0:0:0:0:
56,152,22020,1,0,0:0:0:0:
64,232,22220,1,0,0:0:0:0:
144,272,22420,6,0,L|184:312,1,45
224,320,22620,1,0,0:0:0:0:
288,248,22820,1,0,0:0:0:0:
360,320,23020,2,0,L|400:280,1,45
416,248,23220,1,0,0:0:0:0:
392,136,23420,1,0,0:0:0:0:
392,136,23520,1,0,0:0:0:0:
392,136,23620,1,0,0:0:0:0:
200,72,23820,5,0,0:0:0:0:
288,144,24020,1,0,0:0:0:0:
360,64,24220,1,0,0:0:0:0:
200,160,24420,5,0,0:0:0:0:
160,152,24520,1,0,0:0:0:0:
120,152,24620,1,0,0:0:0:0:
88,168,24720,1,0,0:0:0:0:
56,200,24820,1,0,0:0:0:0:
104,288,25020,1,0,0:0:0:0:
216,304,25220,5,0,0:0:0:0:
304,104,25420,1,0,0:0:0:0:
360,256,25620,1,0,0:0:0:0:
328,240,25720,1,0,0:0:0:0:
296,216,25820,1,0,0:0:0:0:
272,192,25920,1,0,0:0:0:0:
256,160,26020,1,0,0:0:0:0:
352,64,26220,6,0,L|384:104,1,45
400,136,26420,1,0,0:0:0:0:
432,256,26620,1,0,0:0:0:0:
432,256,26720,1,0,0:0:0:0:
432,256,26820,1,0,0:0:0:0:
352,320,27020,1,0,0:0:0:0:
264,344,27220,1,0,0:0:0:0:
200,280,27420,1,0,0:0:0:0:
136,160,27620,6,0,L|104:200,1,45
64,208,27820,1,0,0:0:0:0:
88,288,28020,1,0,0:0:0:0:
216,72,28220,1,0,0:0:0:0:
216,72,28320,1,0,0:0:0:0:
216,72,28420,1,0,0:0:0:0:
136,120,28620,1,0,0:0:0:0:
160,200,28820,1,0,0:0:0:0:
224,304,29020,6,0,L|280:320,1,45
304,304,29220,1,0,0:0:0:0:
296,184,29420,1,0,0:0:0:0:
304,152,29520,1,0,0:0:0:0:
304,112,29620,1,0,0:0:0:0:
368,56,29820,1,0,0:0:0:0:
432,112,30020,2,0,L|448:160,1,45
440,200,30220,1,0,0:0:0:0:
408,312,30420,2,0,L|368:280,2,45
168,288,30820,5,0,0:0:0:0:
136,264,30920,1,0,0:0:0:0:
112,232,31020,1,0,0:0:0:0:
104,200,31120,1,0,0:0:0:0:
112,160,31220,2,0,P|160:144|216:160,1,90
256,72,31620,5,0,0:0:0:0:
352,104,31820,1,0,0:0:0:0:
400,192,32020,1,0,0:0:0:0:
376,224,32120,1,0,0:0:0:0:
344,240,32220,1,0,0:0:0:0:
304,240,32320,1,0,0:0:0:0:
272,224,32420,1,0,0:0:0:0:
256,192,32620,12,0,33620,0:0:0:0:
136,80,40020,5,0,0:0:0:0:
168,64,40120,1,0,0:0:0:0:
208,56,40220,1,0,0:0:0:0:
248,64,40320,1,0,0:0:0:0:
280,88,40420,1,0,0:0:0:0:
304,112,40520,5,0,0:0:0:0:
320,144,40620,1,0,0:0:0:0:
328,176,40720,1,0,0:0:0:0:
320,208,40820,1,0,0:0:0:0:
304,240,40920,1,0,0:0:0:0:
280,264,41020,5,0,0:0:0:0:
248,280,41120,1,0,0:0:0:0:
216,288,41220,2,0,P|168:272|144:232,1,90
400,216,41620,1,0,0:0:0:0:
392,88,42020,6,0,P|328:72|296:80,1,90
328,176,42420,1,0,0:0:0:0:
240,112,42620,1,0,0:0:0:0:
120,152,42820,1,0,0:0:0:0:
128,192,42920,1,0,0:0:0:0:
152,216,43020,1,0,0:0:0:0:
272,280,43220,2,0,P|208:304|168:296,1,90
400,280,43620,5,0,0:0:0:0:
264,168,43820,1,0,0:0:0:0:
400,88,44020,2,0,P|440:144|424:192,1,90
368,240,44420,1,0,0:0:0:0:
320,240,44520,1,0,0:0:0:0:
280,256,44620,1,0,0:0:0:0:
256,280,44720,1,0,0:0:0:0:
248,320,44820,2,0,P|200:296|168:328,1,90
80,112,45220,5,0,0:0:0:0:
144,176,45420,1,0,0:0:0:0:
200,104,45620,1,0,0:0:0:0:
56,216,45820,2,0,P|96:248|152:256,2,90
320,104,46420,6,0,L|368:128,1,45
384,160,46620,1,0,0:0:0:0:
328,272,46820,1,0,0:0:0:0:
328,272,46920,1,0,0:0:0:0:
328,272,47020,1,0,0:0:0:0:
256,200,47220,1,0,0:0:0:0:
296,344,47420,1,0,0:0:0:0:
152,96,47620,5,0,0:0:0:0:
128,128,47720,1,0,0:0:0:0:
144,160,47820,1,0,0:0:0:0:
128,192,47920,1,0,0:0:0:0:
152,224,48020,2,0,P|112:248|72:224,1,90
224,272,48420,6,0,L|192:304,1,45
160,320,48620,1,0,0:0:0:0:
160,320,48820,1,0,0:0:0:0:
320,200,49020,1,0,0:0:0:0:
320,200,49120,1,0,0:0:0:0:
320,200,49220,2,0,P|368:256|360:304,1,90
360,304,49520,1,0,0:0:0:0:
328,320,49620,1,0,0:0:0:0:
400,160,49820,5,0,0:0:0:0:
424,136,49920,1,0,0:0:0:0:
424,96,50020,1,0,0:0:0:0:
288,80,50220,2,0,P|240:88|224:88,2,45
128,88,50620,1,0,0:0:0:0:
128,88,50720,1,0,0:0:0:0:
128,88,50820,1,0,0:0:0:0:
64,176,51020,1,0,0:0:0:0:
136,264,51220,1,0,0:0:0:0:
64,176,51420,1,0,0:0:0:0:
328,88,51620,6,0,L|360:136,1,45
328,168,51820,1,0,0:0:0:0:
432,64,52020,1,0,0:0:0:0:
440,184,52220,2,0,L|416:232,2,45
336,288,52620,5,0,0:0:0:0:
304,272,52720,1,0,0:0:0:0:
272,272,52820,1,0,0:0:0:0:
200,280,53020,1,0,0:0:0:0:
176,256,53120,1,0,0:0:0:0:
168,224,53220,1,0,0:0:0:0:
192,64,53420,5,0,0:0:0:0:
256,144,53620,2,0,P|216:176|160:152,1,90
152,160,53920,1,0,0:0:0:0:
112,160,54020,1,0,0:0:0:0:
296,224,54220,5,0,0:0:0:0:
264,256,54320,1,0,0:0:0:0:
224,264,54420,1,0,0:0:0:0:
184,256,54520,1,0,0:0:0:0:
144,232,54620,1,0,0:0:0:0:
120,200,54720,1,0,0:0:0:0:
112,160,54820,1,0,0:0:0:0:
320,80,55220,6,0,P|352:120|360:184,1,90
368,240,55620,1,0,0:0:0:0:
240,192,56020,1,0,0:0:0:0:
240,192,56220,1,0,0:0:0:0:
112,112,56620,5,0,0:0:0:0:
88,136,56720,1,0,0:0:0:0:
72,168,56820,1,0,0:0:0:0:
80,232,57020,2,0,P|112:280|144:288,1,90
168,264,57420,2,0,P|128:296|64:304,2,90
304,104,58020,5,0,0:0:0:0:
384,80,58220,1,0,0:0:0:0:
392,160,58420,1,0,0:0:0:0:
336,88,58620,5,0,0:0:0:0:
416,64,58820,1,0,0:0:0:0:
424,144,59020,1,0,0:0:0:0:
432,240,59220,2,0,P|384:256|312:248,1,90
312,216,59620,2,0,P|304:272|264:312,1,90
168,256,60220,5,0,0:0:0:0:
168,256,60320,1,0,0:0:0:0:
168,256,60420,1,0,0:0:0:0:
96,296,60620,1,0,0:0:0:0:
72,216,60820,1,0,0:0:0:0:
88,136,61020,1,0,0:0:0:0:
144,80,61220,1,0,0:0:0:0:
128,256,61620,6,0,P|168:296|240:288,2,90
256,224,62220,1,0,0:0:0:0:
336,192,62420,1,0,0:0:0:0:
400,248,62620,1,0,0:0:0:0:
312,128,63020,6,0,P|264:96|272:48,1,90
392,192,63420,1,0,0:0:0:0:
304,224,63620,1,0,0:0:0:0:
304,224,63720,1,0,0:0:0:0:
304,224,63820,1,0,0:0:0:0:
216,192,64020,1,0,0:0:0:0:
136,232,64220,1,0,0:0:0:0:
80,120,64420,5,0,0:0:0:0:
216,80,64620,1,0,0:0:0:0:
80,120,64820,1,0,0:0:0:0:
224,272,65020,5,0,0:0:0:0:
224,272,65120,1,0,0:0:0:0:
224,272,65220,1,0,0:0:0:0:
128,296,65420,2,0,P|160:328|224:352,1,90
304,328,65820,1,0,0:0:0:0:
400,256,66020,5,0,0:0:0:0:
440,136,66220,1,0,0:0:0:0:
400,256,66420,1,0,0:0:0:0:
312,88,66620,6,0,L|256:112,1,45
240,120,66820,1,0,0:0:0:0:
128,88,67020,1,0,0:0:0:0:
128,88,67120,1,0,0:0:0:0:
128,88,67220,1,0,0:0:0:0:
80,192,67420,1,0,0:0:0:0:
200,248,67620,5,0,0:0:0:0:
72,320,67820,1,0,0:0:0:0:
200,248,68020,1,0,0:0:0:0:
320,216,68220,5,0,0:0:0:0:
336,248,68320,1,0,0:0:0:0:
352,280,68420,1,0,0:0:0:0:
432,200,68620,2,0,L|432:152,1,45
432,128,68820,1,0,0:0:0:0:
328,72,69020,2,0,L|288:96,2,45
184,88,69420,5,0,0:0:0:0:
152,72,69520,1,0,0:0:0:0:
112,72,69620,1,0,0:0:0:0:
64,120,69820,1,0,0:0:0:0:
64,152,69920,1,0,0:0:0:0:
64,184,70020,1,0,0:0:0:0:
208,224,70220,5,0,0:0:0:0:
368,120,70420,1,0,0:0:0:0:
416,288,70820,6,0,P|368:264|336:288,1,90
280,320,71220,1,0,0:0:0:0:
256,224,71420,1,0,0:0:0:0:
184,288,71620,1,0,0:0:0:0:
112,224,71820,1,0,0:0:0:0:
96,320,72020,5,0,0:0:0:0:
128,296,72120,1,0,0:0:0:0:
152,264,72220,1,0,0:0:0:0:
168,232,72320,1,0,0:0:0:0:
184,200,72420,2,0,P|136:208|104:176,1,90
232,96,72820,5,0,0:0:0:0:
272,192,73020,1,0,0:0:0:0:
376,216,73220,2,0,L|344:256,1,45
328,280,73420,1,0,0:0:0:0:
432,320,73620,1,0,0:0:0:0:
328,328,73820,1,0,0:0:0:0:
424,272,74020,5,0,0:0:0:0:
440,240,74120,1,0,0:0:0:0:
448,200,74220,1,0,0:0:0:0:
432,160,74320,1,0,0:0:0:0:
400,136,74420,1,0,0:0:0:0:
296,72,74620,1,0,0:0:0:0:
120,144,74820,5,0,0:0:0:0:
120,144,74920,1,0,0:0:0:0:
120,144,75020,1,0,0:0:0:0:
192,208,75220,1,0,0:0:0:0:
72,264,75420,1,0,0:0:0:0:
152,168,75620,5,0,0:0:0:0:
176,144,75720,1,0,0:0:0:0:
192,104,75820,1,0,0:0:0:0:
192,72,75920,1,0,0:0:0:0:
176,40,76020,2,0,P|240:40|264:64,1,90
344,104,76420,5,0,0:0:0:0:
352,144,76520,1,0,0:0:0:0:
368,176,76620,1,0,0:0:0:0:
400,208,76720,1,0,0:0:0:0:
432,224,76820,2,0,P|384:240|344:232,1,90
312,216,77120,1,0,0:0:0:0:
280,192,77220,1,0,0:0:0:0:
208,304,77420,5,0,0:0:0:0:
208,304,77520,1,0,0:0:0:0:
208,304,77620,1,0,0:0:0:0:
120,240,77820,2,0,L|96:280,1,45
80,304,78020,1,0,0:0:0:0:
104,88,78220,5,0,0:0:0:0:
192,160,78420,1,0,0:0:0:0:
256,80,78620,1,0,0:0:0:0:
304,152,78820,2,0,P|272:216|240:240,1,90
240,256,79120,2,0,L|296:256,1,45
400,256,79420,5,0,0:0:0:0:
416,224,79520,1,0,0:0:0:0:
432,192,79620,1,0,0:0:0:0:
360,88,79820,1,0,0:0:0:0:
232,184,80020,1,0,0:0:0:0:
192,64,80220,6,0,L|144:64,1,45
112,64,80420,1,0,0:0:0:0:
56,152,80620,1,0,0:0:0:0:
96,320,80820,5,0,0:0:0:0:
128,320,80920,1,0,0:0:0:0:
160,320,81020,1,0,0:0:0:0:
152,240,81220,5,0,0:0:0:0:
192,240,81320,1,0,0:0:0:0:
232,240,81420,1,0,0:0:0:0:
208,152,81620,5,0,0:0:0:0:
256,152,81720,1,0,0:0:0:0:
304,152,81820,1,0,0:0:0:0:
392,72,82020,5,0,0:0:0:0:
416,104,82120,1,0,0:0:0:0:
424,144,82220,1,0,0:0:0:0:
416,176,82320,1,0,0:0:0:0:
392,200,82420,1,0,0:0:0:0:
464,256,82620,1,0,0:0:0:0:
368,296,82820,2,0,P|320:304|280:288,1,90
216,240,83220,5,0,0:0:0:0:
192,216,83320,1,0,0:0:0:0:
152,208,83420,1,0,0:0:0:0:
120,224,83520,1,0,0:0:0:0:
96,248,83620,1,0,0:0:0:0:
376,120,88420,5,0,0:0:0:0:
344,104,88520,1,0,0:0:0:0:
304,96,88620,1,0,0:0:0:0:
264,112,88720,1,0,0:0:0:0:
240,136,88820,1,0,0:0:0:0:
256,168,88920,1,0,0:0:0:0:
272,200,89020,1,0,0:0:0:0:
288,232,89120,1,0,0:0:0:0:
296,264,89220,1,0,0:0:0:0:
112,136,89420,5,0,0:0:0:0:
112,136,89620,1,0,0:0:0:0:
112,136,89820,1,0,0:0:0:0:
64,224,90020,6,0,P|96:272|152:272,1,90
184,216,90420,1,0,0:0:0:0:
216,336,90620,1,0,0:0:0:0:
344,304,90820,2,0,P|408:336|456:312,1,90
456,208,91220,6,0,P|400:216|360:208,1,90
304,136,91620,1,0,0:0:0:0:
304,136,91720,1,0,0:0:0:0:
304,136,91820,1,0,0:0:0:0:
208,72,92020,2,0,P|144:72|96:88,1,90
104,192,92420,6,0,L|64:216,1,45
40,232,92620,1,0,0:0:0:0:
104,312,92820,2,0,L|152:272,1,45
160,264,93020,1,0,0:0:0:0:
416,248,93220,5,0,0:0:0:0:
416,248,93320,1,0,0:0:0:0:
416,248,93420,2,0,P|360:288|320:280,1,90
296,208,93820,1,0,0:0:0:0:
216,248,94020,2,0,L|184:200,1,45
176,184,94220,1,0,0:0:0:0:
248,80,94420,5,0,0:0:0:0:
216,64,94520,1,0,0:0:0:0:
176,64,94620,1,0,0:0:0:0:
104,128,94820,2,0,P|128:176|248:168,1,180
400,144,95620,5,0,0:0:0:0:
336,224,95820,1,0,0:0:0:0:
424,296,96020,1,0,0:0:0:0:
392,320,96120,1,0,0:0:0:0:
352,328,96220,1,0,0:0:0:0:
320,312,96320,1,0,0:0:0:0:
296,288,96420,1,0,0:0:0:0:
192,280,96620,6,0,L|224:336,2,45
80,256,97020,1,0,0:0:0:0:
88,224,97120,1,0,0:0:0:0:
104,192,97220,1,0,0:0:0:0:
168,96,97420,1,0,0:0:0:0:
168,96,97620,1,0,0:0:0:0:
288,64,97820,6,0,L|336:64,1,45
368,64,98020,1,0,0:0:0:0:
424,160,98220,1,0,0:0:0:0:
400,192,98320,1,0,0:0:0:0:
376,224,98420,1,0,0:0:0:0:
280,192,98620,5,0,0:0:0:0:
192,272,98820,1,0,0:0:0:0:
320,304,99020,1,0,0:0:0:0:
216,328,99220,2,0,P|168:312|120:328,1,90
96,304,99520,1,0,0:0:0:0:
64,280,99620,1,0,0:0:0:0:
112,144,99820,5,0,0:0:0:0:
112,144,99920,1,0,0:0:0:0:
112,144,100020,1,0,0:0:0:0:
216,112,100220,1,0,0:0:0:0:
224,224,100420,2,0,L|272:240,1,45
304,248,100620,1,0,0:0:0:0:
360,312,100820,1,0,0:0:0:0:
440,232,101020,6,0,P|416:152|320:112,1,180
304,104,101520,1,0,0:0:0:0:
272,104,101620,1,0,0:0:0:0:
176,64,101820,1,0,0:0:0:0:
80,120,102020,1,0,0:0:0:0:
80,120,102120,1,0,0:0:0:0:
80,120,102220,1,0,0:0:0:0:
176,176,102420,5,0,0:0:0:0:
160,208,102520,1,0,0:0:0:0:
136,232,102620,1,0,0:0:0:0:
104,240,102720,1,0,0:0:0:0:
72,232,102820,1,0,0:0:0:0:
264,288,103220,6,0,P|240:240|280:192,1,90
312,160,103620,1,0,0:0:0:0:
448,208,104020,2,0,P|416:240|360:208,1,90
328,240,104620,1,0,0:0:0:0:
376,312,104820,1,0,0:0:0:0:
304,352,105020,1,0,0:0:0:0:
232,304,105220,2,0,P|176:256|136:248,2,90
192,136,105820,5,0,0:0:0:0:
192,136,105920,1,0,0:0:0:0:
192,136,106020,1,0,0:0:0:0:
80,160,106220,1,0,0:0:0:0:
120,240,106420,2,0,P|168:224|216:248,1,90
80,160,106820,1,0,0:0:0:0:
160,320,107020,1,0,0:0:0:0:
160,320,107220,2,0,P|208:304|256:328,2,90
432,168,107820,5,0,0:0:0:0:
432,168,107920,1,0,0:0:0:0:
432,168,108020,1,0,0:0:0:0:
456,88,108220,1,0,0:0:0:0:
376,64,108420,1,0,0:0:0:0:
296,72,108620,1,0,0:0:0:0:
232,120,108820,1,0,0:0:0:0:
200,192,109020,1,0,0:0:0:0:
216,264,109220,1,0,0:0:0:0:
352,184,109620,6,0,P|400:192|424:232,1,90
448,288,110020,1,0,0:0:0:0:
328,328,110220,2,0,P|280:336|248:312,1,90
216,264,110620,1,0,0:0:0:0:
64,112,111020,1,0,0:0:0:0:
152,56,111220,1,0,0:0:0:0:
136,248,111420,5,0,0:0:0:0:
56,168,111620,1,0,0:0:0:0:
144,112,111820,1,0,0:0:0:0:
176,104,111920,1,0,0:0:0:0:
208,96,112020,1,0,0:0:0:0:
240,104,112120,1,0,0:0:0:0:
272,112,112220,1,0,0:0:0:0:
304,128,112320,1,0,0:0:0:0:
336,144,112420,1,0,0:0:0:0:
352,296,112620,6,0,P|288:280|240:320,1,90
424,224,113020,1,0,0:0:0:0:
424,224,113120,1,0,0:0:0:0:
424,224,113220,1,0,0:0:0:0:
416,128,113420,1,0,0:0:0:0:
344,64,113620,1,0,0:0:0:0:
232,128,113820,6,0,L|192:96,1,45
168,80,114020,1,0,0:0:0:0:
144,152,114220,2,0,L|104:120,1,45
80,104,114420,1,0,0:0:0:0:
120,288,114620,5,0,0:0:0:0:
120,288,114720,1,0,0:0:0:0:
120,288,114820,1,0,0:0:0:0:
208,240,115020,1,0,0:0:0:0:
256,320,115220,1,0,0:0:0:0:
352,256,115420,6,0,L|352:304,1,45
352,336,115620,1,0,0:0:0:0:
432,256,115820,2,0,L|432:304,1,45
432,336,116020,1,0,0:0:0:0:
448,96,116220,6,0,P|408:120|352:136,1,90
304,72,116620,1,0,0:0:0:0:
272,64,116720,1,0,0:0:0:0:
240,72,116820,1,0,0:0:0:0:
200,64,116920,1,0,0:0:0:0:
168,72,117020,2,0,P|112:96|96:160,1,90
240,296,117420,5,0,0:0:0:0:
264,272,117520,1,0,0:0:0:0:
296,256,117620,1,0,0:0:0:0:
360,232,117820,1,0,0:0:0:0:
384,208,117920,1,0,0:0:0:0:
392,176,118020,1,0,0:0:0:0:
432,80,118220,5,0,0:0:0:0:
408,288,118420,1,0,0:0:0:0:
296,312,118820,6,0,P|320:232|248:184,1,180
128,288,119620,1,0,0:0:0:0:
72,224,119820,1,0,0:0:0:0:
80,104,120020,6,0,P|128:88|176:96,1,90
200,104,120320,1,0,0:0:0:0:
240,128,120420,1,0,0:0:0:0:
336,88,120620,1,0,0:0:0:0:
432,56,120820,2,0,P|456:112|440:144,1,90
416,216,121220,5,0,0:0:0:0:
416,216,121320,1,0,0:0:0:0:
416,216,121420,1,0,0:0:0:0:
384,312,121620,1,0,0:0:0:0:
288,328,121820,2,0,L|240:320,1,45
208,312,122020,1,0,0:0:0:0:
248,216,122220,5,0,0:0:0:0:
160,208,122420,2,0,P|104:224|96:264,1,90
80,296,122820,2,0,P|48:224|64:176,1,90
72,136,123220,1,0,0:0:0:0:
136,72,123420,1,0,0:0:0:0:
248,64,123620,6,0,L|336:80,1,90
448,120,124020,2,0,L|352:160,1,90
248,184,124420,1,0,0:0:0:0:
280,208,124520,1,0,0:0:0:0:
320,216,124620,1,0,0:0:0:0:
432,280,124820,5,0,0:0:0:0:
400,304,124920,1,0,0:0:0:0:
360,320,125020,1,0,0:0:0:0:
320,328,125120,1,0,0:0:0:0:
280,328,125220,2,0,P|232:312|216:264,1,90
168,200,125620,5,0,0:0:0:0:
96,256,125820,1,0,0:0:0:0:
80,168,126020,2,0,P|104:112|160:104,1,90
152,88,126320,1,0,0:0:0:0:
176,80,126420,1,0,0:0:0:0:
256,152,126620,5,0,0:0:0:0:
224,232,126820,1,0,0:0:0:0:
304,224,127020,2,0,L|352:200,1,45
376,192,127220,1,0,0:0:0:0:
360,96,127420,5,0,0:0:0:0:
392,72,127520,1,0,0:0:0:0:
424,80,127620,1,0,0:0:0:0:
456,112,127720,1,0,0:0:0:0:
456,152,127820,1,0,0:0:0:0:
400,240,128020,1,0,0:0:0:0:
296,312,128220,6,0,L|232:280,2,45
168,312,128620,1,0,0:0:0:0:
144,288,128720,1,0,0:0:0:0:
120,256,128820,2,0,P|152:224|208:224,1,90
216,88,129220,6,0,L|184:120,1,45
160,144,129420,1,0,0:0:0:0:
280,168,129620,6,0,L|312:136,1,45
336,112,129820,1,0,0:0:0:0:
424,176,130020,5,0,0:0:0:0:
408,208,130120,1,0,0:0:0:0:
384,232,130220,1,0,0:0:0:0:
352,256,130320,1,0,0:0:0:0:
320,272,130420,2,0,P|264:256|240:224,1,90
160,232,130820,6,0,P|128:272|88:272,1,90
56,176,131220,1,0,0:0:0:0:
72,144,131320,1,0,0:0:0:0:
96,112,131420,1,0,0:0:0:0:
128,96,131520,1,0,0:0:0:0:
168,88,131620,1,0,0:0:0:0:
256,192,131820,12,0,132820,0:0:0:0:
344,96,133220,5,0,0:0:0:0:
400,168,133420,1,0,0:0:0:0:
400,168,133520,1,0,0:0:0:0:
400,168,133620,1,0,0:0:0:0:
376,256,133820,1,0,0:0:0:0:
376,256,133920,1,0,0:0:0:0:
376,256,134020,1,0,0:0:0:0:
288,304,134220,2,0,P|240:312|192:304,1,90
112,96,134820,6,0,P|160:80|208:96,1,90
224,104,135120,1,0,0:0:0:0:
256,120,135220,1,0,0:0:0:0:
144,208,135420,1,0,0:0:0:0:
144,208,135520,1,0,0:0:0:0:
144,208,135620,2,0,L|104:256,1,45
96,272,135820,1,0,0:0:0:0:
240,264,136020,1,0,0:0:0:0:
392,152,136220,5,0,0:0:0:0:
392,152,136320,1,0,0:0:0:0:
392,152,136420,1,0,0:0:0:0:
328,80,136620,1,0,0:0:0:0:
328,80,136720,1,0,0:0:0:0:
328,80,136820,1,0,0:0:0:0:
240,128,137020,1,0,0:0:0:0:
240,128,137120,1,0,0:0:0:0:
240,128,137220,2,0,L|208:80,2,45
144,72,137620,1,0,0:0:0:0:
120,192,137820,6,0,L|96:232,1,45
88,248,138020,1,0,0:0:0:0:
152,312,138220,1,0,0:0:0:0:
232,272,138420,2,0,P|288:248|384:320,1,180
440,192,139220,1,0,0:0:0:0:
360,88,139620,5,0,0:0:0:0:
336,192,139820,2,0,L|296:160,1,45
280,144,140020,1,0,0:0:0:0:
200,88,140220,1,0,0:0:0:0:
168,104,140320,1,0,0:0:0:0:
152,136,140420,1,0,0:0:0:0:
152,176,140520,1,0,0:0:0:0:
176,208,140620,1,0,0:0:0:0:
232,288,140820,2,0,L|160:288,2,45
368,280,141220,5,0,0:0:0:0:
264,312,141420,1,0,0:0:0:0:
264,312,141520,1,0,0:0:0:0:
264,312,141620,2,0,P|224:336|168:296,1,90
160,304,141920,1,0,0:0:0:0:
144,272,142020,1,0,0:0:0:0:
72,96,142420,1,0,0:0:0:0:
88,176,142820,5,0,0:0:0:0:
160,224,143020,1,0,0:0:0:0:
240,248,143220,2,0,L|296:256,1,45
320,256,143420,1,0,0:0:0:0:
408,104,143620,5,0,0:0:0:0:
344,160,143820,2,0,L|296:136,1,45
272,128,144020,1,0,0:0:0:0:
192,160,144220,1,0,0:0:0:0:
240,56,144420,6,0,P|296:96|312:152,1,90
312,144,144720,1,0,0:0:0:0:
312,192,144820,2,0,P|352:224|432:232,1,90
424,248,145120,1,0,0:0:0:0:
456,256,145220,1,0,0:0:0:0:
296,320,145620,2,0,P|256:344|208:304,1,90
120,248,146020,5,0,0:0:0:0:
88,224,146120,1,0,0:0:0:0:
72,192,146220,1,0,0:0:0:0:
64,152,146320,1,0,0:0:0:0:
72,120,146420,1,0,0:0:0:0:
96,96,146520,1,0,0:0:0:0:
128,80,146620,1,0,0:0:0:0:
240,136,146820,6,0,L|280:176,1,45
296,192,147020,1,0,0:0:0:0:
368,104,147220,2,0,L|408:144,1,45
424,160,147420,1,0,0:0:0:0:
304,112,147620,5,0,0:0:0:0:
344,192,147820,1,0,0:0:0:0:
320,280,148020,1,0,0:0:0:0:
240,312,148220,1,0,0:0:0:0:
224,160,148420,5,0,0:0:0:0:
136,176,148620,1,0,0:0:0:0:
72,232,148820,1,0,0:0:0:0:
40,312,149020,1,0,0:0:0:0:
224,208,149220,6,0,P|288:232|336:216,1,90
336,224,149520,1,0,0:0:0:0:
368,216,149620,1,0,0:0:0:0:
304,88,149820,5,0,0:0:0:0:
328,120,149920,1,0,0:0:0:0:
336,160,150020,1,0,0:0:0:0:
336,200,150120,1,0,0:0:0:0:
320,232,150220,1,0,0:0:0:0:
296,264,150320,1,0,0:0:0:0:
264,280,150420,2,0,P|312:320|416:288,1,180
424,184,151020,5,0,0:0:0:0:
376,112,151220,2,0,P|336:80|280:80,1,90
256,160,151620,2,0,P|208:152|176:112,1,90
72,88,152020,5,0,0:0:0:0:
120,152,152220,1,0,0:0:0:0:
72,216,152420,1,0,0:0:0:0:
120,280,152620,2,0,P|176:296|216:264,1,90
280,304,153020,1,0,0:0:0:0:
280,304,153120,1,0,0:0:0:0:
280,304,153220,1,0,0:0:0:0:
360,288,153420,2,0,P|392:248|384:208,2,90
312,112,154020,6,0,L|272:144,2,45
408,160,154420,1,0,0:0:0:0:
464,240,154620,2,0,P|408:264|360:232,1,90
304,272,155020,2,0,L|256:304,1,45
240,312,155220,1,0,0:0:0:0:
160,296,155420,1,0,0:0:0:0:
104,240,155620,1,0,0:0:0:0:
80,168,155820,1,0,0:0:0:0:
88,88,156020,1,0,0:0:0:0:
144,40,156220,2,0,P|184:64|232:40,1,90
296,128,156620,5,0,0:0:0:0:
328,104,156820,1,0,0:0:0:0:
360,80,157020,1,0,0:0:0:0:
80,288,157220,5,0,0:0:0:0:
88,272,157320,1,0,0:0:0:0:
104,256,157420,1,0,0:0:0:0:
128,248,157520,1,0,0:0:0:0:
152,248,157620,1,0,0:0:0:0:
176,256,157720,1,0,0:0:0:0:
192,272,157820,1,0,0:0:0:0:
208,288,157920,1,0,0:0:0:0:
224,304,158020,5,0,0:0:0:0:
248,312,158120,1,0,0:0:0:0:
272,312,158220,1,0,0:0:0:0:
296,304,158320,1,0,0:0:0:0:
312,288,158420,1,0,0:0:0:0:
320,272,158520,1,0,0:0:0:0:
328,248,158620,1,0,0:0:0:0:
328,224,158720,1,0,0:0:0:0:
336,200,158820,5,0,0:0:0:0:
352,184,158920,1,0,0:0:0:0:
368,168,159020,1,0,0:0:0:0:
384,152,159120,1,0,0:0:0:0:
400,136,159220,1,0,0:0:0:0:
416,120,159320,1,0,0:0:0:0:
424,96,159420,1,0,0:0:0:0:
416,72,159520,1,0,0:0:0:0:
400,56,159620,2,0,B|368:64|368:64|360:48|360:48|360:72|360:72|352:48|352:48|352:64|352:64|288:80,1,180
112,80,160220,5,0,0:0:0:0:
144,96,160320,1,0,0:0:0:0:
184,112,160420,2,0,P|176:160|128:176,1,90
64,184,160820,1,0,0:0:0:0:
120,288,161020,6,0,P|192:264|240:288,1,90
272,304,161420,1,0,0:0:0:0:
352,304,161620,2,0,L|352:112,1,180
440,96,162220,5,0,0:0:0:0:
408,96,162320,1,0,0:0:0:0:
376,96,162420,1,0,0:0:0:0:
344,96,162520,1,0,0:0:0:0:
312,96,162620,1,0,0:0:0:0:
280,104,162720,1,0,0:0:0:0:
256,128,162820,1,0,0:0:0:0:
232,104,162920,5,0,0:0:0:0:
200,96,163020,1,0,0:0:0:0:
168,96,163120,1,0,0:0:0:0:
136,96,163220,1,0,0:0:0:0:
104,96,163320,1,0,0:0:0:0:
80,120,163420,1,0,0:0:0:0:
72,152,163520,1,0,0:0:0:0:
88,184,163620,1,0,0:0:0:0:
336,264,165120,5,0,0:0:0:0:
336,264,165220,1,0,0:0:0:0:
152,96,166820,1,0,0:0:0:0:
96,296,167620,1,0,0:0:0:0:
328,80,168420,5,0,0:0:0:0:
328,80,168620,1,0,0:0:0:0:
440,144,168820,1,0,0:0:0:0:
440,144,169020,1,0,0:0:0:0:
328,192,169220,1,0,0:0:0:0:
328,192,169420,1,0,0:0:0:0:
392,304,169620,5,0,0:0:0:0:
360,288,169720,1,0,0:0:0:0:
328,280,169820,1,0,0:0:0:0:
296,288,169920,1,0,0:0:0:0:
264,304,170020,1,0,0:0:0:0:
144,312,170220,5,0,0:0:0:0:
120,288,170320,1,0,0:0:0:0:
104,256,170420,2,0,P|104:208|144:192,1,90
216,224,170820,1,0,0:0:0:0:
272,152,171020,1,0,0:0:0:0:
224,80,171220,5,0,0:0:0:0:
256,64,171320,1,0,0:0:0:0:
288,64,171420,1,0,0:0:0:0:
320,80,171520,1,0,0:0:0:0:
344,112,171620,2,0,P|384:152|432:128,1,90
440,248,172020,6,0,L|344:248,1,90
264,304,172420,1,0,0:0:0:0:
224,216,172620,1,0,0:0:0:0:
136,168,172820,1,0,0:0:0:0:
152,272,173020,5,0,0:0:0:0:
184,296,173120,1,0,0:0:0:0:
216,312,173220,1,0,0:0:0:0:
304,224,173420,1,0,0:0:0:0:
376,320,173620,2,0,P|432:272|432:240,1,90
416,168,174020,6,0,L|392:128,1,45
376,96,174220,1,0,0:0:0:0:
280,160,174420,2,0,L|248:112,1,45
240,96,174620,1,0,0:0:0:0:
64,144,174820,5,0,0:0:0:0:
88,120,174920,1,0,0:0:0:0:
120,104,175020,1,0,0:0:0:0:
152,96,175120,1,0,0:0:0:0:
192,96,175220,2,0,L|192:200,1,90
104,256,175620,5,0,0:0:0:0:
192,136,175820,1,0,0:0:0:0:
344,136,176020,1,0,0:0:0:0:
376,168,176120,1,0,0:0:0:0:
392,200,176220,1,0,0:0:0:0:
432,312,176420,5,0,0:0:0:0:
400,312,176520,1,0,0:0:0:0:
368,312,176620,2,0,P|320:296|320:240,1,90
240,192,177020,1,0,0:0:0:0:
176,296,177220,1,0,0:0:0:0:
88,208,177420,1,0,0:0:0:0:
120,80,177620,6,0,L|176:112,1,45
192,120,177820,1,0,0:0:0:0:
288,80,178020,2,0,P|344:80|384:128,1,90
424,184,178420,1,0,0:0:0:0:
424,184,178520,1,0,0:0:0:0:
424,184,178620,1,0,0:0:0:0:
352,264,178820,2,0,P|304:240|256:240,1,90
184,304,179220,5,0,0:0:0:0:
152,288,179320,1,0,0:0:0:0:
128,256,179420,1,0,0:0:0:0:
208,200,179620,2,0,P|264:224|320:208,1,90
376,168,180020,1,0,0:0:0:0:
408,88,180220,1,0,0:0:0:0:
472,152,180420,2,0,L|472:256,1,90
440,64,180820,5,0,0:0:0:0:
400,56,180920,1,0,0:0:0:0:
360,56,181020,1,0,0:0:0:0:
264,96,181220,1,0,0:0:0:0:
184,48,181420,1,0,0:0:0:0:
120,120,181620,2,0,P|96:160|112:208,1,90
200,200,182020,6,0,L|160:256,1,45
152,272,182220,1,0,0:0:0:0:
288,312,182420,1,0,0:0:0:0:
320,288,182520,1,0,0:0:0:0:
336,256,182620,1,0,0:0:0:0:
344,224,182720,1,0,0:0:0:0:
344,192,182820,1,0,0:0:0:0:
408,256,183020,6,0,L|440:216,2,45
360,328,183420,2,0,L|312:328,1,45
288,328,183620,1,0,0:0:0:0:
216,264,183820,1,0,0:0:0:0:
104,184,184020,5,0,0:0:0:0:
104,184,184120,1,0,0:0:0:0:
104,184,184220,1,0,0:0:0:0:
152,96,184420,2,0,P|200:64|264:80,1,90
264,80,184720,1,0,0:0:0:0:
288,104,184820,1,0,0:0:0:0:
416,152,185020,5,0,0:0:0:0:
320,200,185220,1,0,0:0:0:0:
392,280,185420,1,0,0:0:0:0:
440,200,185620,2,0,P|400:152|368:144,1,90
280,304,186020,5,0,0:0:0:0:
192,224,186820,1,0,0:0:0:0:
272,72,187520,2,0,L|208:72,1,45
408,176,188420,1,0,0:0:0:0:
216,320,189220,1,0,0:0:0:0:
112,208,190020,1,0,0:0:0:0:
264,80,190720,6,0,L|328:80,1,45
384,96,191020,1,0,0:0:0:0:
384,128,191120,1,0,0:0:0:0:
384,160,191220,2,0,P|424:184|464:160,1,90
448,272,191620,1,0,0:0:0:0:
304,272,191820,5,0,0:0:0:0:
280,248,191920,1,0,0:0:0:0:
256,224,192020,1,0,0:0:0:0:
232,200,192120,1,0,0:0:0:0:
208,176,192220,1,0,0:0:0:0:
184,152,192320,1,0,0:0:0:0:
160,128,192420,1,0,0:0:0:0:
96,200,192620,5,0,0:0:0:0:
96,200,192720,1,0,0:0:0:0:
96,200,192820,2,0,P|64:264|96:288,1,90
160,312,193220,1,0,0:0:0:0:
272,312,193420,6,0,L|312:280,1,45
336,264,193620,1,0,0:0:0:0:
432,312,193820,1,0,0:0:0:0:
400,80,194020,6,0,P|352:112|296:104,1,90
296,96,194320,1,0,0:0:0:0:
272,72,194420,1,0,0:0:0:0:
160,112,194620,2,0,L|56:152,1,90
160,216,195020,1,0,0:0:0:0:
192,216,195120,1,0,0:0:0:0:
224,216,195220,2,0,P|272:192|328:208,1,90
392,176,195620,5,0,0:0:0:0:
416,272,195820,1,0,0:0:0:0:
416,272,195920,1,0,0:0:0:0:
416,272,196020,1,0,0:0:0:0:
328,320,196220,1,0,0:0:0:0:
352,200,196420,5,0,0:0:0:0:
264,248,196620,2,0,L|216:248,1,45
184,248,196820,1,0,0:0:0:0:
104,312,197020,1,0,0:0:0:0:
104,128,197220,5,0,0:0:0:0:
184,64,197420,2,0,L|232:24,2,45
328,80,197820,1,0,0:0:0:0:
272,152,198020,1,0,0:0:0:0:
360,184,198220,1,0,0:0:0:0:
448,208,198420,2,0,P|448:264|392:288,1,90
376,144,198820,5,0,0:0:0:0:
280,80,199020,1,0,0:0:0:0:
280,80,199120,1,0,0:0:0:0:
280,80,199220,2,0,P|216:80|192:112,1,90
80,136,199620,5,0,0:0:0:0:
88,248,199820,2,0,L|152:200,1,45
152,200,200020,1,0,0:0:0:0:
232,136,200220,1,0,0:0:0:0:
344,112,200420,6,0,P|376:80|432:72,1,90
440,160,200820,1,0,0:0:0:0:
440,192,200920,1,0,0:0:0:0:
440,224,201020,1,0,0:0:0:0:
440,256,201120,1,0,0:0:0:0:
440,288,201220,2,0,P|400:312|360:304,1,90
328,288,201520,1,0,0:0:0:0:
296,264,201620,1,0,0:0:0:0:
208,312,201820,1,0,0:0:0:0:
104,80,202020,5,0,0:0:0:0:
184,128,202220,1,0,0:0:0:0:
264,168,202420,1,0,0:0:0:0:
384,112,202620,5,0,0:0:0:0:
312,168,202820,1,0,0:0:0:0:
240,224,203020,1,0,0:0:0:0:
384,264,203220,6,0,P|360:304|304:304,1,90
200,320,203620,5,0,0:0:0:0:
152,240,203820,1,0,0:0:0:0:
104,160,204020,1,0,0:0:0:0:
176,192,204220,5,0,0:0:0:0:
248,136,204420,1,0,0:0:0:0:
280,120,204520,1,0,0:0:0:0:
312,112,204620,1,0,0:0:0:0:
344,120,204720,1,0,0:0:0:0:
368,144,204820,1,0,0:0:0:0:
376,176,204920,1,0,0:0:0:0:
376,208,205020,1,0,0:0:0:0:
376,240,205120,1,0,0:0:0:0:
376,272,205220,2,0,L|256:272,1,90
144,272,205620,5,0,0:0:0:0:
144,80,205820,2,0,P|168:128|168:176,1,90
224,272,206220,1,0,0:0:0:0:
224,80,206420,2,0,P|248:128|248:176,1,90
304,272,206820,1,0,0:0:0:0:
368,112,207220,5,0,0:0:0:0:
392,235,207420,1,0,0:0:0:0:
272,194,207620,1,0,0:0:0:0:
