osu file format v12

[General]
AudioFilename: Madoromi no Yakusoku.mp3
AudioLeadIn: 1000
PreviewTime: 60213
Countdown: 0
SampleSet: Soft
StackLeniency: 0.7
Mode: 0
LetterboxInBreaks: 0
WidescreenStoryboard: 0

[Editor]
Bookmarks: 237928
DistanceSpacing: 0.9
BeatDivisor: 4
GridSize: 4
TimelineZoom: 1.7

[Metadata]
Title:Madoromi no Yakusoku
TitleUnicode:まどろみの約束
Artist:Satou Satomi & Kayano Ai
ArtistUnicode:佐藤聡美、茅野愛衣
Creator:- H i N a -
Version:Normal
Source:Hyouka
Tags:kyoto animation ending Oreki Hotaro Chitanda Eru Fukube Satoshi Ibara Mayaka
BeatmapID:381621
BeatmapSetID:155591

[Difficulty]
HPDrainRate:4
CircleSize:3
OverallDifficulty:4
ApproachRate:5
SliderMultiplier:1.8
SliderTickRate:2

[Events]
//Background and Video events
0,0,"BG.jpg",0,0
//Break Periods
2,88128,98189
2,158041,175717
//Storyboard Layer 0 (Background)
//Storyboard Layer 1 (Fail)
//Storyboard Layer 2 (Pass)
//Storyboard Layer 3 (Foreground)
//Storyboard Sound Samples
//Background Colour Transformations
3,100,163,162,255

[TimingPoints]
-1060,674.157303370787,4,2,1,70,1,0
962,-100,4,2,1,50,0,0
7029,-100,4,2,1,70,0,0
60962,-100,4,2,1,80,0,1
82535,-100,4,2,1,80,0,0
131074,-100,4,2,1,80,0,1
152647,-100,4,2,1,80,0,0
176917,-100,4,2,1,50,0,0
184838,-100,4,2,1,80,0,0
190400,-100,4,2,1,80,0,1
211973,-100,4,2,1,80,0,0
217366,-100,4,2,1,80,0,1
238940,-100,4,2,1,80,0,0

[Colours]
Combo1 : 0,11,202
Combo2 : 211,36,255
Combo3 : 255,255,51
Combo4 : 255,55,181

[HitObjects]
408,56,962,5,0,0:0:0:0:
412,176,1299,1,0,0:0:0:0:
372,288,1636,6,0,B|284:340|188:320,1,180,2|0,0:0|0:0,0:0:0:0:
112,304,2647,2,0,B|36:232|108:136,1,180
104,144,3659,1,2,0:0:0:0:
160,48,3996,6,0,P|236:36|276:56,1,90
272,108,4670,2,0,L|272:236,2,90
356,136,5681,1,0,0:0:0:0:
364,220,6018,1,0,0:0:0:0:
288,256,6355,1,2,0:0:0:0:
280,180,6692,5,0,0:0:0:0:
280,180,6861,1,0,0:0:0:0:
280,180,7029,2,0,B|280:96|228:72,1,90,2|0,0:0|0:0,0:0:0:0:
188,68,7704,2,0,B|116:76|88:128,1,90,2|0,0:0|0:0,0:0:0:0:
68,164,8378,2,0,B|24:196|40:268,1,90
88,296,9052,2,0,B|116:340|204:324,1,90,2|0,0:0|0:0,0:0:0:0:
196,260,9726,5,2,0:0:0:0:
212,192,10063,2,0,P|256:116|368:96,1,180
412,96,11074,1,0,0:0:0:0:
456,152,11411,1,0,0:0:0:0:
444,224,11748,6,0,B|440:316|312:332,1,180,2|0,0:0|0:0,0:0:0:0:
248,316,12760,2,0,P|180:296|164:244,1,90,0|2,0:0|0:0,0:0:0:0:
128,228,13434,2,0,B|68:208|88:120,1,90,0|2,0:0|0:0,0:0:0:0:
96,68,14108,1,0,0:0:0:0:
180,36,14445,6,0,B|152:104|204:136,1,90,2|0,0:0|0:0,0:0:0:0:
184,120,15119,1,2,0:0:0:0:
256,192,15288,12,8,17142,0:0:0:0:
112,24,17816,6,0,B|64:64|104:136,1,90,4|0,0:0|0:0,0:0:0:0:
132,164,18490,2,0,B|176:208|252:172,1,90,8|0,0:0|0:0,0:0:0:0:
256,124,19164,2,0,P|284:72|332:64,1,90
388,88,19838,1,8,0:0:0:0:
440,152,20175,1,0,0:0:0:0:
436,232,20513,6,0,B|372:316|264:320,1,180,0|8,0:0|0:0,0:0:0:0:
252,252,21524,2,0,L|208:204,2,45,0|0|8,0:0|0:0|0:0,0:0:0:0:
252,252,22198,1,0,0:0:0:0:
252,252,22535,1,8,0:0:0:0:
192,292,22872,2,0,P|160:292|120:248,1,90,0|4,0:0|0:0,0:0:0:0:
84,152,23546,5,0,0:0:0:0:
84,152,23883,2,0,B|100:88|152:64,1,90,8|0,0:0|0:0,0:0:0:0:
200,56,24557,2,0,B|244:140|188:208,1,135,0|8,0:0|0:0,0:0:0:0:
424,292,25569,5,0,0:0:0:0:
424,292,25906,2,0,B|484:232|440:180,1,90,4|8,0:0|0:0,0:0:0:0:
456,176,26411,2,0,L|456:132,5,45,0|8|0|0|0|4,0:0|0:0|0:0|0:0|0:0|0:0,0:0:0:0:
256,192,27423,12,2,28602,0:0:0:0:
60,304,29277,6,0,B|52:252|80:196,1,90,2|0,0:0|0:0,0:0:0:0:
84,144,29951,1,2,0:0:0:0:
168,76,30625,1,0,0:0:0:0:
168,76,30962,2,0,B|228:48|280:72,1,90,0|2,0:0|0:0,0:0:0:0:
456,64,31973,5,2,0:0:0:0:
436,208,32647,1,2,0:0:0:0:
144,64,33322,1,2,0:0:0:0:
144,64,33659,1,2,0:0:0:0:
144,64,33996,6,0,B|88:96|64:172,1,135,2|2,0:0|0:0,0:0:0:0:
84,276,35007,2,0,B|140:276|168:184,1,90,0|2,0:0|0:0,0:0:0:0:
168,156,35681,2,0,P|192:100|232:76,1,90,0|0,0:0|0:0,0:0:0:0:
272,152,36355,2,0,B|280:216|352:232,1,90,0|2,0:0|0:0,0:0:0:0:
424,320,37366,5,2,0:0:0:0:
360,192,38041,1,2,0:0:0:0:
428,64,38715,2,0,B|500:68,2,45,2|0|2,0:0|0:0|0:0,0:0:0:0:
356,60,39389,6,0,B|260:64,1,90,2|0,0:0|0:0,0:0:0:0:
192,68,40063,2,0,B|84:68|48:184,1,180,2|2,0:0|0:0,0:0:0:0:
104,292,41411,1,2,0:0:0:0:
200,184,42086,1,0,0:0:0:0:
104,292,42760,5,2,0:0:0:0:
104,292,43434,2,0,B|44:328,2,45,2|0|2,0:0|0:0|0:0,0:0:0:0:
116,220,44108,2,0,B|72:176,2,45,2|0|2,0:0|0:0|0:0,0:0:0:0:
168,168,44782,6,0,B|196:72|304:36,1,180,2|2,0:0|0:0,0:0:0:0:
360,44,45793,2,0,B|436:56|464:112,1,90,0|2,0:0|0:0,0:0:0:0:
440,152,46468,2,0,L|492:152,2,45,0|0|2,0:0|0:0|0:0,0:0:0:0:
440,152,47142,1,0,0:0:0:0:
360,108,47479,6,0,P|328:164|360:236,2,135,4|2|0,0:0|0:0|0:0,0:0:0:0:
280,68,48827,2,0,L|172:68,3,90,8|8|8|8,0:0|0:0|0:0|0:0,0:0:0:0:
136,116,50175,6,0,P|100:176|132:292,1,180,4|8,0:0|0:0,0:0:0:0:
260,316,51524,1,0,0:0:0:0:
328,296,51861,1,0,0:0:0:0:
376,244,52198,1,8,0:0:0:0:
380,172,52535,5,0,0:0:0:0:
344,108,52872,2,0,P|300:92|232:108,1,90,0|0,0:0|0:0,0:0:0:0:
200,144,53546,2,0,P|160:240|56:244,1,180,8|8,0:0|0:0,0:0:0:0:
60,192,54557,1,0,0:0:0:0:
52,120,54895,2,0,B|64:68|132:44,1,90,8|0,0:0|0:0,0:0:0:0:
244,52,55569,5,0,0:0:0:0:
316,52,55906,1,0,0:0:0:0:
388,52,56243,1,8,0:0:0:0:
448,88,56580,2,0,P|488:128|492:172,1,90
488,232,57254,1,0,0:0:0:0:
464,300,57591,1,8,0:0:0:0:
392,300,57928,1,0,0:0:0:0:
348,244,58265,6,0,B|356:172|288:144,1,90,4|0,0:0|0:0,0:0:0:0:
284,100,58940,2,0,L|324:52,2,45,8|0|0,0:0|0:0|0:0,0:0:0:0:
228,56,59614,1,8,0:0:0:0:
228,56,59951,1,8,0:0:0:0:
116,156,60288,2,0,B|116:276,1,90,2|0,0:0|0:0,0:0:0:0:
140,312,60962,6,0,B|208:344|260:304,1,90,4|0,0:0|0:0,0:0:0:0:
308,280,61636,2,0,P|336:232|320:176,1,90,8|0,0:0|0:0,0:0:0:0:
252,160,62310,2,0,B|252:48|364:48,1,180,0|8,0:0|0:0,0:0:0:0:
360,48,63322,1,0,0:0:0:0:
432,120,63659,6,0,B|456:176|428:240,1,90,0|0,0:0|0:0,0:0:0:0:
412,292,64333,1,8,0:0:0:0:
332,248,64670,2,0,P|292:216|284:156,1,90
260,92,65344,2,0,B|248:36|164:36,1,90,0|8,0:0|0:0,0:0:0:0:
104,72,66018,2,0,L|52:32,2,45
80,208,66692,5,0,0:0:0:0:
112,292,67029,2,0,B|140:336|204:336,1,90,8|0,0:0|0:0,0:0:0:0:
276,336,67704,2,0,L|400:336,1,90
432,264,68378,1,8,0:0:0:0:
424,176,68715,1,0,0:0:0:0:
360,112,69052,6,0,B|284:72|176:60,1,180,4|0,0:0|0:0,0:0:0:0:
104,92,70063,1,0,0:0:0:0:
68,172,70400,1,4,0:0:0:0:
92,260,70737,1,8,0:0:0:0:
160,320,71074,1,8,0:0:0:0:
252,324,71411,1,0,0:0:0:0:
300,248,71748,6,0,B|300:176|252:144,1,90,4|0,0:0|0:0,0:0:0:0:
192,128,72423,2,0,P|176:84|204:32,1,90,8|0,0:0|0:0,0:0:0:0:
280,40,73097,2,0,B|324:16|380:44,1,90
420,112,73771,1,8,0:0:0:0:
368,320,74108,5,0,0:0:0:0:
368,320,74277,1,0,0:0:0:0:
368,320,74445,2,0,B|316:348|264:324,1,90
192,324,75119,2,0,L|88:324,1,90,8|0,0:0|0:0,0:0:0:0:
76,240,75793,2,0,L|76:116,1,90
168,152,76468,2,0,L|168:48,1,90,8|0,0:0|0:0,0:0:0:0:
252,92,77142,6,0,B|300:56|364:88,1,90,4|0,0:0|0:0,0:0:0:0:
356,164,77816,2,0,B|312:212|256:176,1,90,8|0,0:0|0:0,0:0:0:0:
196,148,78490,2,0,B|152:136|104:188,1,90
140,272,79164,2,0,B|184:284|220:243,1,90,8|0,0:0|0:0,0:0:0:0:
304,212,79838,5,4,0:0:0:0:
292,124,80175,1,0,0:0:0:0:
344,52,80513,1,8,0:0:0:0:
464,188,81018,1,4,0:0:0:0:
388,300,81524,5,8,0:0:0:0:
304,268,81861,1,8,0:0:0:0:
264,188,82198,1,0,0:0:0:0:
276,100,82535,1,4,0:0:0:0:
204,252,83209,5,4,0:0:0:0:
116,96,83883,1,4,0:0:0:0:
304,96,84557,1,8,0:0:0:0:
380,256,85232,1,4,0:0:0:0:
256,192,85400,12,8,87254,0:0:0:0:
256,192,87928,5,4,0:0:0:0:
452,304,99389,6,0,B|460:252|432:196,1,90,8|0,0:0|0:0,0:0:0:0:
428,144,100063,1,0,0:0:0:0:
344,76,100737,1,8,0:0:0:0:
344,76,101074,2,0,B|284:48|232:72,1,90,0|2,0:0|0:0,0:0:0:0:
56,64,102085,5,8,0:0:0:0:
76,208,102759,1,0,0:0:0:0:
368,64,103434,1,8,0:0:0:0:
368,64,103771,1,2,0:0:0:0:
368,64,104108,6,0,B|476:76|468:208,1,180,2|8,0:0|0:0,0:0:0:0:
428,276,105119,2,0,B|372:276|344:184,1,90,0|2,0:0|0:0,0:0:0:0:
340,148,105793,2,0,P|316:104|268:80,1,90,0|8,0:0|0:0,0:0:0:0:
240,152,106467,2,0,B|232:216|160:232,1,90,0|2,0:0|0:0,0:0:0:0:
88,320,107478,5,8,0:0:0:0:
152,192,108153,1,2,0:0:0:0:
84,64,108827,2,0,B|12:68,2,45,8|0|2,0:0|0:0|0:0,0:0:0:0:
156,60,109501,6,0,B|252:60,1,90,2|0,0:0|0:0,0:0:0:0:
316,56,110175,2,0,B|428:56|460:172,1,180,8|2,0:0|0:0,0:0:0:0:
408,292,111523,1,8,0:0:0:0:
312,184,112198,1,0,0:0:0:0:
408,292,112872,5,8,0:0:0:0:
408,292,113546,2,0,B|468:328,2,45,2|0|2,0:0|0:0|0:0,0:0:0:0:
396,220,114220,2,0,B|440:176,2,45,8|0|2,0:0|0:0|0:0,0:0:0:0:
344,168,114894,6,0,B|316:72|208:36,1,180,2|8,0:0|0:0,0:0:0:0:
152,44,115905,2,0,B|76:56|48:112,1,90,0|2,0:0|0:0,0:0:0:0:
72,152,116580,2,0,L|20:152,2,45,0|0|8,0:0|0:0|0:0,0:0:0:0:
72,152,117254,1,0,0:0:0:0:
152,108,117591,6,0,P|184:164|152:236,2,135,4|2|0,0:0|0:0|0:0,0:0:0:0:
232,68,118939,2,0,L|340:68,3,90,8|8|8|8,0:0|0:0|0:0|0:0,0:0:0:0:
376,116,120287,6,0,P|412:176|380:292,1,180,4|8,0:0|0:0,0:0:0:0:
252,316,121636,1,0,0:0:0:0:
184,296,121973,1,0,0:0:0:0:
136,244,122310,1,8,0:0:0:0:
124,156,122647,5,0,0:0:0:0:
172,80,122984,2,0,P|236:72|284:108,1,90
312,144,123658,2,0,P|352:240|456:244,1,180,8|8,0:0|0:0,0:0:0:0:
452,192,124669,1,0,0:0:0:0:
460,120,125007,2,0,B|448:68|380:44,1,90,8|0,0:0|0:0,0:0:0:0:
268,52,125681,5,0,0:0:0:0:
196,52,126018,1,0,0:0:0:0:
124,52,126355,1,8,0:0:0:0:
64,88,126692,2,0,P|24:128|20:172,1,90
24,232,127366,1,0,0:0:0:0:
48,300,127703,1,8,0:0:0:0:
120,300,128040,1,0,0:0:0:0:
164,244,128377,6,0,B|156:172|224:144,1,90,4|0,0:0|0:0,0:0:0:0:
228,100,129052,2,0,L|188:52,2,45,8|0|0,0:0|0:0|0:0,0:0:0:0:
284,56,129726,1,8,0:0:0:0:
284,56,130063,1,8,0:0:0:0:
396,156,130400,2,0,B|396:276,1,90,2|0,0:0|0:0,0:0:0:0:
372,312,131074,6,0,B|304:344|252:304,1,90,4|0,0:0|0:0,0:0:0:0:
204,280,131748,2,0,P|176:232|192:176,1,90,8|0,0:0|0:0,0:0:0:0:
260,160,132422,2,0,B|260:48|148:48,1,180,0|8,0:0|0:0,0:0:0:0:
152,48,133434,1,0,0:0:0:0:
80,120,133771,6,0,B|56:176|84:240,1,90,0|0,0:0|0:0,0:0:0:0:
100,292,134445,1,8,0:0:0:0:
180,248,134782,2,0,P|220:216|228:156,1,90
252,92,135456,2,0,B|264:36|348:36,1,90,0|8,0:0|0:0,0:0:0:0:
408,72,136130,2,0,L|460:32,2,45
432,208,136804,5,0,0:0:0:0:
400,292,137141,2,0,B|372:336|308:336,1,90,8|0,0:0|0:0,0:0:0:0:
236,336,137816,2,0,L|112:336,1,90
80,264,138490,1,8,0:0:0:0:
88,176,138827,1,0,0:0:0:0:
152,112,139164,6,0,B|212:32|316:48,1,180,4|0,0:0|0:0,0:0:0:0:
408,92,140175,1,0,0:0:0:0:
444,172,140512,1,4,0:0:0:0:
420,260,140849,1,8,0:0:0:0:
352,320,141186,1,8,0:0:0:0:
260,324,141523,1,0,0:0:0:0:
212,248,141860,6,0,B|212:176|260:144,1,90,4|0,0:0|0:0,0:0:0:0:
320,128,142535,2,0,P|336:84|308:32,1,90,8|0,0:0|0:0,0:0:0:0:
232,40,143209,2,0,B|188:16|132:44,1,90
92,112,143883,1,8,0:0:0:0:
144,320,144220,5,0,0:0:0:0:
144,320,144389,1,0,0:0:0:0:
144,320,144557,2,0,B|196:348|248:324,1,90
320,324,145231,2,0,L|424:324,1,90,8|0,0:0|0:0,0:0:0:0:
436,240,145905,2,0,L|436:116,1,90
344,152,146580,2,0,L|344:48,1,90,8|0,0:0|0:0,0:0:0:0:
260,92,147254,6,0,B|212:56|148:88,1,90,4|0,0:0|0:0,0:0:0:0:
156,164,147928,2,0,B|200:212|256:176,1,90,8|0,0:0|0:0,0:0:0:0:
316,148,148602,2,0,B|360:136|408:188,1,90
372,272,149276,2,0,B|328:284|292:243,1,90,8|0,0:0|0:0,0:0:0:0:
204,216,149950,5,4,0:0:0:0:
220,124,150287,1,0,0:0:0:0:
168,52,150625,1,8,0:0:0:0:
48,188,151130,1,4,0:0:0:0:
124,300,151636,5,8,0:0:0:0:
208,268,151973,1,8,0:0:0:0:
248,188,152310,1,0,0:0:0:0:
236,100,152647,1,4,0:0:0:0:
308,252,153322,5,4,0:0:0:0:
396,96,153996,1,4,0:0:0:0:
208,96,154670,1,8,0:0:0:0:
132,256,155345,1,4,0:0:0:0:
256,192,155512,12,8,157366,0:0:0:0:
136,268,176917,6,0,P|100:208|132:92,1,180,0|2,0:0|0:0,0:0:0:0:
260,68,178266,1,0,0:0:0:0:
328,88,178603,1,0,0:0:0:0:
376,140,178940,1,2,0:0:0:0:
396,276,179277,5,0,0:0:0:0:
328,308,179614,2,0,P|257:299|221:271,1,90
200,240,180288,2,0,P|160:144|56:140,1,180,0|2,0:0|0:0,0:0:0:0:
60,192,181299,1,0,0:0:0:0:
52,264,181637,2,0,B|64:316|132:340,1,90,8|0,0:0|0:0,0:0:0:0:
244,332,182311,5,0,0:0:0:0:
316,332,182648,1,0,0:0:0:0:
388,332,182985,1,8,0:0:0:0:
448,296,183322,2,0,P|488:256|492:212,1,90
488,152,183996,1,0,0:0:0:0:
464,84,184333,1,8,0:0:0:0:
392,84,184670,1,0,0:0:0:0:
348,140,185007,6,0,B|356:212|288:240,1,90,4|0,0:0|0:0,0:0:0:0:
284,284,185682,2,0,L|324:332,2,45,8|0|0,0:0|0:0|0:0,0:0:0:0:
228,328,186356,1,8,0:0:0:0:
228,328,186692,1,2,0:0:0:0:
116,228,187030,2,0,B|116:108,1,90,8|0,0:0|0:0,0:0:0:0:
196,92,187704,5,4,0:0:0:0:
368,144,188378,1,0,0:0:0:0:
248,280,189052,1,8,0:0:0:0:
248,280,189389,1,8,0:0:0:0:
116,228,189726,2,0,B|116:108,1,90,2|0,0:0|0:0,0:0:0:0:
140,72,190400,6,0,B|208:40|260:80,1,90,4|0,0:0|0:0,0:0:0:0:
308,104,191074,2,0,P|336:152|320:208,1,90,8|0,0:0|0:0,0:0:0:0:
252,224,191748,2,0,B|252:336|364:336,1,180,0|8,0:0|0:0,0:0:0:0:
360,336,192760,1,0,0:0:0:0:
432,264,193097,6,0,B|456:208|428:144,1,90,0|0,0:0|0:0,0:0:0:0:
412,92,193771,1,8,0:0:0:0:
332,136,194108,2,0,P|292:168|284:228,1,90
260,292,194782,2,0,B|248:348|164:348,1,90,0|8,0:0|0:0,0:0:0:0:
104,312,195456,2,0,L|52:352,2,45
80,176,196130,5,0,0:0:0:0:
112,92,196467,2,0,B|140:48|204:48,1,90,8|0,0:0|0:0,0:0:0:0:
276,48,197142,2,0,L|400:48,1,90
432,120,197816,1,8,0:0:0:0:
424,208,198153,1,0,0:0:0:0:
360,272,198490,6,0,B|300:352|196:336,1,180,4|0,0:0|0:0,0:0:0:0:
104,292,199501,1,0,0:0:0:0:
68,212,199838,1,4,0:0:0:0:
92,124,200175,5,8,0:0:0:0:
160,64,200512,1,8,0:0:0:0:
252,60,200849,1,0,0:0:0:0:
300,136,201186,6,0,B|300:208|252:240,1,90,4|0,0:0|0:0,0:0:0:0:
192,256,201861,2,0,P|176:300|204:352,1,90,8|0,0:0|0:0,0:0:0:0:
280,344,202535,2,0,B|324:368|380:340,1,90
420,272,203209,1,8,0:0:0:0:
368,64,203546,5,0,0:0:0:0:
368,64,203715,1,0,0:0:0:0:
368,64,203883,2,0,B|316:36|264:60,1,90
192,60,204557,2,0,L|88:60,1,90,8|0,0:0|0:0,0:0:0:0:
76,144,205231,2,0,L|76:268,1,90
168,232,205906,2,0,L|168:336,1,90,8|0,0:0|0:0,0:0:0:0:
252,292,206580,6,0,B|300:328|364:296,1,90,4|0,0:0|0:0,0:0:0:0:
356,220,207254,2,0,B|312:172|256:208,1,90,8|0,0:0|0:0,0:0:0:0:
196,236,207928,2,0,B|152:248|104:196,1,90
120,116,208602,2,0,B|176:92|220:152,1,90,8|0,0:0|0:0,0:0:0:0:
284,172,209276,5,4,0:0:0:0:
292,260,209613,1,0,0:0:0:0:
344,332,209951,1,8,0:0:0:0:
464,196,210456,1,4,0:0:0:0:
388,84,210962,5,8,0:0:0:0:
304,116,211299,1,8,0:0:0:0:
264,196,211636,1,0,0:0:0:0:
276,284,211973,1,4,0:0:0:0:
204,132,212647,5,4,0:0:0:0:
116,288,213321,1,4,0:0:0:0:
304,288,213995,1,8,0:0:0:0:
380,128,214670,1,4,0:0:0:0:
256,192,214838,12,8,216692,0:0:0:0:
372,72,217366,6,0,B|304:40|252:80,1,90,4|0,0:0|0:0,0:0:0:0:
204,104,218040,2,0,P|176:152|192:208,1,90,8|0,0:0|0:0,0:0:0:0:
260,224,218714,2,0,B|260:336|148:336,1,180,0|8,0:0|0:0,0:0:0:0:
152,336,219726,1,0,0:0:0:0:
80,264,220063,6,0,B|56:208|84:144,1,90,0|0,0:0|0:0,0:0:0:0:
100,92,220737,1,8,0:0:0:0:
180,136,221074,2,0,P|220:168|228:228,1,90
252,292,221748,2,0,B|264:348|348:348,1,90,0|8,0:0|0:0,0:0:0:0:
408,312,222422,2,0,L|460:352,2,45
432,176,223096,5,0,0:0:0:0:
400,92,223433,2,0,B|372:48|308:48,1,90,8|0,0:0|0:0,0:0:0:0:
236,48,224108,2,0,L|112:48,1,90
80,120,224782,1,8,0:0:0:0:
88,208,225119,1,0,0:0:0:0:
152,272,225456,6,0,B|212:352|316:336,1,180,4|0,0:0|0:0,0:0:0:0:
408,292,226467,1,0,0:0:0:0:
444,212,226804,1,4,0:0:0:0:
420,124,227141,5,8,0:0:0:0:
352,64,227478,1,8,0:0:0:0:
260,60,227815,1,0,0:0:0:0:
212,136,228152,6,0,B|212:208|260:240,1,90,4|0,0:0|0:0,0:0:0:0:
320,256,228827,2,0,P|336:300|308:352,1,90,8|0,0:0|0:0,0:0:0:0:
232,344,229501,2,0,B|188:368|132:340,1,90
92,272,230175,1,8,0:0:0:0:
144,64,230512,5,0,0:0:0:0:
144,64,230681,1,0,0:0:0:0:
144,64,230849,2,0,B|196:36|248:60,1,90
320,60,231523,2,0,L|424:60,1,90,8|0,0:0|0:0,0:0:0:0:
436,144,232197,2,0,L|436:268,1,90
344,232,232872,2,0,L|344:336,1,90,8|0,0:0|0:0,0:0:0:0:
248,296,233546,6,0,B|193:320|137:274,1,90,4|0,0:0|0:0,0:0:0:0:
128,196,234220,2,0,B|93:141|142:96,1,90,8|0,0:0|0:0,0:0:0:0:
220,72,234894,2,0,B|258:46|319:81,1,90
364,152,235568,2,0,B|397:202|345:256,1,90,8|0,0:0|0:0,0:0:0:0:
280,196,236242,5,4,0:0:0:0:
220,260,236579,1,0,0:0:0:0:
168,332,236917,1,8,0:0:0:0:
48,196,237422,1,4,0:0:0:0:
124,84,237928,5,8,0:0:0:0:
208,116,238265,1,8,0:0:0:0:
248,196,238602,1,0,0:0:0:0:
236,284,238939,1,4,0:0:0:0:
308,252,239614,5,4,0:0:0:0:
396,96,240288,1,4,0:0:0:0:
208,96,240962,1,8,0:0:0:0:
132,256,241637,1,4,0:0:0:0:
256,192,241805,12,8,243659,0:0:0:0:
