osu file format v12

[General]
AudioFilename: Madoromi no Yakusoku.mp3
AudioLeadIn: 1000
PreviewTime: 60213
Countdown: 0
SampleSet: Soft
StackLeniency: 0.7
Mode: 0
LetterboxInBreaks: 0
WidescreenStoryboard: 0

[Editor]
DistanceSpacing: 0.8
BeatDivisor: 4
GridSize: 4
TimelineZoom: 1

[Metadata]
Title:Madoromi no Yakusoku
TitleUnicode:まどろみの約束
Artist:Satou Satomi & Kayano Ai
ArtistUnicode:佐藤聡美、茅野愛衣
Creator:- H i N a -
Version:Easy
Source:Hyouka
Tags:kyoto animation ending Oreki Hotaro Chitanda Eru Fukube Satoshi Ibara Mayaka
BeatmapID:387902
BeatmapSetID:155591

[Difficulty]
HPDrainRate:3
CircleSize:3
OverallDifficulty:3
ApproachRate:3
SliderMultiplier:0.999999999999999
SliderTickRate:2

[Events]
//Background and Video events
0,0,"BG.jpg",0,0
//Break Periods
2,17811,27837
2,87923,97949
2,158041,175477
//Storyboard Layer 0 (Background)
//Storyboard Layer 1 (Fail)
//Storyboard Layer 2 (Pass)
//Storyboard Layer 3 (Foreground)
//Storyboard Sound Samples
//Background Colour Transformations
3,100,163,162,255

[TimingPoints]
-1060,674.157303370787,4,2,1,70,1,0
962,-100,4,2,1,50,0,0
7704,-100,4,2,1,70,0,0
60962,-100,4,2,1,80,0,1
82535,-100,4,2,1,80,0,0
131074,-100,4,2,1,80,0,1
137142,-133.333333333333,4,2,1,80,0,1
138490,-100,4,2,1,80,0,1
155681,-100,4,2,1,80,0,0
176917,-100,4,2,1,50,0,0
184838,-100,4,2,1,80,0,0
190400,-100,4,2,1,80,0,1
196468,-133.333333333333,4,2,1,80,0,1
197816,-100,4,2,1,80,0,1
211973,-100,4,2,1,80,0,0
217366,-100,4,2,1,80,0,1
223434,-133.333333333333,4,2,1,80,0,1
224782,-100,4,2,1,80,0,1
238940,-100,4,2,1,80,0,0

[Colours]
Combo1 : 0,11,202
Combo2 : 211,36,255
Combo3 : 255,255,51
Combo4 : 255,55,181

[HitObjects]
428,224,962,5,0,0:0:0:0:
372,288,1636,6,0,B|324:336|276:328,1,99.9999999999999,2|0,0:0|0:0,0:0:0:0:
204,332,2984,2,0,B|165:340|117:292,1,99.9999999999999,0|2,0:0|0:0,0:0:0:0:
72,224,4333,6,0,P|72:180|112:124,1,99.9999999999999
176,104,5681,2,0,P|216:152|272:164,1,99.9999999999999,0|2,0:0|0:0,0:0:0:0:
328,172,7029,1,0,0:0:0:0:
352,96,7704,6,0,P|384:64|452:60,1,99.9999999999999
424,136,9052,2,0,B|460:188|420:232,1,99.9999999999999,2|0,0:0|0:0,0:0:0:0:
356,208,10400,2,0,P|316:212|268:272,1,99.9999999999999
204,292,11748,6,0,B|168:348|96:324,1,99.9999999999999,2|0,0:0|0:0,0:0:0:0:
92,256,13097,2,0,P|64:220|64:152,1,99.9999999999999,0|2,0:0|0:0,0:0:0:0:
132,136,14445,2,0,B|172:172|228:180,1,99.9999999999999,2|2,0:0|0:0,0:0:0:0:
256,192,15288,12,8,17142,0:0:0:0:
60,304,29277,6,0,B|52:252|80:196,1,99.9999999999999,2|2,0:0|0:0,0:0:0:0:
96,128,30625,2,0,B|112:72|168:48|164:48,1,99.9999999999999,0|2,0:0|0:0,0:0:0:0:
236,72,31973,5,2,0:0:0:0:
296,124,32647,1,2,0:0:0:0:
336,56,33322,1,2,0:0:0:0:
408,64,33996,6,0,B|452:108|460:172,1,99.9999999999999,2|2,0:0|0:0,0:0:0:0:
444,232,35344,2,0,B|416:280|348:280,1,99.9999999999999,0|2,0:0|0:0,0:0:0:0:
312,216,36692,2,0,B|260:184|208:208,1,99.9999999999999,0|2,0:0|0:0,0:0:0:0:
164,144,38041,1,2,0:0:0:0:
148,68,38715,2,0,B|108:7,2,50,2|0|2,0:0|0:0|0:0,0:0:0:0:
324,56,40063,6,0,B|440:60|472:184,1,200,2|2,0:0|0:0,0:0:0:0:
464,252,42086,1,0,0:0:0:0:
404,308,42760,1,2,0:0:0:0:
352,248,43434,1,2,0:0:0:0:
272,248,44108,1,2,0:0:0:0:
232,316,44782,6,0,B|180:256|96:264,1,150,2|2,0:0|0:0,0:0:0:0:
84,224,46131,2,0,B|40:184|36:116,1,99.9999999999999,0|2,0:0|0:0,0:0:0:0:
88,60,47479,5,4,0:0:0:0:
148,56,47984,2,0,P|184:56|224:88,1,74.9999999999999,2|0,0:0|0:0,0:0:0:0:
212,116,48827,2,8,P|256:152|304:136,1,99.9999999999999
308,64,50175,2,8,P|364:65|390:109,1,99.9999999999999,4|8,0:0|0:0,0:0:0:0:
464,120,51524,2,0,L|512:92,2,50,0|0|8,0:0|0:0|0:0,0:0:0:0:
428,196,52872,6,0,P|420:248|368:276,1,99.9999999999999,2|8,0:0|0:0,0:0:0:0:
304,264,54220,2,0,P|256:256|216:224,1,99.9999999999999,0|8,0:0|0:0,0:0:0:0:
144,192,55569,6,0,L|104:228,2,50,0|0|8,0:0|0:0|0:0,0:0:0:0:
156,112,56917,2,0,L|104:72,2,50,0|0|8,0:0|0:0|0:0,0:0:0:0:
228,76,58265,6,0,B|280:36|340:48,1,99.9999999999999,4|8,0:0|0:0,0:0:0:0:
396,76,59614,1,8,0:0:0:0:
396,76,59951,1,8,0:0:0:0:
396,76,60288,2,0,B|396:184,1,99.9999999999999,2|4,0:0|0:0,0:0:0:0:
400,216,61299,6,0,L|456:216,2,50,0|8|0,0:0|0:0|0:0,0:0:0:0:
380,252,62310,2,0,P|352:308|300:308,1,99.9999999999999,0|8,0:0|0:0,0:0:0:0:
272,248,63659,2,0,B|228:212|156:231,1,99.9999999999999,0|8,0:0|0:0,0:0:0:0:
124,288,65007,2,0,B|72:264|72:188,1,99.9999999999999,0|8,0:0|0:0,0:0:0:0:
72,208,66355,1,0,0:0:0:0:
100,132,67029,6,8,P|144:64|272:48,1,200,8|8,0:0|0:0,0:0:0:0:
264,136,69052,2,0,B|276:188|328:228,1,99.9999999999999,4|0,0:0|0:0,0:0:0:0:
356,216,70063,2,0,L|424:216,4,50,0|2|8|8|0,0:0|0:0|0:0|0:0|0:0,0:0:0:0:
332,248,71748,6,0,B|288:284|224:284,1,99.9999999999999,4|8,0:0|0:0,0:0:0:0:
196,216,73097,2,0,B|144:216|104:176,1,99.9999999999999,0|8,0:0|0:0,0:0:0:0:
92,140,74108,5,0,0:0:0:0:
104,100,74445,2,0,B|136:52|204:52,1,99.9999999999999,0|8,0:0|0:0,0:0:0:0:
268,48,75793,2,0,L|376:48,1,99.9999999999999,0|8,0:0|0:0,0:0:0:0:
432,96,77142,6,0,B|456:152|422:207,1,99.9999999999999,4|8,0:0|0:0,0:0:0:0:
408,268,78490,2,0,B|380:316|316:316,1,99.9999999999999,0|8,0:0|0:0,0:0:0:0:
296,240,79838,6,0,P|240:220|184:236,1,99.9999999999999,4|8,0:0|0:0,0:0:0:0:
152,260,81018,1,4,0:0:0:0:
92,272,81524,2,0,L|52:228,3,50,8|8|8|4,0:0|0:0|0:0|0:0,0:0:0:0:
64,156,83209,5,4,0:0:0:0:
100,84,83883,1,4,0:0:0:0:
176,56,84557,1,8,0:0:0:0:
256,60,85232,1,4,0:0:0:0:
256,192,85400,12,8,87254,0:0:0:0:
452,304,99389,6,0,B|460:252|432:196,1,99.9999999999999,8|2,0:0|0:0,0:0:0:0:
416,128,100737,2,0,B|400:72|344:48|348:48,1,99.9999999999999,8|2,0:0|0:0,0:0:0:0:
276,72,102085,5,8,0:0:0:0:
312,144,102759,1,2,0:0:0:0:
236,164,103434,1,8,0:0:0:0:
200,104,104108,6,0,B|142:108|104:168,1,99.9999999999999,2|8,0:0|0:0,0:0:0:0:
108,232,105456,2,0,B|124:288|192:304,1,99.9999999999999,0|8,0:0|0:0,0:0:0:0:
204,224,106804,2,0,B|256:216|300:156,1,99.9999999999999,0|8,0:0|0:0,0:0:0:0:
340,112,108153,1,2,0:0:0:0:
268,60,108827,2,0,B|308:-1,2,50,8|0|2,0:0|0:0|0:0,0:0:0:0:
188,56,110175,6,0,B|72:60|40:184,1,200,8|10,0:0|0:0,0:0:0:0:
48,252,112198,1,0,0:0:0:0:
108,308,112872,1,8,0:0:0:0:
152,240,113546,1,2,0:0:0:0:
232,240,114220,1,8,0:0:0:0:
268,312,114894,6,0,B|312:248|400:248,1,150,2|2,0:0|0:0,0:0:0:0:
428,224,116243,2,0,B|472:184|476:116,1,99.9999999999999,0|8,0:0|0:0,0:0:0:0:
420,76,117591,5,4,0:0:0:0:
364,56,118096,2,0,P|328:56|288:88,1,74.9999999999999,2|0,0:0|0:0,0:0:0:0:
260,92,118939,2,0,L|152:91,3,99.9999999999999,8|8|8|8,0:0|0:0|0:0|0:0,0:0:0:0:
84,112,121636,2,0,L|40:76,2,50,0|0|8,0:0|0:0|0:0,0:0:0:0:
84,196,122984,6,0,P|92:248|144:276,1,99.9999999999999,2|8,0:0|0:0,0:0:0:0:
192,224,124332,2,0,P|232:188|280:184,1,99.9999999999999,0|8,0:0|0:0,0:0:0:0:
368,192,125681,6,0,L|408:228,2,50,0|0|8,0:0|0:0|0:0,0:0:0:0:
356,112,127029,2,0,L|408:72,2,50,0|0|8,0:0|0:0|0:0,0:0:0:0:
284,76,128377,6,0,B|232:36|172:48,1,99.9999999999999,4|8,0:0|0:0,0:0:0:0:
116,76,129726,1,8,0:0:0:0:
116,76,130063,1,8,0:0:0:0:
116,76,130400,6,0,B|116:184,1,99.9999999999999,2|4,0:0|0:0,0:0:0:0:
112,216,131411,6,0,L|56:216,2,50,0|8|0,0:0|0:0|0:0,0:0:0:0:
132,252,132422,2,0,P|160:308|212:308,1,99.9999999999999,0|8,0:0|0:0,0:0:0:0:
240,248,133771,2,0,B|284:212|356:231,1,99.9999999999999,0|8,0:0|0:0,0:0:0:0:
400,256,135119,2,0,B|452:232|452:156,1,99.9999999999999,0|8,0:0|0:0,0:0:0:0:
452,176,136130,1,0,0:0:0:0:
452,176,136467,1,0,0:0:0:0:
428,104,137142,6,8,P|360:60|292:84,1,150.000005722046,8|8,0:0|0:0,0:0:0:0:
248,136,139164,2,0,B|236:188|184:228,1,99.9999999999999,4|0,0:0|0:0,0:0:0:0:
156,216,140175,2,0,L|88:216,4,50,0|2|8|8|0,0:0|0:0|0:0|0:0|0:0,0:0:0:0:
180,248,141860,6,0,B|224:284|288:284,1,99.9999999999999,4|8,0:0|0:0,0:0:0:0:
316,216,143209,2,0,B|368:216|408:176,1,99.9999999999999,0|8,0:0|0:0,0:0:0:0:
420,140,144220,1,0,0:0:0:0:
408,100,144557,6,0,B|376:52|308:52,1,99.9999999999999,0|8,0:0|0:0,0:0:0:0:
244,48,145905,2,0,L|136:48,1,99.9999999999999,0|8,0:0|0:0,0:0:0:0:
80,96,147254,6,0,B|56:152|90:207,1,99.9999999999999,4|8,0:0|0:0,0:0:0:0:
104,268,148602,2,0,B|132:316|196:316,1,99.9999999999999,0|8,0:0|0:0,0:0:0:0:
216,240,149950,6,0,P|272:220|328:236,1,99.9999999999999,4|8,0:0|0:0,0:0:0:0:
360,260,151130,1,4,0:0:0:0:
420,272,151636,2,0,L|460:228,3,50,8|8|8|4,0:0|0:0|0:0|0:0,0:0:0:0:
448,156,153321,5,4,0:0:0:0:
412,84,153995,1,4,0:0:0:0:
336,56,154669,1,8,0:0:0:0:
256,60,155344,1,4,0:0:0:0:
256,192,155512,12,8,157366,0:0:0:0:
136,248,176917,6,0,P|126:202|142:143,1,99.9999999999999
188,96,177928,2,0,L|156:40,2,50,0|0|2,0:0|0:0|0:0,0:0:0:0:
268,56,179277,5,0,0:0:0:0:
292,88,179614,2,0,P|296:144|336:176,1,99.9999999999999
332,252,180962,2,0,P|318:306|264:330,1,99.9999999999999,0|8,0:0|0:0,0:0:0:0:
208,304,182310,6,0,L|148:328,2,50,0|0|8,0:0|0:0|0:0,0:0:0:0:
204,264,183322,2,0,P|184:216|128:184,1,99.9999999999999
112,164,184333,1,8,0:0:0:0:
104,124,184670,1,0,0:0:0:0:
128,92,185007,6,0,B|160:56|224:56,1,99.9999999999999,4|8,0:0|0:0,0:0:0:0:
296,64,186356,1,8,0:0:0:0:
300,144,187030,2,8,B|300:252,1,99.9999999999999,8|8,0:0|0:0,0:0:0:0:
296,324,188378,1,0,0:0:0:0:
216,304,189052,1,8,0:0:0:0:
176,304,189389,1,8,0:0:0:0:
136,304,189726,2,0,B|136:196,1,99.9999999999999,2|4,0:0|0:0,0:0:0:0:
112,168,190737,6,0,L|56:168,2,50,0|8|0,0:0|0:0|0:0,0:0:0:0:
132,132,191748,2,0,P|160:76|212:76,1,99.9999999999999,0|8,0:0|0:0,0:0:0:0:
240,136,193097,6,0,B|284:172|356:153,1,99.9999999999999,0|8,0:0|0:0,0:0:0:0:
396,128,194445,2,0,B|448:152|448:228,1,99.9999999999999,0|8,0:0|0:0,0:0:0:0:
448,264,195793,1,0,0:0:0:0:
392,312,196468,6,0,P|324:348|256:328,1,150.000005722046,8|8,0:0|0:0,0:0:0:0:
248,248,198490,6,0,B|236:196|184:156,1,99.9999999999999,4|0,0:0|0:0,0:0:0:0:
156,168,199501,2,0,L|88:168,4,50,0|2|8|8|0,0:0|0:0|0:0|0:0|0:0,0:0:0:0:
180,136,201186,6,0,B|224:100|288:100,1,99.9999999999999,4|8,0:0|0:0,0:0:0:0:
316,168,202535,2,0,B|368:168|408:208,1,99.9999999999999,0|8,0:0|0:0,0:0:0:0:
420,244,203546,5,0,0:0:0:0:
408,284,203883,2,0,B|376:332|308:332,1,99.9999999999999,0|8,0:0|0:0,0:0:0:0:
244,336,205231,2,0,L|136:336,1,99.9999999999999,0|8,0:0|0:0,0:0:0:0:
80,288,206580,6,0,B|56:232|90:177,1,99.9999999999999,4|8,0:0|0:0,0:0:0:0:
104,116,207928,2,0,B|132:68|196:68,1,99.9999999999999,0|8,0:0|0:0,0:0:0:0:
216,144,209276,6,0,P|272:164|328:148,1,99.9999999999999,4|8,0:0|0:0,0:0:0:0:
360,124,210456,1,4,0:0:0:0:
420,112,210962,2,0,L|460:156,3,50,8|8|8|4,0:0|0:0|0:0|0:0,0:0:0:0:
448,228,212647,1,4,0:0:0:0:
412,300,213321,1,4,0:0:0:0:
336,328,213995,1,8,0:0:0:0:
256,324,214670,1,4,0:0:0:0:
256,192,214838,12,8,216692,0:0:0:0:
384,204,217366,5,0,0:0:0:0:
400,168,217704,2,0,L|456:168,2,50,0|8|0,0:0|0:0|0:0,0:0:0:0:
380,132,218715,2,0,P|352:76|300:76,1,99.9999999999999,0|8,0:0|0:0,0:0:0:0:
272,136,220064,6,0,B|228:172|156:153,1,99.9999999999999,0|8,0:0|0:0,0:0:0:0:
124,96,221412,2,0,B|72:120|72:196,1,99.9999999999999,0|8,0:0|0:0,0:0:0:0:
68,256,222760,1,0,0:0:0:0:
132,292,223434,6,0,P|184:336|268:316,1,150.000005722046,8|8,0:0|0:0,0:0:0:0:
264,248,225457,6,0,B|276:196|328:156,1,99.9999999999999,4|0,0:0|0:0,0:0:0:0:
356,168,226468,2,0,L|424:168,4,50,0|2|8|8|0,0:0|0:0|0:0|0:0|0:0,0:0:0:0:
332,136,228153,6,0,B|288:100|224:100,1,99.9999999999999,4|8,0:0|0:0,0:0:0:0:
196,168,229502,2,0,B|144:168|104:208,1,99.9999999999999,0|8,0:0|0:0,0:0:0:0:
92,244,230513,1,0,0:0:0:0:
104,284,230850,6,0,B|136:332|204:332,1,99.9999999999999,0|8,0:0|0:0,0:0:0:0:
268,336,232198,2,0,L|376:336,1,99.9999999999999,0|8,0:0|0:0,0:0:0:0:
432,288,233547,6,0,B|456:232|422:177,1,99.9999999999999,4|8,0:0|0:0,0:0:0:0:
408,116,234895,2,0,B|380:68|316:68,1,99.9999999999999,0|8,0:0|0:0,0:0:0:0:
296,144,236243,6,0,P|240:164|184:148,1,99.9999999999999,4|8,0:0|0:0,0:0:0:0:
152,124,237423,1,4,0:0:0:0:
92,112,237929,2,0,L|52:156,3,50,8|8|8|4,0:0|0:0|0:0|0:0,0:0:0:0:
64,228,239614,5,4,0:0:0:0:
100,300,240288,1,4,0:0:0:0:
176,328,240962,1,8,0:0:0:0:
256,324,241637,1,4,0:0:0:0:
256,192,241805,12,8,243659,0:0:0:0:
