osu file format v12

[General]
AudioFilename: Kimi ni Matsuwaru Mystery.mp3
AudioLeadIn: 1500
PreviewTime: 55216
Countdown: 0
SampleSet: Soft
StackLeniency: 0.7
Mode: 0
LetterboxInBreaks: 0

[Editor]
DistanceSpacing: 1
BeatDivisor: 4
GridSize: 4

[Metadata]
Title:Kimi ni Matsuwaru Mystery (TV Size)
TitleUnicode:君にまつわるミステリー (TV Size)
Artist:Satou Satomi & Kayano Ai
ArtistUnicode:佐藤 聡美 & 茅野 愛衣
Creator:Guy
Version:Normal
Source:Hyouka
Tags:ending kyoani kyoto animation maaagic chitanda eru ibara mayaka
BeatmapID:190058
BeatmapSetID:64577

[Difficulty]
HPDrainRate:4
CircleSize:3
OverallDifficulty:4
ApproachRate:5
SliderMultiplier:1
SliderTickRate:1

[Events]
//Background and Video events
0,0,"bgg.jpg",0,0
Video,0,"Kimi ni Matsuwaru Mystery.avi"
//Break Periods
//Storyboard Layer 0 (Background)
//Storyboard Layer 1 (Fail)
//Storyboard Layer 2 (Pass)
//Storyboard Layer 3 (Foreground)
//Storyboard Sound Samples
//Background Colour Transformations
3,100,163,162,255

[TimingPoints]
-350,352.941176470588,4,2,1,60,1,0
4149,-100,4,2,3,60,0,0
4326,-100,4,2,1,60,0,0
8385,-100,4,2,3,60,0,0
8561,-100,4,2,1,60,0,0
13326,-100,4,2,1,50,0,0
13502,-100,4,2,1,60,0,0
24444,-100,4,2,3,50,0,0
24620,-100,4,2,1,60,0,0
28149,-100,4,2,3,50,0,0
28326,-100,4,2,1,60,0,0
30973,-100,4,2,3,50,0,0
31149,-100,4,2,1,60,0,0
33797,-100,4,2,3,50,0,0
33973,-100,4,2,1,60,0,0
52149,-100,4,2,3,50,0,0
52326,-100,4,2,1,60,0,0
56120,-100,4,2,2,60,0,1
56385,-100,4,2,3,50,0,1
56561,-100,4,2,2,60,0,1
59208,-100,4,2,3,50,0,1
59385,-100,4,2,2,60,0,1
62032,-100,4,2,3,50,0,1
62208,-100,4,2,2,60,0,1
63444,-100,4,2,3,50,0,1
63620,-100,4,2,2,60,0,1
64149,-100,4,2,3,50,0,1
64326,-100,4,2,2,60,0,1
67679,-100,4,2,3,50,0,1
67855,-100,4,2,2,60,0,1
70502,-100,4,2,3,50,0,1
70679,-100,4,2,2,60,0,1
73326,-100,4,2,3,50,0,1
73502,-100,4,2,2,60,0,1
80385,-100,4,2,3,50,0,1
80561,-100,4,2,2,60,0,1
84355,-100,4,2,2,60,0,0
85149,-100,4,2,3,50,0,0
85326,-100,4,2,2,60,0,0
85855,-100,4,2,3,50,0,0
86032,-100,4,2,2,60,0,0
88414,-100,4,2,2,5,0,0

[Colours]
Combo1 : 0,255,0
Combo2 : 255,85,85
Combo3 : 128,128,255

[HitObjects]
96,192,2120,1,8,0:0:0:0:
116,288,2473,6,0,P|150:322|199:343,1,100,6|8,0:0|0:0,0:0:0:0:
272,276,3179,2,0,P|237:241|188:220,1,100,0|8,0:0|0:0,0:0:0:0:
96,192,3885,2,0,P|168:128|260:152,1,200
312,240,4944,1,8,0:0:0:0:
368,324,5297,6,0,P|416:320|452:280,1,100,2|8,0:0|0:0,0:0:0:0:
404,192,6002,2,0,L|352:104,1,100,0|8,0:0|0:0,0:0:0:0:
260,152,6708,2,0,L|312:240,1,100,0|8,0:0|0:0,0:0:0:0:
260,328,7414,1,0,0:0:0:0:
160,340,7767,1,10,0:0:0:0:
84,272,8120,6,0,P|64:176|128:104,1,200,6|0,0:0|0:0,0:0:0:0:
224,124,9179,2,0,L|280:136,1,50,8|2,0:0|0:0,0:0:0:0:
372,152,9708,2,0,P|396:144|416:128,1,50,0|8,0:0|0:0,0:0:0:0:
336,64,10238,2,0,P|288:44|240:44,1,100,0|8,0:0|0:0,0:0:0:0:
256,192,10944,12,4,12179,0:0:0:0:
152,256,12708,6,0,P|128:300|92:336,2,100,2|2|8,0:0|0:0|0:0,0:0:0:0:
152,156,13767,5,6,0:0:0:0:
240,208,14120,1,0,0:0:0:0:
340,208,14473,2,0,L|440:208,2,100,0|8|2,0:0|0:0|0:0,0:0:0:0:
288,120,15532,1,0,0:0:0:0:
188,120,15885,2,0,L|88:120,1,100,0|8,0:0|0:0,0:0:0:0:
60,216,16591,6,0,B|72:276|72:276|140:292|184:352,1,200,2|0,0:0|0:0,0:0:0:0:
256,284,17649,1,8,0:0:0:0:
328,352,18002,2,0,B|372:292|440:276|440:276|452:216,1,200,2|0,0:0|0:0,0:0:0:0:
424,120,19061,1,8,0:0:0:0:
328,92,19414,6,0,B|272:80|232:108|232:108,1,100,2|0,0:0|0:0,0:0:0:0:
296,188,20120,1,0,0:0:0:0:
216,244,20473,2,0,P|188:252|160:252,1,50,8|0,0:0|0:0,0:0:0:0:
84,200,21002,2,0,P|96:152|120:104,2,100,0|8|8,0:0|0:0|0:0,0:0:0:0:
68,248,21885,2,0,P|60:272|56:304,1,50,8|8,0:0|0:0,0:0:0:0:
148,332,22414,6,0,L|248:344,1,100,2|8,0:0|0:0,0:0:0:0:
208,252,23120,2,0,L|308:264,1,100,2|8,0:0|0:0,0:0:0:0:
400,224,23826,1,2,0:0:0:0:
392,124,24179,2,0,P|336:72|264:56,1,150,8|4,0:0|0:0,0:0:0:0:
164,60,25061,6,0,P|156:108|164:160,1,100,6|8,0:0|0:0,0:0:0:0:
256,192,25767,2,0,P|264:240|256:292,1,100,0|8,0:0|0:0,0:0:0:0:
164,332,26473,2,0,P|116:340|64:332,2,100,2|8|0,0:0|0:0|0:0,0:0:0:0:
256,292,27532,1,8,0:0:0:0:
348,332,27885,6,0,P|436:296|464:200,1,200,2|0,0:0|0:0,0:0:0:0:
436,104,28944,1,8,0:0:0:0:
336,120,29297,2,0,L|240:148,2,100,2|2|2,0:0|0:0|0:0,0:0:0:0:
356,220,30355,1,2,0:0:0:0:
256,236,30708,6,0,B|184:256|184:256|140:208|76:200,1,200,2|0,0:0|0:0,0:0:0:0:
88,100,31767,1,8,0:0:0:0:
188,96,32120,2,0,P|236:108|276:140,1,100,2|8,0:0|0:0,0:0:0:0:
256,236,32826,2,0,P|295:266|343:278,1,100,0|8,0:0|0:0,0:0:0:0:
428,224,33532,6,0,P|416:152|364:96,2,150,2|2|8,0:0|0:0|0:0,0:0:0:0:
376,308,34944,2,0,P|332:328|280:328,1,100,2|8,0:0|0:0,0:0:0:0:
184,300,35649,1,0,0:0:0:0:
168,200,36002,1,8,0:0:0:0:
256,192,36179,12,0,38473,0:0:0:0:
204,68,39179,5,4,0:0:0:0:
168,264,39885,2,0,P|232:300|308:308,2,150,2|0|0,0:0|0:0|0:0,0:0:0:0:
108,184,41297,1,10,0:0:0:0:
148,92,41649,1,0,0:0:0:0:
248,96,42002,1,10,0:0:0:0:
424,192,42708,5,10,0:0:0:0:
284,248,43238,2,0,P|212:256|148:216,1,150,10|8,0:0|0:0,0:0:0:0:
56,176,44120,2,0,P|44:144|44:104,2,75,2|0|0,0:0|0:0|0:0,0:0:0:0:
68,224,44826,6,0,P|88:264|132:304,1,100,4|0,0:0|0:0,0:0:0:0:
228,308,45532,1,8,0:0:0:0:
284,224,45885,1,0,0:0:0:0:
240,132,46238,2,0,P|196:112|144:116,1,100,10|0,0:0|0:0,0:0:0:0:
64,172,46944,2,0,L|84:272,1,100,8|0,0:0|0:0,0:0:0:0:
180,296,47649,6,0,L|160:196,1,100,10|8,0:0|0:0,0:0:0:0:
140,100,48355,1,0,0:0:0:0:
236,132,48708,1,8,0:0:0:0:
332,164,49061,2,0,P|376:180|416:216,1,100,2|8,0:0|0:0,0:0:0:0:
464,296,49767,2,0,P|440:328|408:348,2,75,2|2|0,0:0|0:0|0:0,0:0:0:0:
492,264,50473,6,0,P|504:216|500:164,1,100,2|8,0:0|0:0,0:0:0:0:
420,104,51179,2,0,P|408:152|412:204,1,100,0|8,0:0|0:0,0:0:0:0:
348,276,51885,2,0,P|280:304|200:304,2,150,2|0|8,0:0|0:0|0:0,0:0:0:0:
376,180,53297,5,2,0:0:0:0:
348,84,53649,1,8,0:0:0:0:
256,48,54002,1,8,0:0:0:0:
164,84,54355,2,0,L|120:116,1,50,8|4,0:0|0:0,0:0:0:0:
96,328,56120,6,0,P|196:328|288:288,1,200,4|0,0:0|0:0,0:0:0:0:
356,216,57179,1,8,0:0:0:0:
356,116,57532,2,0,P|312:96|260:96,1,100,2|8,0:0|0:0,0:0:0:0:
164,124,58238,2,0,L|120:188,2,75,2|2|0,0:0|0:0|0:0,0:0:0:0:
212,96,58944,6,0,B|280:108|352:80|352:80|404:108,1,200,2|0,0:0|0:0,0:0:0:0:
448,196,60002,1,8,0:0:0:0:
448,296,60355,2,0,P|476:340|516:368,2,100,2|8|0,0:0|0:0|0:0,0:0:0:0:
360,244,61414,1,8,0:0:0:0:
260,244,61767,6,0,L|108:244,2,150,6|2|8,0:0|0:0|0:0,0:0:0:0:
316,160,63179,2,0,P|363:244|316:328,2,200,2|2|2,0:0|0:0|0:0,0:0:0:0:
116,160,65297,5,0,0:0:0:0:
116,260,65649,1,8,0:0:0:0:
196,320,66002,2,0,L|284:264,1,100,2|8,0:0|0:0,0:0:0:0:
348,192,66708,2,0,P|364:144|364:92,1,100,0|8,0:0|0:0,0:0:0:0:
264,96,67414,6,0,P|168:80|80:132,1,200,6|0,0:0|0:0,0:0:0:0:
44,224,68473,1,8,0:0:0:0:
116,296,68826,2,0,P|156:324|188:364,2,100,2|8|0,0:0|0:0|0:0,0:0:0:0:
148,200,69885,1,8,0:0:0:0:
240,240,70238,6,0,B|312:224|388:252|388:252|432:228,1,200,2|0,0:0|0:0,0:0:0:0:
432,128,71297,2,0,L|432:76,1,50,8|2,0:0|0:0,0:0:0:0:
332,76,71826,2,0,L|228:76,2,100,2|2|2,0:0|0:0|0:0,0:0:0:0:
312,224,73061,6,0,P|252:300|156:328,1,200,4|0,0:0|0:0,0:0:0:0:
68,280,74120,1,8,0:0:0:0:
76,180,74473,1,2,0:0:0:0:
168,144,74826,2,0,P|216:128|264:128,1,100,8|0,0:0|0:0,0:0:0:0:
332,204,75532,1,8,0:0:0:0:
232,224,75885,6,0,P|184:240|136:240,1,100,2|8,0:0|0:0,0:0:0:0:
168,144,76591,1,0,0:0:0:0:
224,60,76944,1,8,0:0:0:0:
316,100,77297,2,0,P|360:128|408:140,2,100,2|8|0,0:0|0:0|0:0,0:0:0:0:
260,184,78355,1,8,0:0:0:0:
204,268,78708,6,0,P|160:240|112:228,2,100,2|8|0,0:0|0:0|0:0,0:0:0:0:
296,312,79767,1,8,0:0:0:0:
396,312,80120,2,0,P|436:220|432:120,1,200,2|0,0:0|0:0,0:0:0:0:
404,28,81179,1,8,0:0:0:0:
332,100,81532,6,0,P|280:100|232:92,1,100,2|8,0:0|0:0,0:0:0:0:
140,136,82238,2,0,P|116:184|84:220,2,100,0|8|2,0:0|0:0|0:0,0:0:0:0:
216,200,83297,1,8,0:0:0:0:
316,208,83649,1,8,0:0:0:0:
404,164,84002,1,8,0:0:0:0:
440,72,84355,6,0,P|389:68|346:87,1,100,2|8,0:0|0:0,0:0:0:0:
300,112,84885,2,0,P|204:136|108:112,2,200,8|8|8,0:0|0:0|0:0,0:0:0:0:
368,184,86649,1,8,0:0:0:0:
256,192,87002,12,0,88414,0:0:0:0:
