osu file format v12

[General]
AudioFilename: Kimi ni Matsuwaru Mystery.mp3
AudioLeadIn: 1500
PreviewTime: 55216
Countdown: 0
SampleSet: Soft
StackLeniency: 0.5
Mode: 0
LetterboxInBreaks: 0

[Editor]
DistanceSpacing: 1.2
BeatDivisor: 4
GridSize: 4

[Metadata]
Title:Kimi ni Matsuwaru Mystery (TV Size)
TitleUnicode:君にまつわるミステリー (TV Size)
Artist:Satou Satomi & Kayano Ai
ArtistUnicode:佐藤 聡美 & 茅野 愛衣
Creator:Guy
Version:Hard
Source:Hyouka
Tags:ending kyoani kyoto animation maaagic chitanda eru ibara mayaka
BeatmapID:189948
BeatmapSetID:64577

[Difficulty]
HPDrainRate:6
CircleSize:4
OverallDifficulty:6
ApproachRate:7
SliderMultiplier:1.4
SliderTickRate:1

[Events]
//Background and Video events
0,0,"bgg.jpg",0,0
Video,0,"Kimi ni Matsuwaru Mystery.avi"
//Break Periods
//Storyboard Layer 0 (Background)
//Storyboard Layer 1 (Fail)
//Storyboard Layer 2 (Pass)
//Storyboard Layer 3 (Foreground)
//Storyboard Sound Samples
//Background Colour Transformations
3,100,163,162,255

[TimingPoints]
-350,352.941176470588,4,2,1,60,1,0
13326,-100,4,2,1,50,0,0
13502,-100,4,2,1,60,0,0
39532,-133.333333333333,4,2,1,60,0,0
44826,-100,4,2,1,45,0,0
46238,-100,4,2,1,50,0,0
47649,-100,4,2,1,60,0,0
50473,-100,4,2,1,45,0,0
55414,-200,4,2,1,60,0,0
55502,-200,4,2,1,10,0,0
56120,-100,4,2,1,60,0,1
63091,-100,4,2,1,40,0,1
63267,-100,4,2,1,60,0,1
63797,-100,4,2,1,40,0,1
63973,-100,4,2,1,60,0,1
64502,-100,4,2,1,40,0,1
64679,-100,4,2,1,60,0,1
72532,-100,4,2,1,45,0,1
73149,-100,4,2,1,60,0,1
84355,-100,4,2,1,60,0,0
87091,-100,4,2,1,45,0,0
88414,-100,4,2,1,5,0,0

[Colours]
Combo1 : 0,255,0
Combo2 : 255,85,85
Combo3 : 128,128,255

[HitObjects]
256,120,1944,2,0,B|252:144|252:144|260:168|260:168|256:192,1,70,0|8,0:0|0:0,0:0:0:0:
124,296,2473,6,0,B|180:340|256:340,1,140,6|8,0:0|0:0,0:0:0:0:
424,340,3179,2,0,B|460:332|484:304,2,70,0|0|8,0:0|0:0|0:0,0:0:0:0:
340,340,3708,2,0,B|340:200,1,140
340,116,4238,2,0,B|284:64|212:64,1,140,8|0,0:0|0:0,0:0:0:0:
180,228,4944,5,10,0:0:0:0:
100,248,5120,1,2,0:0:0:0:
40,188,5297,2,0,B|56:116|120:76,1,140,2|8,0:0|0:0,0:0:0:0:
256,172,6002,2,0,B|256:96,2,70,0|0|8,0:0|0:0|0:0,0:0:0:0:
340,172,6532,2,0,B|412:172|464:236,1,140
460,316,7061,2,0,B|410:376|338:376,1,140,8|0,0:0|0:0,0:0:0:0:
256,376,7591,5,2,0:0:0:0:
172,364,7767,1,10,0:0:0:0:
112,304,7944,1,2,0:0:0:0:
100,220,8120,2,0,B|96:184|112:152,2,70,6|0|8,0:0|0:0|0:0,0:0:0:0:
268,192,8826,5,0,0:0:0:0:
348,172,9002,1,0,0:0:0:0:
288,112,9179,1,8,0:0:0:0:
208,136,9355,2,0,B|136:136|84:192,1,140,2|0,0:0|0:0,0:0:0:0:
84,276,9885,2,0,B|136:332|208:332,1,140,8|0,0:0|0:0,0:0:0:0:
292,332,10414,2,0,B|320:332|320:332|348:332|368:320,2,70,2|10|2,0:0|0:0|0:0,0:0:0:0:
256,192,10944,12,0,12179,0:0:0:0:
216,232,12532,6,0,B|140:232,2,70,2|8|0,0:0|0:0|0:0,0:0:0:0:
296,152,13061,2,0,B|366:152,2,70,2|0|8,0:0|0:0|0:0,0:0:0:0:
88,188,13767,6,0,B|96:116|152:68,1,140,6|0,0:0|0:0,0:0:0:0:
360,68,14473,2,0,B|416:116|424:188,1,140,2|8,0:0|0:0,0:0:0:0:
256,216,15179,6,0,B|292:216|320:244,1,70,0|2,0:0|0:0,0:0:0:0:
256,300,15532,2,0,B|220:300|192:272,1,70,0|2,0:0|0:0,0:0:0:0:
176,192,15885,2,0,B|156:180|144:128|156:76|176:64,1,140,0|10,0:0|0:0,0:0:0:0:
344,40,16591,6,0,B|296:64|296:64|276:104|240:128,1,140,2|0,0:0|0:0,0:0:0:0:
154,136,17120,1,0,0:0:0:0:
80,180,17297,2,0,B|64:236|64:236|88:268|96:312,1,140,2|8,0:0|0:0,0:0:0:0:
256,360,18002,6,0,B|292:352|316:324,1,70,0|0,0:0|0:0,0:0:0:0:
244,276,18355,2,0,B|220:248|184:240,1,70,0|0,0:0|0:0,0:0:0:0:
116,292,18708,1,0,0:0:0:0:
104,208,18885,1,0,0:0:0:0:
168,152,19061,1,8,0:0:0:0:
332,196,19414,6,0,B|356:164|356:164|352:116|380:68,2,140,2|0|2,0:0|0:0|0:0,0:0:0:0:
248,196,20297,2,0,B|224:192|224:192|200:200|200:200|176:196,2,70,0|10|2,0:0|0:0|0:0,0:0:0:0:
108,292,21002,6,0,B|136:312|180:312,1,70,2|0,0:0|0:0,0:0:0:0:
260,316,21355,2,0,B|336:312|384:260,1,140,2|8,0:0|0:0,0:0:0:0:
420,184,21885,1,8,0:0:0:0:
384,108,22061,1,8,0:0:0:0:
220,72,22414,6,0,B|192:72|192:72|172:60|148:60,2,70,2|10|2,0:0|0:0|0:0,0:0:0:0:
64,140,23120,2,0,B|92:140|92:140|112:152|136:152,2,70,2|10|2,0:0|0:0|0:0,0:0:0:0:
224,192,23826,6,0,B|208:224|176:240,1,70,2|8,0:0|0:0,0:0:0:0:
92,280,24179,2,0,B|104:316|128:340,1,70,10|0,0:0|0:0,0:0:0:0:
216,324,24532,2,0,B|240:328|252:340|252:340|264:328|284:324,1,70,2|8,0:0|0:0,0:0:0:0:
348,164,25061,6,0,B|368:132|400:120,1,70,6|0,0:0|0:0,0:0:0:0:
476,156,25414,2,0,B|456:188|424:200,1,70,10|0,0:0|0:0,0:0:0:0:
352,248,25767,1,2,0:0:0:0:
276,212,25944,1,0,0:0:0:0:
348,164,26120,1,10,0:0:0:0:
272,128,26297,2,0,B|200:128,1,70,2|0,0:0|0:0,0:0:0:0:
124,212,26649,6,0,B|196:212,1,70,2|8,0:0|0:0,0:0:0:0:
276,212,27002,1,2,0:0:0:0:
272,296,27179,2,0,B|200:296,1,70,0|2,0:0|0:0,0:0:0:0:
116,296,27532,1,8,0:0:0:0:
44,252,27708,1,0,0:0:0:0:
48,168,27885,6,0,B|72:128|132:116|172:136,1,140,2|8,0:0|0:0,0:0:0:0:
124,212,28414,1,2,0:0:0:0:
124,212,28591,2,0,B|164:232|224:220|248:180,1,140,2|8,0:0|0:0,0:0:0:0:
412,64,29297,5,2,0:0:0:0:
440,112,29649,1,2,0:0:0:0:
392,136,30002,1,2,0:0:0:0:
360,88,30355,1,2,0:0:0:0:
140,48,30708,6,0,B|88:100|88:176,1,140,0|10,0:0|0:0,0:0:0:0:
84,260,31238,1,2,0:0:0:0:
124,332,31414,2,0,B|160:336|184:352|184:352|192:344,2,70,2|2|8,0:0|0:0|0:0,0:0:0:0:
172,260,31944,2,0,B|224:208|224:132,1,140,2|0,0:0|0:0,0:0:0:0:
212,52,32473,5,8,0:0:0:0:
224,134,32649,2,0,B|276:186|352:186,1,140,2|0,0:0|0:0,0:0:0:0:
432,164,33179,1,8,0:0:0:0:
432,164,33355,1,2,0:0:0:0:
352,132,33532,6,0,B|300:184|300:260,1,140,2|8,0:0|0:0,0:0:0:0:
320,340,34061,2,0,B|256:352|220:296|220:296|208:324,1,140,2|2,0:0|0:0,0:0:0:0:
128,324,34591,1,8,0:0:0:0:
128,324,34767,6,0,B|60:288|60:208,1,140,2|0,0:0|0:0,0:0:0:0:
112,144,35297,1,10,0:0:0:0:
112,144,35473,2,0,B|180:180|180:260,1,140,2|0,0:0|0:0,0:0:0:0:
212,336,36002,1,10,0:0:0:0:
212,336,36179,2,0,B|284:356|352:336,1,140,2|0,0:0|0:0,0:0:0:0:
408,272,36708,6,0,B|432:244|432:208,1,70,8|0,0:0|0:0,0:0:0:0:
348,208,37061,2,0,B|360:173|348:139,1,70,8|0,0:0|0:0,0:0:0:0:
268,168,37414,2,0,B|268:131|245:103,1,70,8|0,0:0|0:0,0:0:0:0:
180,160,37767,6,0,B|167:125|136:107,1,70,8|0,0:0|0:0,0:0:0:0:
92,180,38120,2,0,B|80:165|62:162,2,35,8|0|0,0:0|0:0|0:0,0:0:0:0:
36,244,38473,2,0,B|19:234|1:237,2,35,8|0|0,0:0|0:0|0:0,0:0:0:0:
8,324,38826,5,8,0:0:0:0:
96,356,39002,1,0,0:0:0:0:
116,264,39179,1,4,0:0:0:0:
256,176,39532,5,0,0:0:0:0:
256,304,39885,2,0,B|344:304|344:304|384:304|408:276,2,157.500006008148,10|2|2,0:0|0:0|0:0,0:0:0:0:
172,304,41297,1,2,0:0:0:0:
112,244,41649,1,2,0:0:0:0:
156,172,42002,1,10,0:0:0:0:
236,196,42355,1,0,0:0:0:0:
308,92,42708,6,0,P|280:92|256:88,1,52.5000020027161,10|0,0:0|0:0,0:0:0:0:
196,68,43061,1,2,0:0:0:0:
136,88,43238,2,0,B|72:132|56:220,1,157.500006008148,10|8,0:0|0:0,0:0:0:0:
56,272,43944,1,2,0:0:0:0:
56,272,44120,2,0,B|76:300|76:300|80:328|96:352,2,78.7500030040742,10|2|2,0:0|0:0|0:0,0:0:0:0:
128,228,44826,6,0,B|164:228|192:200,1,70,6|0,0:0|0:0,0:0:0:0:
256,148,45179,1,10,0:0:0:0:
256,148,45355,1,0,0:0:0:0:
321,201,45532,2,0,B|348:228|384:228,1,70,10|0,0:0|0:0,0:0:0:0:
448,176,45885,2,0,B|421:149|385:149,1,70,10|0,0:0|0:0,0:0:0:0:
304,112,46238,5,10,0:0:0:0:
220,124,46414,1,0,0:0:0:0:
136,140,46591,2,0,B|68:152,1,70,10|0,0:0|0:0,0:0:0:0:
52,236,46944,1,10,0:0:0:0:
96,308,47120,1,0,0:0:0:0:
176,284,47297,2,0,B|212:272|212:272|232:276|252:272,1,70,10|0,0:0|0:0,0:0:0:0:
308,328,47649,6,0,B|344:280|312:224|312:224|336:208,1,140,6|8,0:0|0:0,0:0:0:0:
412,172,48179,1,0,0:0:0:0:
344,124,48355,2,0,B|324:84|268:56|224:64,1,140,2|8,0:0|0:0,0:0:0:0:
68,200,49061,2,0,B|88:240|144:268|188:260,1,140,2|8,0:0|0:0,0:0:0:0:
356,260,49767,2,0,B|396:260|396:260|420:280|456:280,2,105,2|2|2,0:0|0:0|0:0,0:0:0:0:
272,260,50473,5,10,0:0:0:0:
188,260,50649,1,2,0:0:0:0:
144,332,50826,1,10,0:0:0:0:
228,332,51002,1,2,0:0:0:0:
188,260,51179,2,0,B|128:212|120:140,1,140,10|8,0:0|0:0,0:0:0:0:
160,44,51708,1,2,0:0:0:0:
160,44,51885,6,0,B|220:92|228:164,1,140,10|8,0:0|0:0,0:0:0:0:
292,244,52414,2,0,B|352:240|388:196|388:196|420:208,1,140,10|0,0:0|0:0,0:0:0:0:
476,268,52944,1,8,0:0:0:0:
496,188,53120,1,0,0:0:0:0:
440,128,53297,5,12,0:0:0:0:
356,128,53473,1,2,0:0:0:0:
356,128,53649,1,10,0:0:0:0:
312,200,53826,2,0,B|276:208|240:200,1,70,2|2,0:0|0:0,0:0:0:0:
160,200,54179,2,0,B|124:192|88:200,2,70,2|10|6,0:0|0:0|0:0,0:0:0:0:
256,324,55414,6,0,B|268:292|244:256|256:220,1,105,0|0,0:0|0:0,0:0:0:0:
256,136,56120,6,0,B|280:108|320:108,1,70,6|0,0:0|0:0,0:0:0:0:
400,104,56473,2,0,B|420:132|420:132|444:136|460:152,1,70,8|0,0:0|0:0,0:0:0:0:
460,228,56826,2,0,B|488:252|488:292,2,70,0|0|10,0:0|0:0|0:0,0:0:0:0:
380,204,57355,6,0,B|312:224|268:284,1,140,2|0,0:0|0:0,0:0:0:0:
192,324,57885,2,0,B|156:332|120:324,1,70,8|0,0:0|0:0,0:0:0:0:
72,256,58238,2,0,B|48:224|48:224|52:192|36:160,2,105,2|2|2,0:0|0:0|0:0,0:0:0:0:
132,200,58944,6,0,B|164:184|200:188,1,70,2|0,0:0|0:0,0:0:0:0:
284,204,59297,1,8,0:0:0:0:
284,204,59473,1,0,0:0:0:0:
268,120,59649,2,0,B|252:88|256:52,2,70,0|0|10,0:0|0:0|0:0,0:0:0:0:
284,204,60179,6,0,B|288:276|336:332,1,140,2|0,0:0|0:0,0:0:0:0:
416,352,60708,2,0,B|452:344|480:320,1,70,8|0,0:0|0:0,0:0:0:0:
476,236,61061,2,0,B|500:204|500:204|496:172|512:140,2,105,2|2|2,0:0|0:0|0:0,0:0:0:0:
400,200,61767,6,0,B|340:156|268:156,1,140,2|8,0:0|0:0,0:0:0:0:
184,164,62297,1,2,0:0:0:0:
100,308,62649,2,0,B|136:308|168:292,1,70,2|10,0:0|0:0,0:0:0:0:
248,268,63002,1,2,0:0:0:0:
256,184,63179,6,0,B|256:140|280:112|280:112|276:80,2,105,4|2|2,0:0|0:0|0:0,0:0:0:0:
256,184,63885,6,0,B|294:206|306:240|306:240|336:253,2,105,4|2|2,0:0|0:0|0:0,0:0:0:0:
256,184,64591,6,0,B|217:206|181:199|181:199|155:218,2,105,4|2|2,0:0|0:0|0:0,0:0:0:0:
328,136,65297,6,0,B|356:116|368:80,1,70
296,40,65649,2,0,B|268:60|256:96,1,70,10|0,0:0|0:0,0:0:0:0:
256,184,66002,2,0,B|236:256|172:292,1,140,2|10,0:0|0:0,0:0:0:0:
88,304,66532,1,0,0:0:0:0:
44,232,66708,2,0,B|16:128,2,105,2|2|2,0:0|0:0|0:0,0:0:0:0:
88,304,67414,6,0,B|152:336|224:328,1,140,6|8,0:0|0:0,0:0:0:0:
308,312,67944,1,0,0:0:0:0:
380,268,68120,2,0,B|408:256|408:256|432:260|452:256,2,70,0|0|10,0:0|0:0|0:0,0:0:0:0:
304,228,68649,6,0,B|276:180|288:128|288:128|260:104,1,140,2|0,0:0|0:0,0:0:0:0:
184,68,69179,2,0,B|148:60|116:72,1,70,8|0,0:0|0:0,0:0:0:0:
40,112,69532,2,0,B|36:144|51:175|51:175|32:220,2,105,2|2|2,0:0|0:0|0:0,0:0:0:0:
124,128,70238,6,0,B|196:136|260:104,1,140,2|8,0:0|0:0,0:0:0:0:
332,60,70767,1,0,0:0:0:0:
408,100,70944,2,0,B|472:136,1,70,0|2,0:0|0:0,0:0:0:0:
460,220,71297,2,0,B|396:184,1,70,10|6,0:0|0:0,0:0:0:0:
256,96,71826,5,2,0:0:0:0:
152,280,72179,1,4,0:0:0:0:
360,280,72532,1,2,0:0:0:0:
76,144,73061,6,0,B|52:212|76:284,1,140,4|10,0:0|0:0,0:0:0:0:
140,336,73591,2,0,B|176:336|204:368,2,70,2|2|2,0:0|0:0|0:0,0:0:0:0:
156,252,74120,1,8,0:0:0:0:
236,228,74297,1,0,0:0:0:0:
176,168,74473,6,0,B|208:104|284:84,1,140,2|10,0:0|0:0,0:0:0:0:
368,84,75002,1,2,0:0:0:0:
440,128,75179,2,0,B|468:140|468:140|472:164|492:180,2,70,2|2|8,0:0|0:0|0:0,0:0:0:0:
432,296,75885,6,0,B|364:304|364:304|336:276|304:264,1,140,0|10,0:0|0:0,0:0:0:0:
236,216,76414,1,2,0:0:0:0:
220,300,76591,2,0,B|172:296|136:232|152:196,1,140,2|10,0:0|0:0,0:0:0:0:
236,216,77120,6,0,B|252:180|216:116|168:112,1,140,2|0,0:0|0:0,0:0:0:0:
88,132,77649,2,0,B|64:160|60:196,1,70,10|0,0:0|0:0,0:0:0:0:
72,280,78002,2,0,B|108:344|188:352,1,140,2|10,0:0|0:0,0:0:0:0:
352,340,78708,6,0,B|388:332|416:304,2,70,4|2|10,0:0|0:0|0:0,0:0:0:0:
340,256,79238,2,0,B|340:184,2,70,2|2|2,0:0|0:0|0:0,0:0:0:0:
272,304,79767,1,8,0:0:0:0:
192,280,79944,1,0,0:0:0:0:
168,200,80120,1,2,0:0:0:0:
212,128,80297,6,0,B|192:96|156:88,2,70,2|8|2,0:0|0:0|0:0,0:0:0:0:
256,200,80826,2,0,B|256:272,2,70,2|2|8,0:0|0:0|0:0,0:0:0:0:
300,128,81355,2,0,B|316:92|384:64|420:76,1,140,2|0,0:0|0:0,0:0:0:0:
480,136,81885,5,8,0:0:0:0:
492,220,82061,1,0,0:0:0:0:
464,300,82238,1,8,0:0:0:0:
388,332,82414,1,0,0:0:0:0:
304,332,82591,1,8,0:0:0:0:
240,280,82767,1,0,0:0:0:0:
220,196,82944,1,10,0:0:0:0:
220,196,83297,6,0,B|152:196|152:196|116:172|80:168,2,140,10|2|10,0:0|0:0|0:0,0:0:0:0:
368,112,84355,6,0,B|440:112,2,70,2|0|8,0:0|0:0|0:0,0:0:0:0:
284,112,84885,1,0,0:0:0:0:
184,248,85238,6,0,B|112:248,2,70,0|8|0,0:0|0:0|0:0,0:0:0:0:
352,248,85944,5,0,0:0:0:0:
432,228,86120,1,8,0:0:0:0:
448,144,86297,1,0,0:0:0:0:
256,104,86649,6,0,B|256:174,1,70,8|8,0:0|0:0,0:0:0:0:
256,260,87002,1,4,0:0:0:0:
256,192,87091,12,0,88414,0:0:0:0:
