osu file format v12

[General]
AudioFilename: Shiawase High Tension (TV Size).mp3
AudioLeadIn: 1000
PreviewTime: 49066
Countdown: 0
SampleSet: Soft
StackLeniency: 0.7
Mode: 0
LetterboxInBreaks: 0

[Editor]
DistanceSpacing: 1
BeatDivisor: 4
GridSize: 8

[Metadata]
Title:Shiawase High Tension (TV Size)
TitleUnicode:シアワセ☆ハイテンション↑↑ (TV Size)
Artist:Satou Rina, Inoue Marina & Chihara Minori
ArtistUnicode:佐藤利奈, 井上麻里奈 & 茅原実里
Creator:wcx19911123
Version:Insane
Source:Minami-ke Tadaima
Tags:popner Minami Haruka Minami Kana Minami Chiaki opening
BeatmapID:208362
BeatmapSetID:72658

[Difficulty]
HPDrainRate:7
CircleSize:4
OverallDifficulty:7
ApproachRate:9
SliderMultiplier:1.92
SliderTickRate:1

[Events]
//Background and Video events
0,0,"BG.jpg",0,0
Video,50,"Shiawase High Tension (TV Size).avi"
//Break Periods
//Storyboard Layer 0 (Background)
//Storyboard Layer 1 (Fail)
//Storyboard Layer 2 (Pass)
//Storyboard Layer 3 (Foreground)
//Storyboard Sound Samples
//Background Colour Transformations
3,100,163,162,255

[TimingPoints]
449,352.941176470588,4,2,1,60,1,0
9096,-100,4,2,1,45,0,0
10331,-100,4,2,1,60,0,0
10596,-100,4,2,1,45,0,0
10684,-100,4,2,1,60,0,0
11919,-100,4,2,1,45,0,0
12096,-100,4,2,1,60,0,0
12272,-100,4,2,1,45,0,0
12625,-100,4,2,1,55,0,0
12801,-100,4,1,1,45,0,0
12978,-100,4,2,1,55,0,0
13154,-100,4,2,1,70,0,0
23743,-100,4,2,1,45,0,0
23919,-100,4,2,1,51,0,0
24096,-100,4,2,1,57,0,0
24272,-100,4,2,1,63,0,0
24448,-100,4,2,1,60,0,0
29919,-100,4,2,1,45,0,0
30096,-100,4,2,1,60,0,0
35213,-100,4,2,1,45,0,0
35390,-100,4,2,1,60,0,0
41213,-100,4,2,1,45,0,0
41390,-100,4,2,1,60,0,0
49331,-100,4,2,1,45,0,0
49507,-100,4,1,1,45,0,0
49684,-100,4,2,1,60,0,0
49860,-100,4,2,1,70,0,1
60890,-100,4,2,1,50,0,1
61066,-100,4,2,1,50,0,0
61154,-100,4,2,1,70,0,1
71213,-100,4,2,1,50,0,1
71566,-100,4,2,1,70,0,1
71743,-100,4,2,1,50,0,1
71919,-100,4,2,1,70,0,1
72096,-100,4,1,1,50,0,1
72360,-100,4,1,1,50,0,0
72448,-100,4,2,1,70,0,1
82507,-100,4,2,1,50,0,1
82860,-100,4,2,1,70,0,1
83390,-100,4,1,1,50,0,1
83566,-100,4,2,1,70,0,1
83743,-100,4,2,1,70,0,0
85331,-100,4,2,1,50,0,0
85860,-100,4,2,1,60,0,0
86213,-100,4,2,1,70,0,0
86566,-100,4,2,1,60,0,0
86919,-100,4,2,1,50,0,0
87272,-100,4,2,1,40,0,0
87625,-100,4,2,1,30,0,0
87978,-100,4,2,1,20,0,0
88331,-100,4,2,1,10,0,0
88684,-100,4,2,1,5,0,0

[Colours]
Combo1 : 77,162,255
Combo2 : 255,163,70
Combo3 : 47,255,156
Combo4 : 255,77,233

[HitObjects]
32,144,1154,1,0,0:0:0:0:
32,144,1331,1,0,0:0:0:0:
96,64,1507,1,0,0:0:0:0:
96,64,1684,1,0,0:0:0:0:
160,144,1860,6,0,P|192:176|256:176,1,96,4|0,0:0|0:0,0:0:0:0:
272,16,2213,2,0,P|240:48|240:112,1,96,2|0,0:0|0:0,0:0:0:0:
400,128,2566,2,0,P|368:96|304:96,2,96,0|0|2,0:0|0:0|0:0,0:0:0:0:
320,360,3096,6,0,B|376:264|272:272|328:176,1,192
408,224,3625,1,2,0:0:0:0:
240,312,3801,2,0,L|48:312,1,192
48,312,4331,1,2,0:0:0:0:
48,312,4507,1,2,0:0:0:0:
48,120,4684,6,0,P|80:88|144:88,1,96,0|0,0:0|0:0,0:0:0:0:
160,256,5037,2,0,P|128:224|128:160,1,96,2|0,0:0|0:0,0:0:0:0:
296,144,5390,2,0,P|264:176|200:176,2,96,0|0|2,0:0|0:0|0:0,0:0:0:0:
424,8,5919,6,0,B|480:104|376:96|432:192,1,192
512,144,6448,1,2,0:0:0:0:
344,56,6625,2,0,L|152:56,1,192
152,56,7154,1,2,0:0:0:0:
152,56,7331,1,2,0:0:0:0:
256,344,7507,5,4,0:0:0:0:
256,248,7860,1,0,0:0:0:0:
256,152,8213,1,4,0:0:0:0:
256,56,8566,1,8,0:0:0:0:
256,56,8743,1,0,0:0:0:0:
256,56,8919,5,4,0:0:0:0:
256,152,9096,1,8,0:0:0:0:
256,152,9184,1,8,0:0:0:0:
256,152,9272,1,8,0:0:0:0:
256,248,9448,1,8,0:0:0:0:
256,344,9625,1,8,0:0:0:0:
256,344,9801,1,8,0:0:0:0:
256,344,9978,1,8,0:0:0:0:
40,344,10331,6,0,P|40:296|128:232,1,144,4|8,0:0|0:0,0:0:0:0:
152,232,10684,1,8,0:0:0:0:
256,96,10860,2,0,P|312:168|224:232,1,192,4|8,0:0|0:0,0:0:0:0:
256,232,11390,1,0,0:0:0:0:
240,28,11566,6,0,P|184:100|272:164,1,192,4|8,0:0|0:0,0:0:0:0:
344,40,12096,1,8,0:0:0:0:
416,104,12272,1,8,0:0:0:0:
416,104,12360,1,8,0:0:0:0:
416,104,12448,1,8,0:0:0:0:
456,192,12625,1,8,0:0:0:0:
416,280,12801,1,8,0:0:0:0:
344,344,12978,1,8,0:0:0:0:
256,192,13154,6,0,P|224:160|160:160,1,96,4|0,0:0|0:0,0:0:0:0:
144,328,13507,2,0,P|176:296|176:232,1,96,8|0,0:0|0:0,0:0:0:0:
8,216,13860,2,0,P|40:248|104:248,2,96,0|0|8,0:0|0:0|0:0,0:0:0:0:
264,152,14390,6,0,B|168:208|176:104|80:160,1,192,4|0,0:0|0:0,0:0:0:0:
216,80,14919,1,8,0:0:0:0:
216,80,15096,1,0,0:0:0:0:
472,344,15448,1,8,0:0:0:0:
472,344,15625,1,8,0:0:0:0:
472,80,15801,5,0,0:0:0:0:
472,80,15890,1,0,0:0:0:0:
472,80,15978,2,0,P|440:48|376:48,1,96,4|0,0:0|0:0,0:0:0:0:
360,216,16331,2,0,P|392:184|392:120,1,96,8|0,0:0|0:0,0:0:0:0:
224,104,16684,2,0,P|256:136|320:136,2,96,0|0|8,0:0|0:0|0:0,0:0:0:0:
408,296,17213,6,0,B|312:352|320:248|224:304,1,192,4|0,0:0|0:0,0:0:0:0:
360,216,17743,1,8,0:0:0:0:
360,216,17919,1,0,0:0:0:0:
40,344,18272,1,8,0:0:0:0:
40,344,18448,1,8,0:0:0:0:
152,80,18625,5,0,0:0:0:0:
152,80,18713,1,0,0:0:0:0:
152,80,18801,2,0,P|96:152|184:216,1,192,4|8,0:0|0:0,0:0:0:0:
360,304,19331,1,0,0:0:0:0:
360,304,19507,2,0,P|416:232|328:168,1,192,4|8,0:0|0:0,0:0:0:0:
72,160,20037,6,0,L|264:160,1,192,4|0,0:0|0:0,0:0:0:0:
264,160,20566,1,8,0:0:0:0:
416,96,20743,1,0,0:0:0:0:
416,96,20919,2,0,P|416:112|360:160,1,96
360,160,21272,1,8,0:0:0:0:
48,96,21625,6,0,P|120:40|184:128,1,192,4|8,0:0|0:0,0:0:0:0:
116,304,22154,1,0,0:0:0:0:
116,304,22243,1,0,0:0:0:0:
116,304,22331,2,0,L|116:208,1,96,0|8,0:0|0:0,0:0:0:0:
116,112,22684,1,8,0:0:0:0:
356,136,22860,6,0,P|284:192|220:104,1,192,4|8,0:0|0:0,0:0:0:0:
288,24,23390,2,0,L|288:120,1,96,8|0,0:0|0:0,0:0:0:0:
288,288,23743,1,8,0:0:0:0:
200,344,23919,1,8,0:0:0:0:
96,328,24096,1,8,0:0:0:0:
40,240,24272,1,8,0:0:0:0:
40,136,24448,6,0,P|40:120|112:56,1,96,4|0,0:0|0:0,0:0:0:0:
87,60,24801,1,8,0:0:0:0:
208,192,24978,1,0,0:0:0:0:
208,192,25066,1,0,0:0:0:0:
208,192,25154,2,0,P|192:192|128:120,2,96,0|0|8,0:0|0:0|0:0,0:0:0:0:
392,96,25684,6,0,B|296:152|304:48|208:104,1,192
344,24,26213,1,8,0:0:0:0:
256,184,26390,1,0,0:0:0:0:
256,184,26478,1,0,0:0:0:0:
256,184,26566,2,0,L|256:288,1,96
256,376,26919,1,8,0:0:0:0:
256,376,27096,5,8,0:0:0:0:
188,168,27272,2,0,P|260:112|324:200,1,192,0|8,0:0|0:0,0:0:0:0:
88,240,27801,1,0,0:0:0:0:
88,240,27890,1,0,0:0:0:0:
88,240,27978,2,0,L|88:144,1,96
88,48,28331,1,8,0:0:0:0:
156,256,28507,6,0,P|84:312|20:224,1,192
88,48,29037,1,8,0:0:0:0:
88,48,29213,2,0,L|184:48,1,96
408,48,29566,1,8,0:0:0:0:
408,48,29743,1,8,0:0:0:0:
480,192,29919,5,8,0:0:0:0:
480,192,30007,1,8,0:0:0:0:
480,192,30096,2,0,P|480:208|424:272,1,96,4|0,0:0|0:0,0:0:0:0:
208,184,30448,1,8,0:0:0:0:
208,184,30625,2,0,B|304:240|296:136|392:192,1,192
256,112,31154,1,8,0:0:0:0:
344,272,31331,5,0,0:0:0:0:
344,272,31419,1,0,0:0:0:0:
344,272,31507,2,0,P|344:288|288:352,1,96
72,264,31860,1,8,0:0:0:0:
72,264,32037,2,0,B|168:320|160:216|256:272,1,192
208,352,32566,1,8,0:0:0:0:
120,184,32743,5,0,0:0:0:0:
120,184,32831,1,0,0:0:0:0:
120,184,32919,2,0,L|120:88,1,96
120,88,33272,1,8,0:0:0:0:
216,24,33448,1,0,0:0:0:0:
216,24,33625,2,0,L|216:128,1,96
216,312,33978,1,8,0:0:0:0:
304,368,34154,6,0,P|328:368|384:320,1,96,0|4,0:0|0:0,0:0:0:0:
256,200,34507,2,0,P|256:224|304:280,2,96,0|8|0,0:0|0:0|0:0,0:0:0:0:
296,112,35037,1,0,0:0:0:0:
392,120,35213,1,8,0:0:0:0:
392,120,35301,1,8,0:0:0:0:
392,120,35390,2,0,P|392:144|344:200,1,96,8|8,0:0|0:0,0:0:0:0:
160,200,35743,6,0,P|136:200|80:152,1,96,4|0,0:0|0:0,0:0:0:0:
82,157,36096,1,8,0:0:0:0:
208,32,36272,1,0,0:0:0:0:
208,32,36360,1,0,0:0:0:0:
208,32,36449,2,0,P|208:56|160:112,1,96
112,32,36801,1,8,0:0:0:0:
256,160,36978,6,0,L|256:352,1,192
352,160,37507,1,8,0:0:0:0:
352,160,37684,2,0,L|352:264,1,96
352,64,38037,1,8,0:0:0:0:
352,64,38213,1,8,0:0:0:0:
472,304,38566,6,0,P|416:352|392:352,1,96
397,352,38919,1,8,0:0:0:0:
344,184,39096,1,0,0:0:0:0:
344,184,39184,1,0,0:0:0:0:
344,184,39272,2,0,P|392:240|392:264,1,96
296,264,39625,1,8,0:0:0:0:
296,104,39801,6,0,P|224:48|160:136,1,192
160,200,40331,1,8,0:0:0:0:
160,200,40507,1,0,0:0:0:0:
40,344,40684,1,8,0:0:0:0:
40,40,41037,1,8,0:0:0:0:
40,136,41213,5,8,0:0:0:0:
40,136,41301,1,8,0:0:0:0:
40,136,41390,2,0,P|40:160|80:216,1,96,4|0,0:0|0:0,0:0:0:0:
216,96,41743,1,8,0:0:0:0:
216,96,41919,2,0,P|192:96|136:136,1,96
296,232,42272,1,0,0:0:0:0:
296,232,42449,2,0,P|272:232|216:192,1,96,8|0,0:0|0:0,0:0:0:0:
296,136,42801,5,4,0:0:0:0:
296,136,42978,1,0,0:0:0:0:
424,208,43154,1,8,0:0:0:0:
424,208,43331,1,0,0:0:0:0:
472,344,43507,1,8,0:0:0:0:
472,40,43860,1,8,0:0:0:0:
336,272,44213,6,0,P|312:272|256:232,1,96,4|0,0:0|0:0,0:0:0:0:
256,128,44566,1,8,0:0:0:0:
512,176,44743,2,0,B|416:232|424:128|328:184,1,192
384,264,45272,1,8,0:0:0:0:
464,104,45448,6,0,P|392:48|328:136,1,192,4|0,0:0|0:0,0:0:0:0:
328,256,45978,2,0,P|328:280|288:336,1,96,8|0,0:0|0:0,0:0:0:0:
160,216,46331,2,0,P|184:216|240:256,2,96,8|8|8,0:0|0:0|0:0,0:0:0:0:
24,312,46860,6,0,P|96:368|160:280,1,192,4|0,0:0|0:0,0:0:0:0:
344,208,47390,2,0,P|304:232|256:224,1,96,8|0,0:0|0:0,0:0:0:0:
128,120,47743,2,0,P|168:144|216:136,1,96,8|0,0:0|0:0,0:0:0:0:
392,80,48096,2,0,P|352:104|304:96,1,96,8|0,0:0|0:0,0:0:0:0:
256,16,48448,5,8,0:0:0:0:
256,16,48625,1,8,0:0:0:0:
256,16,48801,1,8,0:0:0:0:
256,16,49154,1,0,0:0:0:0:
256,128,49331,1,8,0:0:0:0:
256,128,49419,1,8,0:0:0:0:
256,128,49507,2,0,L|256:224,1,96,8|0,0:0|0:0,0:0:0:0:
168,72,49860,6,0,P|120:56|72:80,1,96,4|0,0:0|0:0,0:0:0:0:
128,248,50213,2,0,P|144:200|120:152,1,96,8|0,0:0|0:0,0:0:0:0:
40,208,50566,1,0,0:0:0:0:
88,336,50743,2,0,P|136:352|184:328,1,96,0|8,0:0|0:0,0:0:0:0:
256,192,51096,6,0,P|256:168|296:112,1,96,4|0,0:0|0:0,0:0:0:0:
392,88,51448,1,0,0:0:0:0:
392,88,51625,1,8,0:0:0:0:
336,248,51801,2,0,P|268:292|176:248,1,192
120,88,52331,1,8,0:0:0:0:
392,88,52684,6,0,P|432:104|464:160,1,96,4|0,0:0|0:0,0:0:0:0:
312,256,53037,2,0,P|328:216|384:184,1,96,8|0,0:0|0:0,0:0:0:0:
408,280,53390,1,0,0:0:0:0:
288,352,53566,2,0,P|248:336|216:280,1,96,0|8,0:0|0:0,0:0:0:0:
212,104,53919,6,0,P|144:60|52:104,1,192,4|0,0:0|0:0,0:0:0:0:
256,192,54448,1,8,0:0:0:0:
300,104,54625,2,0,P|368:60|460:104,1,192
496,192,55154,1,8,0:0:0:0:
496,192,55331,1,8,0:0:0:0:
300,104,55507,6,0,P|260:88|212:104,1,96,4|0,0:0|0:0,0:0:0:0:
212,280,55860,2,0,P|252:296|300:280,1,96,8|0,0:0|0:0,0:0:0:0:
344,192,56213,1,0,0:0:0:0:
168,192,56390,1,8,0:0:0:0:
168,192,56566,2,0,P|128:224|116:284,1,96,8|0,0:0|0:0,0:0:0:0:
212,104,56919,6,0,P|252:88|300:104,1,96,4|0,0:0|0:0,0:0:0:0:
300,280,57272,2,0,P|260:296|212:280,1,96,8|0,0:0|0:0,0:0:0:0:
168,192,57625,1,0,0:0:0:0:
344,192,57802,1,8,0:0:0:0:
344,192,57978,2,0,P|384:224|396:284,1,96,8|0,0:0|0:0,0:0:0:0:
120,272,58331,6,0,P|76:204|120:112,1,192,4|8,0:0|0:0,0:0:0:0:
392,112,58860,2,0,P|436:180|392:272,1,192,4|0,0:0|0:0,0:0:0:0:
256,352,59390,1,8,0:0:0:0:
256,232,59566,6,0,B|312:136|208:144|264:48,1,192,4|0,0:0|0:0,0:0:0:0:
176,184,60096,2,0,L|80:184,1,96,8|0,0:0|0:0,0:0:0:0:
344,104,60448,2,0,L|440:104,1,96,8|0,0:0|0:0,0:0:0:0:
176,40,60801,1,8,0:0:0:0:
176,40,60890,1,8,0:0:0:0:
176,40,60978,1,8,0:0:0:0:
352,8,61154,6,0,P|384:16|432:88,1,96,4|0,0:0|0:0,0:0:0:0:
291,178,61507,2,0,P|299:146|371:98,1,96,8|0,0:0|0:0,0:0:0:0:
384,192,61860,1,0,0:0:0:0:
328,272,62037,1,0,0:0:0:0:
232,256,62213,1,8,0:0:0:0:
208,104,62390,6,0,P|140:60|48:104,1,192,4|0,0:0|0:0,0:0:0:0:
256,192,62919,1,8,0:0:0:0:
304,104,63096,2,0,P|372:60|464:104,1,192
488,248,63625,1,8,0:0:0:0:
488,248,63801,1,0,0:0:0:0:
352,192,63978,6,0,L|256:192,1,96,4|0,0:0|0:0,0:0:0:0:
104,272,64331,2,0,L|200:272,1,96,8|0,0:0|0:0,0:0:0:0:
352,352,64684,2,0,L|256:352,1,96
48,352,65037,1,8,0:0:0:0:
40,184,65213,6,0,P|40:152|152:40,1,192,4|0,0:0|0:0,0:0:0:0:
256,112,65743,1,8,0:0:0:0:
472,184,65919,2,0,P|472:152|360:40,1,192
212,192,66448,2,0,P|252:208|300:192,1,96,8|8,0:0|0:0,0:0:0:0:
300,32,66801,6,0,P|260:16|212:32,1,96,4|0,0:0|0:0,0:0:0:0:
160,112,67154,1,8,0:0:0:0:
256,112,67331,1,0,0:0:0:0:
352,112,67507,1,0,0:0:0:0:
160,112,67684,1,8,0:0:0:0:
160,112,67860,2,0,P|128:144|116:192,1,96,8|0,0:0|0:0,0:0:0:0:
212,32,68213,6,0,P|252:16|300:32,1,96,4|0,0:0|0:0,0:0:0:0:
352,112,68566,1,8,0:0:0:0:
256,112,68743,1,0,0:0:0:0:
160,112,68919,1,0,0:0:0:0:
352,112,69096,1,8,0:0:0:0:
352,112,69272,2,0,P|384:144|396:192,1,96,8|0,0:0|0:0,0:0:0:0:
72,144,69625,6,0,P|80:64|176:16,1,192,4|8,0:0|0:0,0:0:0:0:
440,144,70154,2,0,P|432:64|336:16,1,192,4|0,0:0|0:0,0:0:0:0:
256,112,70684,1,8,0:0:0:0:
248,292,70860,6,0,B|304:196|200:204|256:112,1,192,4|8,0:0|0:0,0:0:0:0:
272,88,71301,1,8,0:0:0:0:
296,72,71390,2,0,P|344:64|392:80,1,96,8|0,0:0|0:0,0:0:0:0:
168,248,71743,2,0,P|120:256|72:240,1,96,8|0,0:0|0:0,0:0:0:0:
24,160,72096,1,8,0:0:0:0:
256,360,72448,6,0,P|280:368|352:344,1,96,4|0,0:0|0:0,0:0:0:0:
392,264,72801,1,8,0:0:0:0:
392,168,72978,1,0,0:0:0:0:
482,274,73154,2,0,P|458:282|386:258,1,96
300,144,73507,1,8,0:0:0:0:
192,40,73684,6,0,P|136:32|24:104,1,192,4|0,0:0|0:0,0:0:0:0:
212,144,74213,1,8,0:0:0:0:
320,40,74390,2,0,P|376:32|488:104,1,192
504,216,74919,1,8,0:0:0:0:
256,360,75272,6,0,P|232:368|160:344,1,96,4|0,0:0|0:0,0:0:0:0:
120,264,75625,1,8,0:0:0:0:
120,168,75802,1,0,0:0:0:0:
30,274,75978,2,0,P|54:282|126:258,1,96
212,144,76331,1,8,0:0:0:0:
320,40,76508,6,0,P|376:32|488:104,1,192,4|0,0:0|0:0,0:0:0:0:
300,144,77037,1,8,0:0:0:0:
192,40,77214,2,0,P|136:32|24:104,1,192,0|0,0:0|0:0,0:0:0:0:
8,216,77743,1,8,0:0:0:0:
8,216,77919,1,8,0:0:0:0:
212,144,78096,6,0,P|252:128|300:144,1,96,4|0,0:0|0:0,0:0:0:0:
300,304,78448,2,0,P|260:320|212:304,1,96,8|0,0:0|0:0,0:0:0:0:
160,224,78801,1,0,0:0:0:0:
352,224,78978,1,8,0:0:0:0:
352,224,79154,2,0,P|384:260|392:312,1,96,8|0,0:0|0:0,0:0:0:0:
300,144,79507,6,0,P|260:128|212:144,1,96,4|0,0:0|0:0,0:0:0:0:
212,304,79860,2,0,P|252:320|300:304,1,96,8|0,0:0|0:0,0:0:0:0:
352,224,80212,1,0,0:0:0:0:
160,224,80389,1,8,0:0:0:0:
160,224,80566,2,0,P|128:260|120:312,1,96,8|0,0:0|0:0,0:0:0:0:
400,304,80919,6,0,P|444:236|400:144,1,192,4|8,0:0|0:0,0:0:0:0:
112,144,81448,2,0,P|68:212|112:304,1,192,4|0,0:0|0:0,0:0:0:0:
256,352,81978,1,8,0:0:0:0:
256,240,82154,6,0,B|312:144|208:152|260:56,1,192,4|8,0:0|0:0,0:0:0:0:
272,32,82596,1,8,0:0:0:0:
296,16,82685,2,0,P|344:8|392:24,1,96,8|0,0:0|0:0,0:0:0:0:
176,192,83037,2,0,L|80:192,1,96,8|0,0:0|0:0,0:0:0:0:
344,104,83390,2,0,L|440:104,1,96,8|0,0:0|0:0,0:0:0:0:
480,272,83743,6,0,P|480:296|440:352,1,96,4|0,0:0|0:0,0:0:0:0:
304,248,84096,2,0,P|360:248|400:288,1,96,8|0,0:0|0:0,0:0:0:0:
320,344,84448,2,0,P|264:344|224:304,2,96,8|0|8,0:0|0:0|0:0,0:0:0:0:
456,200,84978,6,0,P|384:152|272:152,1,192,4|8,0:0|0:0,0:0:0:0:
152,240,85507,1,8,0:0:0:0:
152,240,85684,1,8,0:0:0:0:
104,96,85860,1,8,0:0:0:0:
104,96,86037,1,8,0:0:0:0:
256,32,86213,1,8,0:0:0:0:
256,32,86390,1,4,0:0:0:0:
256,192,86478,12,0,89213,0:0:0:0:
