osu file format v8

[General]
AudioFilename: 01-.mp3
AudioLeadIn: 0
PreviewTime: 54589
Countdown: 0
SampleSet: Soft
StackLeniency: 0.7
Mode: 0
LetterboxInBreaks: 1

[Editor]
DistanceSpacing: 1.2
BeatDivisor: 4
GridSize: 8

[Metadata]
Title:Sayonara
Artist:Satou Hiromi
Creator:Mokou_Fujiwara
Version:Shiika
Source:Mushi Uta
Tags:

[Difficulty]
HPDrainRate:4
CircleSize:4
OverallDifficulty:7
ApproachRate:7
SliderMultiplier:1.9
SliderTickRate:2

[Events]
//Background and Video events
0,0,"bg.jpg"
//Break Periods
2,94157,101418
//Storyboard Layer 0 (Background)
//Storyboard Layer 1 (Fail)
//Storyboard Layer 2 (Pass)
//Storyboard Layer 3 (Foreground)
//Storyboard Sound Samples
//Background Colour Transformations
3,100,82,103,84

[TimingPoints]
3958,491.803278688525,4,2,1,53,1,0
24028,-200,4,2,1,53,0,0
25750,-100,4,2,1,53,0,0
55504,-100,4,2,1,80,0,0
55627,-100,4,2,1,80,0,1
93988,-100,4,2,1,66,0,0
138127,-100,4,2,1,81,0,0
138250,-100,4,2,1,81,0,1
177594,-100,4,2,1,81,0,0

[Colours]
Combo1 : 186,169,254
Combo2 : 160,215,134
Combo3 : 236,238,142
Combo4 : 0,154,222

[HitObjects]
176,72,3958,1,0
88,144,4203,1,2
160,232,4449,2,0,B|224:320|336:272|336:272,2,190,4|0|0
352,112,5925,5,0
432,192,6171,1,2
320,224,6417,2,0,B|256:144|136:184,1,190,4|0
184,72,7154,5,0
88,136,7400,1,2
192,184,7646,1,0
88,240,7892,1,2
176,312,8138,1,0
192,184,8384,6,0,B|248:128|280:208|312:240|368:176|368:176,3,190,4|0|2|0
144,112,10351,2,0,B|48:200|168:280|168:280,2,190,4|2|0
368,96,11826,5,0
424,192,12072,1,2
328,248,12318,2,0,B|232:312|144:256|144:256,2,190,4|2|0
208,56,13794,5,0
112,112,14039,1,0
208,176,14285,2,0,B|304:96|400:128,1,190,4|0
352,232,15023,5,0
264,296,15269,2,0,B|192:328|128:288,1,95,0|2
200,192,15761,1,0
112,120,16007,1,0
216,80,16253,6,0,B|264:48|328:72,1,95,4|0
336,112,16621,1,0
304,160,16744,2,0,B|272:208|336:256,1,95,0|2
224,304,17236,6,0,B|144:312|152:208,1,95
120,208,17605,1,0
128,160,17728,2,0,B|168:112|248:112,1,95,0|2
304,48,18220,6,0,B|376:144,1,95,0|0
361,124,18589,1,0
361,124,18712,2,0,B|296:208,1,95
216,120,19203,2,0,B|152:120|152:120,2,47.5,2|0|0
176,232,19695,5,0
256,312,19941,1,0
336,232,20187,1,4
408,144,20433,5,0
384,96,20556,1,2
328,112,20679,2,0,B|264:72|208:112,1,95
128,64,21171,2,0,B|64:160,1,95,0|2
88,256,21662,5,0
168,336,21908,1,0
208,232,22154,1,4
312,288,22400,5,0
368,288,22523,1,0
424,288,22646,2,0,B|424:176,1,95,0|2
104,72,23138,6,0,B|224:72,1,95
408,72,23630,2,0,B|288:72,1,95
256,256,24121,2,0,B|256:96|256:96,2,142.5,4|0|0
40,192,26089,5,4
472,192,26580,1,0
256,192,26826,1,2
256,40,27564,5,0
256,152,27810,1,0
256,40,28056,6,0,B|216:96|272:160,1,95,4|2
296,168,28425,1,0
344,144,28548,2,0,B|384:104|464:168,1,95,0|2
424,200,28917,1,0
384,240,29039,2,0,B|320:248|320:320,1,95,0|2
208,304,29531,5,0
104,264,29777,1,0
120,152,30023,2,0,B|184:96|240:144,1,95,4|2
208,184,30392,1,0
208,240,30515,2,0,B|280:224|320:176,1,95
272,88,31007,5,0
376,144,31253,1,2
344,256,31498,1,0
376,144,31744,1,2
272,192,31990,6,0,B|240:256|160:248,1,95,4|2
144,224,32359,1,0
120,168,32482,2,0,B|104:112|176:80,1,95,0|2
272,88,32974,2,0,B|368:184|288:288,1,190,0|2
208,200,33712,6,0,B|168:152|112:232,1,95,0|4
200,304,34203,1,0
256,296,34326,1,0
304,264,34449,2,0,B|384:176|352:80,1,190,0|2
128,64,35433,6,0,B|64:112|96:168,1,95,8|0
168,224,35925,2,0,B|112:272|208:336,1,95,0|2
280,264,36417,1,8
312,216,36539,5,0
320,160,36662,2,0,B|288:80|232:96,1,95,0|2
144,112,37154,1,0
88,216,37400,1,8
144,312,37646,1,0
256,328,37892,5,0
312,312,38015,1,0
360,280,38138,2,0,B|416:216|400:176,1,95,0|8
328,104,38630,2,0,B|256:80|232:136|184:160|136:88,1,190,0|2
88,200,39367,6,0,B|184:312|256:304,1,190,8|0
344,256,40105,1,0
424,168,40351,2,0,B|384:88|312:120|312:120,2,95,8|2|0
352,256,41089,5,0
296,248,41212,1,0
240,232,41335,2,0,B|200:176|240:128|240:128,2,95,8|2|0
184,240,41949,1,0
128,224,42072,1,2
88,184,42195,1,0
72,128,42318,1,8
104,80,42441,1,0
160,56,42564,1,0
216,40,42687,2,0,B|304:64,1,47.5
312,272,43302,6,0,B|368:240|392:192,1,95,8|0
440,112,43794,2,0,B|328:56|248:120,1,190,0|8
152,136,44531,2,0,B|80:216|152:328,1,190
352,304,45269,1,8
408,96,45515,1,2
104,80,45761,6,0,B|24:16,1,95,8|2
104,304,46253,2,0,B|24:368,1,95,0|2
408,80,46744,2,0,B|488:16,1,95,8|2
408,304,47236,2,0,B|488:368,1,95,0|2
256,192,47728,12,0,49695
152,80,50433,5,8
80,168,50679,2,0,B|144:256,1,95,0|2
224,176,51171,2,0,B|328:224,1,95,0|10
256,192,51662,12,0,53630
408,64,54613,5,0
272,168,54859,1,2
408,272,55105,1,0
272,168,55351,1,2
160,176,55597,6,0,B|152:248|240:280,1,95,8|0
296,320,56089,1,0
336,280,56212,1,0
360,232,56335,2,0,B|400:160|376:128,1,95,2|0
432,240,56826,2,0,B|464:176|448:128,1,95,2|0
376,64,57318,5,0
272,104,57564,1,2
296,152,57687,1,0
288,208,57810,1,0
192,272,58056,5,2
144,240,58179,1,0
144,184,58302,2,0,B|128:120|176:96,1,95,0|2
224,200,58794,1,0
296,288,59039,1,0
376,208,59285,1,0
352,96,59531,5,0
304,64,59654,1,0
248,72,59777,2,0,B|144:96,1,95,2|0
136,208,60269,1,0
144,264,60392,1,0
192,296,60515,2,0,B|240:304|296:256,1,95,0|2
304,160,61007,1,0
304,160,61253,1,0
232,72,61498,6,0,B|152:48|112:96,1,95,0|2
96,112,61867,1,0
88,168,61990,2,0,B|56:216|104:272,1,95,0|2
112,312,62359,1,0
168,328,62482,2,0,B|232:368|288:336,1,95,0|2
368,304,62974,6,0,B|416:224|384:176,1,95,0|2
384,104,63466,1,0
336,80,63589,1,0
288,104,63712,2,0,B|216:128|216:176,1,95,2|0
248,56,64203,1,2
152,112,64449,1,0
128,168,64572,1,0
168,208,64695,2,0,B|216:272|272:272,1,95,2|0
408,224,65187,5,2
440,56,65433,2,0,B|360:136|240:64,1,190
208,72,66048,1,0
184,120,66171,2,0,B|168:176|104:184,1,95,2|0
168,280,66662,1,2
272,232,66908,1,0
352,312,67154,1,2
448,248,67400,5,0
472,192,67523,1,0
472,136,67646,2,0,B|408:96|360:128|360:128,2,95,2|0|2
360,168,68384,5,0
328,216,68507,1,0
280,248,68630,1,2
232,280,68753,1,0
176,296,68876,1,0
120,280,68998,1,0
88,232,69121,1,2
80,176,69244,1,0
112,128,69367,1,0
168,104,69490,1,0
216,136,69613,1,2
208,192,69736,1,0
152,176,69859,1,0
456,344,70351,5,0
320,232,70597,1,2
192,344,70843,1,0
64,232,71089,1,2
112,128,71335,5,0
152,88,71457,1,0
200,120,71580,2,0,B|224:184|288:192,1,95,2|0
240,72,72072,1,2
296,80,72195,1,0
336,120,72318,2,0,B|368:168|344:224|344:224,2,95,0|2|0
232,168,73056,5,2
136,232,73302,1,0
160,288,73425,1,0
208,312,73548,2,0,B|288:320|336:288,1,95,2|0
272,256,73917,1,0
328,272,74039,2,0,B|384:240|408:200|400:200,1,95,2|0
304,144,74531,1,2
416,152,74777,1,0
416,152,75023,1,2
344,64,75269,5,0
288,64,75392,1,0
320,112,75515,2,0,B|232:144|216:184,1,95,2|0
184,136,75884,1,0
200,192,76007,1,2
224,80,76253,2,0,B|128:48|40:136,1,190
176,312,77236,5,0
256,232,77482,1,2
344,304,77728,2,0,B|408:288|424:248|424:248,2,95,0|2|0
344,72,78712,6,0,B|256:56|248:112,1,95,0|2
144,112,79203,1,0
104,152,79326,1,0
120,208,79449,2,0,B|152:272|208:280,1,95
168,160,79941,1,0
200,208,80064,1,2
240,248,80187,2,0,B|296:288|344:288|344:288,2,95
224,136,80925,5,2
336,120,81171,2,0,B|384:88|440:112|440:112,1,95
400,216,81662,1,0
376,264,81785,1,0
328,288,81908,2,0,B|304:224|232:264,1,95,2|0
352,224,82400,1,0
248,88,82646,1,0
120,208,82892,1,2
168,312,83138,6,0,B|96:208|232:152,1,190,0|2
264,264,83876,2,0,B|376:192|336:96,1,190,0|2
232,72,84613,2,0,B|112:88|88:208,1,190,0|2
256,320,85351,5,0
184,256,85597,1,2
312,216,85843,1,0
112,160,86089,1,2
384,88,86335,1,0
56,72,86580,1,2
448,24,86826,1,0
248,96,87072,1,2
160,304,87564,5,0
160,304,87810,1,0
272,304,88056,2,0,B|384:288|376:192|376:192,2,142.5,0|2|0
256,192,89039,2,0,B|240:96|160:88|160:88,2,142.5,0|2|0
152,232,90023,1,0
352,128,90515,1,0
256,192,91007,12,0,93957
176,104,102318,5,0
96,184,102564,1,2
208,200,102810,2,0,B|280:272|400:248|400:248,2,190,4|0|0
392,72,104285,5,0
424,184,104531,1,2
312,168,104777,2,0,B|224:112|112:168,1,190,4|0
160,272,105515,5,0
272,272,105761,1,0
272,272,106007,1,0
216,176,106253,2,0,B|256:112|320:112,1,95,0|2
400,96,106744,2,0,B|448:192|368:288,1,190,4|0
320,176,107482,5,0
248,88,107728,1,0
248,88,107974,1,0
152,152,108220,2,0,B|80:216|160:256,1,95,0|2
232,280,108712,2,0,B|360:336|456:272|456:272,2,190,4|0|0
128,72,110187,5,0
96,184,110433,1,0
208,160,110679,2,0,B|288:96|408:160|408:160,2,190,4|2|0
56,328,112154,5,0
152,264,112400,1,0
264,296,112646,2,0,B|384:256|416:168,1,190,4|0
328,104,113384,5,0
248,184,113630,1,0
208,80,113876,1,0
128,160,114121,2,0,B|104:224|176:264,1,95,0|2
248,304,114613,6,0,B|368:248,1,95,4|2
288,232,114982,1,0
232,240,115105,2,0,B|336:184,1,95,0|2
344,248,115474,1,0
376,200,115597,2,0,B|408:136|344:104,1,95,0|2
248,136,116089,1,0
248,136,116335,1,2
136,136,116580,6,0,B|80:184|96:232,1,95,4|2
64,264,116949,1,0
32,216,117072,2,2,B|40:136|88:112,1,95
96,80,117441,1,0
152,56,117564,2,0,B|272:48,1,95,0|2
264,160,118056,6,0,B|200:232|328:336,1,190,8|0
368,224,118794,2,0,B|416:112,1,95,0|8
296,104,119285,2,0,B|208:48|112:128,1,190,0|0
128,232,120023,5,8
192,328,120269,1,0
248,328,120392,1,0
216,280,120515,1,0
392,232,120761,1,0
280,232,121007,2,0,B|272:128|416:88,1,190,8|2
160,72,121990,6,0,B|88:160|136:264,1,190,8|2
232,304,122728,1,0
352,288,122974,1,8
400,256,123097,1,0
408,312,123220,2,0,B|472:280|456:216,1,95,0|0
344,232,123712,1,0
456,240,123957,2,0,B|456:176|400:168,1,95,8|2
328,88,124449,5,0
272,80,124572,1,0
216,104,124695,1,0
184,152,124818,1,0
168,208,124941,1,8
200,256,125064,1,0
256,248,125187,1,0
280,200,125310,1,0
232,176,125433,1,0
64,40,125925,6,0,B|112:64|120:144|112:144,1,95,8|2
88,232,126417,2,0,B|144:344|264:344,1,190,0|8
200,296,127031,1,0
256,296,127154,2,0,B|376:320|448:232,1,190,0|2
312,128,127892,5,8
168,224,128138,1,0
112,128,128384,2,0,B|192:64|304:48,1,190,8|2
288,280,129367,2,0,B|408:232|440:128,1,190,8|2
256,192,130351,12,0,132318
416,96,133056,5,8
408,208,133302,2,0,B|384:272|304:296,1,95,0|2
328,168,133794,2,0,B|256:192|192:160,1,95,0|8
256,192,134285,12,0,136253
176,88,137236,5,0
56,208,137482,1,2
192,312,137728,1,0
296,176,137974,1,2
360,264,138220,5,0
416,248,138343,1,0
432,192,138466,2,0,B|432:128|400:96,1,95,2|0
368,208,138957,1,2
368,152,139080,1,0
352,96,139203,2,0,B|296:72|256:104|256:104,2,95,0|2|0
312,208,139941,5,2
384,296,140187,2,0,B|264:304|176:224,1,190
312,216,140925,1,2
256,208,141048,1,0
208,240,141171,2,0,B|160:184|168:120,1,95
272,152,141662,1,0
167,155,141908,1,0
112,280,142154,6,0,B|216:336|320:320,1,190
400,280,142892,1,2
432,232,143015,1,0
416,176,143138,2,0,B|376:112|336:112,1,95
320,224,143630,1,0
320,224,143876,1,2
240,144,144121,6,0,B|176:128|128:160,1,95,0|2
88,136,144490,1,0
128,96,144613,2,0,B|184:64|240:64,1,95,0|2
192,112,144982,1,0
248,96,145105,2,0,B|320:112|352:144,1,95,0|2
352,240,145597,5,0
352,240,145843,1,0
240,272,146089,1,0
200,312,146212,1,0
184,256,146335,2,0,B|136:208|88:240,1,95,2|0
168,144,146826,1,0
280,144,147072,2,0,B|384:96|384:96,2,95,0|2|0
376,208,147810,5,0
368,320,148056,2,0,B|248:224|160:256,1,190,2|0
168,136,148794,1,0
200,184,148917,1,0
232,136,149039,2,0,B|272:88|336:128|352:112,1,95,0|2
256,208,149531,1,0
168,136,149777,1,2
104,232,150023,5,0
120,288,150146,1,0
176,296,150269,2,0,B|216:256|288:296|288:288,1,95,2|0
376,304,150761,2,0,B|432:256|368:216,1,95,2|0
336,264,151130,5,0
280,240,151253,1,2
264,184,151376,1,0
304,144,151498,1,0
352,120,151621,1,0
408,128,151744,1,2
448,168,151867,1,0
432,224,151990,1,0
376,248,152113,1,0
328,216,152236,1,2
352,160,152359,1,0
400,184,152482,1,0
56,152,152974,5,0
192,48,153220,1,2
328,152,153466,1,0
464,48,153712,1,2
464,160,153958,5,0
448,216,154080,1,0
400,240,154203,2,0,B|344:272|304:272,1,95,2|0
232,192,154695,1,2
152,280,154941,2,0,B|88:320|56:256|56:256,2,95,0|2|0
128,168,155679,5,0
208,88,155925,2,0,B|304:56|400:144,1,190
272,168,156662,1,2
224,192,156785,1,0
264,232,156908,2,0,B|256:288|352:304,1,95,0|2
416,232,157400,1,0
448,120,157646,1,2
336,96,157892,6,0,B|216:72|120:120,1,190
128,224,158630,1,2
184,216,158753,1,0
144,176,158876,2,0,B|120:112|168:80,1,95,0|2
264,136,159367,1,0
264,136,159613,1,2
376,120,159859,6,0,B|416:184|328:224,1,95,0|2
336,256,160228,1,0
392,248,160351,2,0,B|336:200|264:224,1,95,0|2
280,264,160720,1,0
320,304,160843,2,0,B|264:336|208:320,1,95,0|2
112,320,161335,1,0
112,320,161580,1,2
104,208,161826,5,0
144,168,161949,1,0
168,216,162072,2,0,B|240:208|248:128,1,95,2|0
184,264,162564,1,2
296,256,162810,2,0,B|368:176|368:176,2,95,0|2|0
288,144,163548,1,2
192,88,163794,6,0,B|96:120|56:224,1,190
80,104,164531,1,2
120,152,164654,1,0
104,208,164777,2,0,B|136:264|224:264,1,95,0|2
224,152,165269,1,0
224,152,165515,1,2
216,264,165761,6,0,B|304:320,1,95,0|2
288,256,166130,1,0
328,296,166253,2,0,B|392:304|400:232,1,95,0|2
344,240,166621,1,0
296,208,166744,2,0,B|288:112,1,95,0|2
176,120,167236,1,0
176,120,167482,1,2
120,216,167728,6,0,B|152:272|216:272,1,95,0|2
176,216,168097,1,0
224,256,168220,2,0,B|296:304|256:352,1,95,0|2
304,288,168589,1,0
304,232,168712,2,0,B|264:192|328:144,1,95,0|2
376,152,169080,1,0
352,104,169203,2,0,B|320:48|240:56,1,95,0|2
256,168,169695,1,0
440,304,170187,5,0
368,216,170433,1,2
304,128,170679,2,0,B|240:80|160:96|160:96,2,142.5,0|2|0
208,192,171662,2,0,B|144:272|208:336|208:336,2,142.5,0|2|0
376,160,172646,1,0
48,56,173138,1,0
256,192,173630,12,0,177564
