osu file format v8

[General]
AudioFilename: 01-.mp3
AudioLeadIn: 0
PreviewTime: 54589
Countdown: 0
SampleSet: Soft
StackLeniency: 0.7
Mode: 0
LetterboxInBreaks: 1

[Editor]
DistanceSpacing: 1
BeatDivisor: 4
GridSize: 8

[Metadata]
Title:Sayonara
Artist:Satou Hiromi
Creator:Mokou_Fujiwara
Version:Senri
Source:Mushi Uta
Tags:

[Difficulty]
HPDrainRate:3
CircleSize:3
OverallDifficulty:3
ApproachRate:3
SliderMultiplier:0.8
SliderTickRate:0.5

[Events]
//Background and Video events
0,0,"bg.jpg"
//Break Periods
//Storyboard Layer 0 (Background)
//Storyboard Layer 1 (Fail)
//Storyboard Layer 2 (Pass)
//Storyboard Layer 3 (Foreground)
//Storyboard Sound Samples
//Background Colour Transformations
3,100,82,103,84

[TimingPoints]
3958,491.803278688525,4,2,1,51,1,0

[Colours]
Combo1 : 186,169,254
Combo2 : 160,215,134
Combo3 : 236,238,142
Combo4 : 0,154,222

[HitObjects]
120,72,3958,2,0,B|88:120|128:160,1,80,0|4
360,160,5925,2,0,B|392:208|352:248,1,80,0|4
208,280,7400,2,0,B|136:232|200:120|200:120,2,160,0|4|0
368,312,10351,2,0,B|416:224|352:160,1,160,4|0
288,128,11826,6,0,B|240:104|208:152,1,80,0|4
48,320,13794,2,0,B|88:288|128:320,1,80,0|4
240,328,15023,2,0,B|280:256|352:304,1,120,0|2
392,240,16253,2,0,B|336:160|240:168,1,160,4|0
136,264,18220,2,0,B|168:176|272:168,1,160,4|0
256,88,19695,5,0
256,88,19941,1,2
256,88,20187,1,4
136,296,21662,5,0
160,264,21908,1,2
192,280,22154,1,4
352,288,23138,5,0
360,248,23384,1,2
328,224,23630,1,0
320,264,23876,1,2
288,232,24121,2,0,B|208:192|128:232|128:232,2,160,4|2|4
72,128,27564,5,0
112,128,27810,1,2
152,128,28056,1,4
328,296,29531,5,0
368,280,29777,1,2
408,296,30023,1,4
424,176,30761,5,0
400,144,31007,1,2
376,176,31253,1,0
352,144,31498,1,2
328,176,31744,1,0
296,152,31990,2,0,B|224:112|144:200|144:200,2,160,4|2|4
104,296,35433,5,8
96,216,35925,2,0,B|128:176|184:184,1,80,0|8
176,224,36662,2,0,B|224:256|264:232,1,80,0|2
264,200,37400,1,8
256,160,37646,1,0
296,168,37892,2,0,B|376:152|440:240,1,160,0|4
440,152,39367,5,8
368,112,39859,2,0,B|312:80|280:96,1,80,0|8
304,128,40597,2,0,B|264:160|224:144,1,80
208,112,41335,1,8
184,144,41580,1,0
160,176,41826,2,0,B|104:248|184:328,1,160,0|4
248,280,43302,5,8
192,224,43794,2,0,B|160:176|208:144,1,80,0|8
232,176,44531,2,0,B|272:160|248:104,1,80
288,104,45269,1,0
328,104,45515,1,2
368,104,45761,2,0,B|416:144|368:184,1,80,8|0
304,200,46744,2,0,B|264:240|312:272,1,80,8|0
256,192,47728,12,4,49695
136,128,50433,5,8
128,168,50679,1,0
152,200,50925,1,2
184,224,51171,1,0
224,232,51417,1,8
256,192,51662,12,0,53630
168,128,54613,5,0
168,128,54859,1,2
168,168,55105,1,0
168,208,55351,1,2
200,232,55597,6,0,B|264:288|360:256,1,160,0|2
416,160,57318,1,0
392,128,57564,2,0,B|352:96|304:104,1,80,2|0
304,144,58302,1,2
264,160,58548,2,0,B|176:112|112:168|112:176,1,160,0|2
144,248,60023,6,0,B|224:288|304:256,1,160,0|2
376,248,61498,2,0,B|408:160|352:80,1,160,0|2
280,104,62974,5,0
240,112,63220,1,2
208,136,63466,2,0,B|152:176|176:216,1,80,0|2
208,216,64203,1,0
232,248,64449,2,0,B|312:304,1,80,2|0
336,280,65187,5,2
360,248,65433,2,0,B|400:160|352:88,1,160,0|2
280,104,66908,1,0
240,104,67154,1,2
216,136,67400,2,0,B|160:216|232:288,1,160,0|2
304,272,68876,6,0,B|368:200|352:112,1,160,0|2
280,96,70351,1,0
248,72,70597,1,2
232,112,70843,1,0
192,96,71089,1,2
192,136,71335,6,0,B|192:192|248:208,1,80,0|2
272,192,72072,1,0
264,232,72318,2,0,B|176:216|128:296,1,160,2|0
208,312,73794,5,2
248,312,74039,1,0
232,272,74285,2,0,B|304:232|400:272,1,160,2|0
440,208,75761,2,0,B|376:128|288:128,1,160,2|0
280,208,77236,5,2
216,256,77728,2,0,B|136:224,1,80,0|2
152,144,78712,5,0
152,144,78957,1,2
152,184,79203,2,0,B|224:248|304:248|304:240,1,160,0|2
240,136,80925,5,0
240,136,81171,2,0,B|320:104|400:168,1,160,2|0
384,200,82400,1,2
392,240,82646,1,0
352,240,82892,1,2
344,200,83138,6,0,B|312:168|256:184,1,80,0|2
256,216,83876,2,0,B|208:256|184:232,1,80,0|2
256,192,84613,12,0,87072
144,192,87564,5,0
144,232,87810,1,2
176,216,88056,2,0,B|208:152|272:136,1,120,0|2
264,176,89039,2,0,B|320:136|392:136,1,120,0|2
376,176,90023,1,0
344,248,90515,1,2
256,192,91007,12,0,94941
