osu file format v8

[General]
AudioFilename: 01-.mp3
AudioLeadIn: 0
PreviewTime: 54589
Countdown: 0
SampleSet: Soft
StackLeniency: 0.7
Mode: 0
LetterboxInBreaks: 1

[Editor]
DistanceSpacing: 1
BeatDivisor: 4
GridSize: 8

[Metadata]
Title:Sayonara
Artist:Satou Hiromi
Creator:Mokou_Fujiwara
Version:Kakkon
Source:Mushi Uta
Tags:

[Difficulty]
HPDrainRate:2
CircleSize:3
OverallDifficulty:5
ApproachRate:5
SliderMultiplier:1.7
SliderTickRate:2

[Events]
//Background and Video events
0,0,"bg.jpg"
//Break Periods
2,95141,101118
//Storyboard Layer 0 (Background)
//Storyboard Layer 1 (Fail)
//Storyboard Layer 2 (Pass)
//Storyboard Layer 3 (Foreground)
//Storyboard Sound Samples
//Background Colour Transformations
3,100,82,103,84

[TimingPoints]
3958,491.803278688525,4,2,1,55,1,0
55504,-100,4,2,1,83,0,0
55627,-100,4,2,1,83,0,1
94971,-100,4,2,1,65,0,0
138127,-100,4,2,1,85,0,0
138250,-100,4,2,1,85,0,1
177594,-100,4,2,1,85,0,0

[Colours]
Combo1 : 186,169,254
Combo2 : 160,215,134
Combo3 : 236,238,142
Combo4 : 0,154,222

[HitObjects]
160,88,3958,1,0
104,152,4203,1,2
160,216,4449,2,0,B|232:288|328:280|328:280,2,170,4|0|0
280,96,5925,5,0
360,128,6171,1,2
376,216,6417,2,0,B|296:256|200:208,1,170,4|0
128,240,7154,5,0
128,240,7400,1,2
88,168,7646,1,0
88,168,7892,1,2
176,168,8138,1,0
264,160,8384,6,0,B|352:120|448:176|448:176,2,170,4|2|0
256,328,9859,1,0
216,160,10351,2,0,B|136:112|48:168|48:168,2,170,4|2|0
376,112,11826,5,0
400,192,12072,1,2
360,264,12318,2,0,B|264:184|192:272|192:272,2,170,4|2|0
400,96,13794,5,0
336,152,14039,1,2
280,88,14285,2,0,B|176:96|176:216,1,170,4|0
152,280,15023,5,0
152,280,15269,1,2
216,336,15515,1,0
216,336,15761,1,2
280,280,16007,1,0
248,200,16253,6,0,B|184:104|288:48|288:48,2,170,4|2|0
408,136,17728,1,0
328,288,18220,2,0,B|248:224|152:296|152:296,2,170,4|2|0
416,144,19695,5,0
336,112,19941,1,2
416,144,20187,2,0,B|336:160|328:208|296:224|240:200|240:200,2,170,4|2|0
248,120,21662,5,0
176,168,21908,1,2
184,256,22154,2,0,B|248:224|272:272|304:296|360:264,1,170,4|0
448,136,23138,5,0
392,200,23384,1,2
336,136,23630,1,0
280,200,23876,1,2
224,136,24121,6,0,B|152:208|200:304|200:304,2,170,4|2|0
384,192,25597,1,0
224,248,26089,2,0,B|152:176|200:80|200:80,2,170,4|2|0
160,88,27564,5,0
104,152,27810,1,2
152,224,28056,2,0,B|232:288|336:264|336:264,2,170,4|2|0
288,120,29531,5,0
240,192,29777,1,2
328,192,30023,2,0,B|416:128|344:32|344:32,1,170,4|0
264,56,30761,5,0
192,96,31007,1,2
128,152,31253,1,0
192,208,31498,1,2
264,256,31744,1,0
192,304,31990,6,0,B|112:248|32:312|32:312,2,170,4|2|0
192,136,33466,1,0
192,304,33958,2,0,B|272:248|352:312|352:312,2,170,4|2|0
176,136,35433,6,0,B|256:64|352:144,1,170,8|0
256,176,36171,1,0
280,216,36294,1,0
304,176,36417,2,0,B|384:144|384:144,2,85,8|0|0
120,232,37154,1,0
96,200,37277,1,0
120,160,37400,2,0,B|152:112|200:104,1,85,8|0
272,104,37892,5,0
312,112,38015,1,0
336,144,38138,2,0,B|368:184|352:232,1,85,0|8
288,280,38630,2,0,B|240:304|176:272,1,85,0|0
144,128,39367,6,0,B|48:192|112:304,1,170,8|0
168,224,40105,1,0
232,168,40351,5,8
312,144,40597,1,0
328,184,40720,1,0
336,232,40843,2,0,B|288:280|224:256,1,85
216,192,41335,1,8
160,256,41580,1,0
112,184,41826,5,0
104,144,41949,1,0
120,104,42072,2,0,B|184:56|224:64,1,85,0|8
272,40,42564,2,0,B|336:56|344:96,1,85
408,240,43302,6,0,B|376:296|320:296,1,85,8|0
264,256,43794,1,0
224,232,43917,1,0
192,200,44039,1,0
280,192,44285,2,0,B|336:184|360:128|360:128,2,85,8|0|0
264,104,45023,5,0
184,80,45269,1,8
112,128,45515,1,0
112,216,45761,6,0,B|112:304,1,85
184,256,46253,2,0,B|232:328,1,85,8|0
280,256,46744,2,0,B|368:288,1,85
352,200,47236,2,0,B|448:152,1,85,8|0
256,192,47728,12,0,49695
424,96,50433,5,8
408,176,50679,2,0,B|336:256,1,85
296,168,51171,2,0,B|224:96,1,85,0|8
256,192,51662,12,0,53630
168,96,54613,5,0
104,152,54859,1,2
168,216,55105,1,0
104,272,55351,1,2
168,328,55597,5,0
208,328,55720,1,0
248,328,55843,1,2
264,240,56089,2,0,B|264:184|336:160,1,85,0|2
392,192,56580,2,0,B|432:128|384:88|384:88,2,85,0|2|0
328,136,57318,5,2
240,144,57564,2,0,B|192:152|160:208,1,85,0|2
136,112,58056,1,0
104,136,58179,1,0
80,168,58302,1,2
112,248,58548,6,0,B|144:288|224:280|216:280,1,85,0|2
272,288,59039,1,0
272,200,59285,1,2
272,288,59531,5,0
304,280,59654,1,0
336,248,59777,1,2
336,160,60023,2,0,B|360:112|408:112,1,85,0|2
328,72,60515,2,0,B|264:64|240:104,1,85,0|2
192,152,61007,1,0
192,152,61253,1,2
136,216,61498,5,0
152,256,61621,1,0
192,280,61744,1,2
264,232,61990,2,0,B|360:192|360:184,1,85,0|2
280,136,62482,1,0
112,104,62974,5,0
112,104,63220,1,2
152,176,63466,2,0,B|200:256|312:248,1,170
272,168,64203,1,2
304,136,64326,1,0
320,176,64449,2,0,B|400:240|400:232,2,85,0|2|0
400,152,65187,5,2
360,72,65433,2,0,B|256:64|184:120,1,170
160,184,66171,1,2
152,224,66294,1,0
192,248,66417,2,0,B|248:288|304:272|304:272,2,85,0|2|0
248,184,67154,1,2
320,232,67400,5,0
352,208,67523,1,0
368,168,67646,2,0,B|376:104|336:80,1,85,2|0
264,88,68138,1,2
256,192,68384,12,0,69859
408,72,70351,5,0
352,136,70597,1,2
408,200,70843,1,0
352,264,71089,1,2
408,328,71335,5,0
368,328,71457,1,0
328,328,71580,1,2
272,264,71826,2,0,B|224:224|168:280,1,85,0|2
152,184,72318,2,0,B|224:192|224:112|224:112,2,85,0|2|0
152,96,73056,5,2
232,72,73302,2,0,B|336:64|408:144,1,170
320,168,74039,1,2
288,192,74162,1,0
248,216,74285,2,0,B|208:184|160:208,1,85,0|2
200,280,74777,1,0
272,328,75023,1,2
344,288,75269,5,0
376,256,75392,1,0
384,216,75515,2,0,B|368:160|312:152,1,85,2|0
248,184,76007,1,2
248,184,76253,1,0
224,104,76498,2,0,B|160:104|136:144,1,85,2|0
120,208,76990,1,2
192,256,77236,6,0,B|272:328|368:248,1,170
272,216,77974,2,0,B|272:120,1,85,2|0
440,112,78712,5,0
440,200,78957,1,2
368,160,79203,2,0,B|272:160,1,85,0|2
320,240,79695,1,0
232,248,79941,1,2
192,232,80064,1,0
168,200,80187,2,0,B|144:152|200:112|200:112,2,85,0|2|0
248,176,80925,5,2
304,112,81171,2,0,B|392:168|376:272,1,170
320,320,81908,1,2
280,304,82031,1,0
240,320,82154,1,0
152,312,82400,2,0,B|120:256|152:216,1,85,2|0
224,232,82892,1,2
208,152,83138,6,0,B|120:80|120:80,2,85,0|2|0
136,192,83876,2,0,B|80:264|80:264,2,85,2|0|2
176,264,84613,2,0,B|256:320|256:320,2,85,0|2|0
256,232,85351,2,0,B|320:160|320:160,2,85,2|0|2
232,152,86089,2,0,B|160:80|160:80,2,85,0|2|0
400,128,87072,1,0
456,288,87564,5,0
368,288,87810,1,2
352,208,88056,2,0,B|288:136|240:144|240:144,2,127.5,0|2|0
272,248,89039,2,0,B|184:256|160:320|160:320,2,127.5,0|2|0
192,216,90023,1,0
96,72,90515,1,0
256,192,91007,12,0,94941
424,88,102318,5,0
464,160,102564,1,2
408,224,102810,2,0,B|320:272|216:224|216:224,2,170,4|2|2
272,120,104285,5,0
192,96,104531,1,2
144,168,104777,2,0,B|152:272|280:296,1,170,4|0
336,288,105515,5,0
400,232,105761,1,2
336,176,106007,1,0
272,232,106253,1,2
208,288,106498,1,0
144,232,106744,6,0,B|104:144|216:88,1,170,4|0
224,176,107482,5,0
272,104,107728,1,2
320,176,107974,1,0
368,104,108220,1,2
408,176,108466,1,0
360,248,108712,6,0,B|280:328|200:240|200:240,2,170,4|2|0
240,128,110187,5,0
168,88,110433,1,2
168,176,110679,2,0,B|120:256|192:352|200:352,2,170,4|2|0
280,304,112154,5,0
368,304,112400,1,2
328,232,112646,2,0,B|296:152|176:144,1,170,4|0
192,232,113384,5,0
136,296,113630,1,2
80,232,113876,1,0
136,168,114121,1,2
192,104,114367,1,0
248,168,114613,6,0,B|320:112|408:168,1,170,4|0
368,240,115351,5,0
368,240,115597,1,2
328,312,115843,1,0
328,312,116089,1,2
280,240,116335,1,0
232,312,116580,6,0,B|168:224|80:320|80:320,2,170,4|2|0
160,160,118056,2,0,B|224:280|304:136,1,170,8|0
285,165,118794,1,0
285,165,119039,1,8
344,208,119285,5,0
360,168,119408,1,0
344,128,119531,2,0,B|304:88|240:96,1,85,0|2
224,168,120023,1,8
232,256,120269,1,0
192,272,120392,1,0
152,264,120515,2,0,B|88:216|80:176,1,85,0|2
104,120,121007,5,8
184,104,121253,2,0,B|248:72|280:128,1,85,0|2
160,240,121990,2,0,B|240:288|344:256,1,170
392,312,122728,1,0
472,288,122974,1,8
408,240,123220,5,0
376,272,123343,1,0
360,232,123466,2,0,B|312:176|264:176,1,85,0|2
344,112,123957,1,8
344,112,124203,1,0
256,104,124449,2,0,B|160:144|152:248|152:248,2,170,0|8|0
256,272,125925,6,0,B|344:312|448:240,1,170,8|2
418,258,126662,1,0
368,192,126908,1,8
288,168,127154,2,0,B|200:136|112:184|112:184,1,170
120,256,127892,1,8
120,256,128138,1,0
120,144,128384,6,0,B|120:40,1,85,0|2
176,120,128876,2,0,B|264:64,1,85,8|0
224,160,129367,2,0,B|304:200,1,85,0|2
216,224,129859,2,0,B|168:312,1,85,8|0
256,192,130351,12,0,132318
120,96,133056,5,8
120,184,133302,2,0,B|120:280,1,85,0|2
184,216,133794,2,0,B|264:272,1,85,0|8
256,192,134285,12,0,136253
136,64,137236,5,0
88,136,137482,1,2
136,208,137728,1,0
88,280,137974,1,2
176,280,138220,5,0
216,280,138343,1,0
256,280,138466,1,2
216,208,138712,2,2,B|192:160|232:120,1,85
296,176,139203,2,0,B|392:176|392:176,2,85,0|2|0
336,248,139941,5,2
376,232,140064,1,0
416,216,140187,2,0,B|440:176|416:128,1,85,0|2
336,152,140679,2,0,B|296:128|312:64,1,85,0|2
224,88,141171,1,0
224,88,141417,1,2
144,120,141662,2,0,B|104:176|128:232|128:224,1,85,0|2
160,272,142154,5,0
192,296,142277,1,0
232,296,142400,2,0,B|320:296,1,85,2|0
280,216,142892,1,2
352,248,143138,1,0
392,248,143261,1,0
416,216,143384,2,0,B|432:168|408:120,1,85,2|0
368,208,143876,1,2
320,136,144121,6,0,B|272:104|208:136,1,85,0|2
272,200,144613,1,0
192,224,144859,2,0,B|184:280|248:312,1,85,2|0
392,320,145597,5,0
392,320,145843,1,2
432,248,146089,2,0,B|464:160|368:64,1,170
392,176,146826,1,2
368,208,146949,1,0
328,192,147072,2,0,B|296:144|240:160,1,85,0|2
256,240,147564,1,0
184,200,147810,5,2
184,200,148056,2,0,B|128:144|256:40,1,170
280,136,148794,1,2
240,112,148917,1,0
200,120,149039,2,0,B|136:152|120:208,1,85,0|2
112,256,149531,1,0
192,288,149777,1,2
184,200,150023,5,0
216,224,150146,1,0
256,216,150269,2,0,B|296:176|344:216,1,85,2|0
304,288,150761,1,2
256,192,151007,12,0,152482
416,80,152974,5,0
464,152,153220,1,2
416,224,153466,1,0
368,152,153712,1,2
320,224,153958,5,0
280,224,154080,1,0
240,224,154203,1,2
272,144,154449,2,0,B|208:112|168:144,1,85,0|2
136,200,154941,2,0,B|112:256|160:304|160:304,2,85,0|2|0
208,240,155679,5,0
208,240,155925,2,0,B|264:288|320:288,1,85,0|2
312,216,156417,1,0
312,216,156662,1,2
400,216,156908,2,0,B|400:152|344:128,1,85,0|2
288,104,157400,2,0,B|232:64|192:104,1,85,0|2
144,144,157892,5,0
112,168,158015,1,0
152,192,158138,2,0,B|192:240|128:280,1,85,2|0
232,288,158630,1,2
280,224,158876,1,0
304,256,158998,1,0
328,224,159121,2,0,B|368:168|352:120,1,85,2|0
272,120,159613,1,2
192,88,159859,6,0,B|136:104|112:176|112:168,1,85,0|2
104,224,160351,1,0
184,248,160597,2,0,B|208:192|280:208,1,85,2|0
368,328,161335,5,0
312,264,161580,1,2
280,184,161826,2,0,B|208:120|112:200,1,170
136,104,162564,1,2
176,80,162687,1,0
216,56,162810,2,0,B|272:80|280:120,1,85,0|2
360,96,163302,1,0
328,176,163548,5,2
328,176,163794,2,0,B|272:216|240:168|200:144|144:208,1,170
160,272,164531,1,2
184,304,164654,1,0
216,272,164777,2,0,B|248:240|320:280,1,85,0|2
368,304,165269,1,0
376,216,165515,1,2
352,136,165761,6,0,B|264:80|184:128,1,170
128,72,166498,2,0,B|72:168|144:272,1,170,2|2
200,264,167236,2,0,B|288:320|368:248,1,170
320,184,167974,5,2
264,120,168220,1,0
208,184,168466,1,2
152,120,168712,1,0
104,192,168958,1,2
152,120,169203,1,0
264,120,169449,1,2
208,56,169695,1,0
104,192,170187,5,0
152,264,170433,1,2
200,192,170679,2,0,B|208:96|120:80|120:80,2,127.5,0|2|0
288,200,171662,2,0,B|376:176|360:96|360:96,2,127.5,0|2|0
248,272,172646,1,0
416,304,173138,1,0
256,192,173630,12,0,177564
