osu file format v12

[General]
AudioFilename: sin_OP1.mp3
AudioLeadIn: 0
PreviewTime: 75838
Countdown: 0
SampleSet: Soft
StackLeniency: 0.7
Mode: 0
LetterboxInBreaks: 0
WidescreenStoryboard: 0

[Editor]
Bookmarks: 8452,19529,25068,32453,61992
DistanceSpacing: 0.65
BeatDivisor: 4
GridSize: 8
TimelineZoom: 1

[Metadata]
Title:Natsu no Fantasia
TitleUnicode:夏のファンタジア
Artist:Satou Hiromi
ArtistUnicode:佐藤 ひろ美
Creator:gxytcgxytc
Version:Insane
Source:Tasogare no Sinsemilla
Tags:
BeatmapID:343655
BeatmapSetID:137506

[Difficulty]
HPDrainRate:7
CircleSize:4
OverallDifficulty:7
ApproachRate:7
SliderMultiplier:1.6
SliderTickRate:1

[Events]
//Background and Video events
Video,-106,"sin_OP1.flv"
0,0,"bg.jpg",0,0
//Break Periods
//Storyboard Layer 0 (Background)
//Storyboard Layer 1 (Fail)
//Storyboard Layer 2 (Pass)
//Storyboard Layer 3 (Foreground)
//Storyboard Sound Samples
//Background Colour Transformations
3,100,163,162,255

[TimingPoints]
1067.90306984553,461.548461538462,4,2,1,50,1,0
6375,-100,4,2,1,60,0,0
8452,-100,4,2,1,60,0,0
46068,-200,4,2,1,60,0,0
46530,-100,4,2,1,60,0,0
76761,-89.2857142857143,4,2,1,60,0,1
100762,461.548461538462,3,2,1,60,1,0
103992,461.548461538462,4,2,1,60,1,0

[Colours]
Combo1 : 243,255,21
Combo2 : 120,131,143
Combo3 : 15,139,240
Combo4 : 205,205,205

[HitObjects]
152,72,1067,6,0,P|96:104|80:144,1,80,2|0,0:0|0:0,0:0:0:0:
168,160,1529,1,0,0:0:0:0:
328,320,1760,2,0,B|272:312|256:272|256:240|272:208,1,120,2|0,0:0|0:0,0:0:0:0:
344,232,2221,2,0,P|347:189|344:152,1,80
416,120,2683,1,2,0:0:0:0:
88,115,2914,22,0,P|114:85|152:72,1,80,2|0,0:0|0:0,0:0:0:0:
168,160,3375,1,0,0:0:0:0:
416,120,3606,2,0,P|480:152|480:224,1,120,2|0,0:0|0:0,0:0:0:0:
408,200,4067,2,0,P|400:248|408:288,1,80,2|0,0:0|0:0,0:0:0:0:
328,328,4529,1,0,0:0:0:0:
128,288,4760,22,0,P|128:216|120:200,1,80,2|0,0:0|0:0,0:0:0:0:
64,160,5221,1,0,0:0:0:0:
312,104,5452,2,0,P|248:128|192:112,1,120,2|0,0:0|0:0,0:0:0:0:
368,176,5914,2,0,L|424:240,1,80
252,180,6375,5,4,0:3:0:0:
152,112,7529,2,0,P|160:184|160:200,1,80,0|2,0:0|0:0,0:0:0:0:
288,328,7991,2,0,P|280:256|280:240,1,80,2|2,0:0|0:0,0:0:0:0:
296,72,8452,6,0,P|352:96|376:160,1,120,0|0,3:0|0:0,0:0:0:0:
288,160,8914,2,0,L|304:248,1,80,0|2,0:1|0:0,0:0:0:0:
432,216,9375,1,0,0:0:0:0:
336,336,9606,1,0,0:0:0:0:
336,336,9721,1,0,0:0:0:0:
336,336,9837,2,0,P|280:336|248:312,1,80,2|0,0:0|0:0,0:0:0:0:
96,312,10298,22,0,P|144:256|152:232,1,80,0|0,3:0|0:0,0:0:0:0:
104,176,10645,2,0,P|128:128|160:112,1,80,0|0,3:0|0:0,0:0:0:0:
224,72,10991,2,0,L|304:72,1,80,0|0,3:0|0:0,0:0:0:0:
456,96,11452,2,0,L|464:48,2,40,0|0|2,3:0|3:0|0:0,0:0:0:0:
408,280,11914,5,0,0:0:0:0:
408,280,12029,1,0,0:0:0:0:
408,280,12145,2,0,P|368:240|304:232,1,120,0|0,3:0|0:0,0:0:0:0:
288,312,12606,2,0,L|208:296,1,80,2|0,0:0|0:0,0:0:0:0:
48,208,13068,2,0,L|128:192,1,80,0|0,3:0|0:0,0:0:0:0:
126,192,13414,1,0,0:0:0:0:
126,192,13529,1,2,0:0:0:0:
224,64,13760,1,0,0:0:0:0:
392,72,13991,6,0,P|408:120|400:160,1,80
232,336,14452,2,0,P|216:296|224:256,1,80,2|0,0:0|0:0,0:0:0:0:
448,216,14914,2,0,P|422:250|383:263,1,80,2|0,0:0|0:0,0:0:0:0:
96,96,15375,1,0,0:0:0:0:
120,104,15490,1,0,0:0:0:0:
144,112,15605,1,0,0:0:0:0:
176,120,15721,1,0,0:0:0:0:
208,128,15837,22,0,P|219:168|283:216,1,120,2|0,0:0|0:0,0:0:0:0:
312,120,16299,2,0,L|400:136,1,80,0|2,3:0|0:0,0:0:0:0:
440,312,16760,2,0,L|520:328,2,80,0|0|2,3:0|0:0|0:0,0:0:0:0:
296,296,17452,1,0,0:0:0:0:
296,296,17568,1,0,0:0:0:0:
296,296,17683,6,0,P|352:256|368:224,1,80,0|0,3:0|0:0,0:0:0:0:
376,208,18029,2,0,P|384:144|376:120,1,80,0|0,3:0|0:0,0:0:0:0:
360,88,18375,1,2,0:0:0:0:
232,256,18606,2,0,L|184:328,2,80,0|0|2,0:0|0:0|0:0,0:0:0:0:
280,128,19299,1,0,1:0:0:0:
280,128,19414,1,0,1:0:0:0:
280,128,19529,2,0,P|248:96|200:88,1,80,4|0,0:0|0:0,0:0:0:0:
120,112,20914,6,2,P|88:160|96:232,1,120,4|0,0:1|0:0,0:0:0:0:
120,280,21376,1,0,1:0:0:0:
240,344,21606,1,0,1:0:0:0:
360,280,21837,1,0,1:0:0:0:
360,144,22068,1,0,1:0:0:0:
240,88,22299,1,0,1:0:0:0:
120,144,22529,1,0,1:0:0:0:
240,208,22760,1,0,1:0:0:0:
280,208,22876,1,0,1:0:0:0:
320,216,22991,2,0,B|348:214|348:214|392:232,1,40,0|0,3:0|1:0,0:0:0:0:
400,232,23222,6,0,P|424:296|416:328,1,80,0|0,1:0|0:0,0:0:0:0:
344,288,23568,2,0,P|336:328|304:368,1,80,0|0,1:0|0:0,0:0:0:0:
256,304,23914,2,2,P|216:336|184:336,1,80,4|0,1:0|0:0,0:0:0:0:
192,248,24260,1,2,0:0:0:0:
192,224,24375,1,2,0:0:0:0:
200,200,24490,1,2,0:0:0:0:
216,176,24606,1,4,1:1:0:0:
232,160,24721,1,0,1:0:0:0:
256,144,24837,1,0,3:0:0:0:
280,144,25068,6,0,P|360:152|408:120,1,120,4|0,1:2|0:0,0:0:0:0:
424,112,25529,1,2,0:0:0:0:
432,224,25760,2,0,P|424:272|448:312,1,80,0|0,1:3|0:0,0:0:0:0:
336,240,26222,1,0,1:0:0:0:
264,304,26453,2,0,L|224:320|184:336,1,80,2|0,0:0|0:0,0:0:0:0:
160,304,26799,1,2,0:0:0:0:
128,272,26914,6,0,P|152:224|112:160,1,120,0|0,1:0|0:0,0:0:0:0:
72,224,27376,2,0,L|168:216,1,80,2|0,0:0|1:0,0:0:0:0:
264,136,27837,1,0,0:0:0:0:
272,224,28068,2,0,P|288:272|320:296,1,80,0|2,1:0|0:0,0:0:0:0:
344,176,28530,1,0,0:0:0:0:
344,176,28645,1,2,0:0:0:0:
344,176,28760,6,0,P|344:112|312:64,1,120,0|0,1:0|0:0,0:0:0:0:
264,136,29222,2,0,L|192:184,1,80,8|0,0:1|0:0,0:0:0:0:
56,256,29683,1,0,1:0:0:0:
216,336,29914,1,0,1:0:0:0:
392,280,30145,1,8,0:1:0:0:
392,280,30260,2,0,P|424:224|416:192,1,80
368,80,30607,6,0,L|304:144,1,80,2|0,3:0|0:0,0:0:0:0:
280,280,30953,2,0,L|336:224,1,80,0|0,1:0|0:0,0:0:0:0:
248,192,31299,1,4,0:0:0:0:
72,328,31530,1,0,0:0:0:0:
72,328,31645,1,2,0:0:0:0:
72,304,31760,2,0,L|72:240,1,40
72,240,31991,2,2,P|80:184|128:136,1,120,4|0,1:2|0:0,0:0:0:0:
176,224,32453,5,4,3:0:0:0:
320,120,33145,5,0,0:0:0:0:
408,120,33376,2,0,P|384:176|320:208,2,120,0|2|0,0:0|0:0|0:0,0:0:0:0:
360,48,34299,2,0,P|304:40|264:64,1,80,0|2,0:1|0:0,0:0:0:0:
256,80,34645,2,0,P|208:88|160:72,1,80,0|2,0:0|0:0,0:0:0:0:
136,96,34991,1,0,0:0:0:0:
48,160,35222,2,0,L|80:280,1,120,8|0,0:3|0:0,0:0:0:0:
152,272,35684,6,0,P|176:320|216:344,1,80,2|0,0:0|0:0,0:0:0:0:
336,336,36145,2,0,P|365:309|379:272,1,80
320,160,36607,1,2,0:0:0:0:
184,216,36837,1,0,0:0:0:0:
104,128,37068,2,0,P|64:176|80:256,2,120,0|2|0,0:0|0:0|0:0,0:0:0:0:
144,320,37991,2,0,P|184:272|168:192,2,120,2|2|0,0:0|0:0|0:0,0:0:0:0:
96,248,38914,2,0,L|272:304,1,160,8|0,0:3|0:0,0:0:0:0:
256,376,39491,2,0,P|320:344|328:320,1,80,0|0,0:0|0:0,0:0:0:0:
336,264,39837,1,4,0:3:0:0:
408,64,40530,37,0,0:0:0:0:
480,128,40761,2,0,P|440:152|368:144,1,120,0|2,0:0|0:0,0:0:0:0:
256,64,41453,1,2,0:0:0:0:
296,176,41684,2,0,L|280:216|264:256,1,80,0|2,0:0|0:0,0:0:0:0:
264,320,42030,2,0,L|227:325|184:331,1,80,0|2,0:0|0:0,0:0:0:0:
144,336,42376,1,0,0:0:0:0:
64,104,42607,6,0,L|144:104,1,80,8|0,0:3|0:0,0:0:0:0:
296,176,43068,2,0,L|216:176,1,80
432,160,43530,2,0,P|432:216|368:288,1,120,2|0,0:0|0:0,0:0:0:0:
280,336,44222,2,0,P|200:344|152:256,2,160,2|0|2,0:0|0:0|0:0,0:0:0:0:
424,280,45376,5,0,0:0:0:0:
240,256,45607,1,0,0:0:0:0:
240,256,45722,1,0,0:0:0:0:
352,120,45953,1,0,0:0:0:0:
352,120,46068,2,0,L|272:136,1,80,2|2,0:0|0:0,0:0:0:0:
248,152,46645,1,0,0:0:0:0:
232,176,46761,1,2,0:0:0:0:
224,200,46876,1,0,0:0:0:0:
224,224,46991,1,2,0:0:0:0:
232,248,47107,1,0,0:0:0:0:
248,264,47222,1,4,0:3:0:0:
376,288,47915,5,0,0:0:0:0:
456,344,48145,2,0,P|472:280|440:224,2,120,0|2|0,0:0|0:0|0:0,0:0:0:0:
376,288,49068,1,0,1:0:0:0:
304,184,49299,1,2,0:0:0:0:
304,184,49415,1,0,0:0:0:0:
232,280,49646,1,2,0:0:0:0:
232,280,49761,1,0,0:0:0:0:
176,176,49992,2,0,P|144:120|152:64,1,120,8|0,0:3|0:0,0:0:0:0:
150,67,50453,6,0,L|72:96,1,80,0|0,3:0|0:0,0:0:0:0:
240,104,50915,2,0,L|320:72,1,80,0|0,0:0|0:0,0:0:0:0:
400,120,51376,1,2,0:0:0:0:
360,208,51607,1,0,0:0:0:0:
264,200,51838,2,0,P|296:280|344:296,2,120,0|2|0,0:0|0:0|0:0,0:0:0:0:
144,120,52761,6,0,L|80:176,1,80,0|0,1:0|0:0,0:0:0:0:
120,208,53107,2,0,L|48:272,1,80,2|0,0:0|0:0,0:0:0:0:
64,312,53453,1,0,3:0:0:0:
208,328,53684,2,0,P|288:368|368:336,1,160,8|0,0:3|0:0,0:0:0:0:
296,248,54376,1,0,0:0:0:0:
296,248,54492,1,0,0:0:0:0:
296,248,54607,1,4,0:3:0:0:
424,48,55299,5,0,0:0:0:0:
464,144,55530,2,0,P|448:184|416:208,1,80,2|0,0:0|0:0,0:0:0:0:
432,304,55992,2,0,P|384:320|336:304,1,80,2|0,0:0|0:0,0:0:0:0:
200,312,56453,2,0,P|192:280|144:240,1,80,0|2,1:0|0:0,0:0:0:0:
72,248,56799,2,0,P|48:224|32:168,1,80,0|2,1:0|0:0,0:0:0:0:
80,112,57146,1,0,1:0:0:0:
376,80,57376,2,0,P|368:160|288:208,1,160,8|0,0:3|0:0,0:0:0:0:
152,320,58299,6,0,P|144:256|80:216,1,120,0|0,1:0|0:0,0:0:0:0:
48,184,58761,2,0,L|128:152,1,80,2|0,0:0|0:0,0:0:0:0:
160,32,59223,1,0,0:0:0:0:
328,160,59453,1,0,0:0:0:0:
128,224,59684,1,2,0:0:0:0:
208,136,59915,1,0,0:0:0:0:
208,136,60030,1,2,0:0:0:0:
208,136,60146,6,0,L|264:256,1,120
176,296,60607,2,0,P|208:336|256:352,1,80,0|2,0:0|0:0,0:0:0:0:
384,328,61069,1,0,0:0:0:0:
456,216,61299,1,0,0:0:0:0:
456,216,61415,1,0,0:0:0:0:
456,216,61530,2,0,P|432:160|448:88,1,120,0|0,1:0|0:0,0:0:0:0:
360,88,61992,6,0,P|288:72|192:96,1,160,4|2,1:2|0:0,0:0:0:0:
128,168,62684,1,0,0:0:0:0:
144,264,62915,2,0,L|96:336,1,80,0|0,1:0|0:0,0:0:0:0:
248,296,63376,1,2,0:0:0:0:
328,240,63607,1,0,0:0:0:0:
328,240,63723,1,0,0:0:0:0:
328,240,63838,6,0,P|360:200|368:168,1,80,0|2,1:0|0:0,0:0:0:0:
408,144,64184,2,0,P|408:96|392:48,1,80,0|2,1:0|0:0,0:0:0:0:
368,32,64530,2,0,L|280:16,1,80,0|0,1:0|1:0,0:0:0:0:
176,88,64992,1,0,3:0:0:0:
72,88,65223,2,2,P|88:144|64:208,1,120,4|0,0:1|0:0,0:0:0:0:
0,208,65684,6,0,L|32:304,1,80,0|0,1:0|0:0,0:0:0:0:
128,336,66146,1,2,0:0:0:0:
232,280,66377,1,0,0:0:0:0:
232,280,66492,2,0,P|272:248|344:248,1,120,0|0,1:0|0:0,0:0:0:0:
480,352,67069,2,0,P|448:288|456:256,1,80,2|0,0:0|0:0,0:0:0:0:
464,192,67530,6,0,P|472:128|440:80,2,120,0|0|2,1:0|3:0|0:2,0:0:0:0:
376,152,68453,2,0,L|280:112,1,80,0|0,1:0|0:0,0:0:0:0:
232,192,68915,2,2,P|200:136|224:64,1,120,4|0,0:1|0:0,0:0:0:0:
209,83,69377,6,0,L|88:120,1,120,0|0,1:0|0:0,0:0:0:0:
48,184,69838,2,0,P|88:224|96:256,1,80,2|0,0:0|0:0,0:0:0:0:
80,352,70300,2,0,L|24:384,2,40
192,320,70761,1,2,0:0:0:0:
296,344,70992,1,0,0:0:0:0:
400,296,71223,6,0,P|432:248|432:224,1,80,0|2,1:0|0:0,0:0:0:0:
432,152,71569,2,0,P|416:120|376:88,1,80,0|2,1:0|0:0,0:0:0:0:
320,40,71915,1,0,1:0:0:0:
496,144,72146,2,0,L|528:168,2,40
320,40,72607,2,2,P|272:72|208:64,1,120,4|0,0:1|0:0,0:0:0:0:
128,8,73069,5,0,1:0:0:0:
40,288,73415,1,0,1:0:0:0:
296,232,73761,1,0,1:0:0:0:
384,184,73992,2,0,P|392:248|360:288,1,80,0|0,1:0|1:0,0:0:0:0:
304,312,74454,2,2,P|392:352|432:328,1,120,4|0,0:1|0:0,0:0:0:0:
472,272,74915,6,0,L|472:152,1,120,0|0,1:0|0:0,0:0:0:0:
431,79,75377,2,0,P|395:64|355:65,1,80,2|4,0:3|3:1,0:0:0:0:
210,169,75838,2,0,P|237:139|272:120,1,80,0|0,1:1|1:0,0:0:0:0:
288,224,76300,2,2,B|256:264|208:256|208:256|200:296,1,120,4|0,1:0|0:0,0:0:0:0:
120,304,76761,6,0,P|168:352|248:352,1,134.400001640625,4|0,1:2|0:0,0:0:0:0:
296,328,77223,1,8,0:1:0:0:
192,152,77454,1,0,0:0:0:0:
352,184,77684,2,0,P|432:160|464:168,1,89.60000109375,0|0,0:0|1:0,0:0:0:0:
400,304,78146,2,0,P|344:328|288:320,1,89.60000109375,8|0,0:1|0:0,0:0:0:0:
296,328,78492,5,4,1:0:0:0:
272,328,78608,1,0,1:0:0:0:
280,168,78838,1,0,0:0:0:0:
296,144,78954,1,0,0:0:0:0:
312,120,79069,1,8,0:1:0:0:
168,184,79300,1,2,0:0:0:0:
72,104,79531,1,0,1:0:0:0:
56,125,79646,1,0,0:0:0:0:
48,151,79761,1,0,1:0:0:0:
49,177,79877,1,0,1:0:0:0:
60,202,79992,1,8,1:0:0:0:
240,296,80223,5,4,0:1:0:0:
240,296,80338,1,0,0:0:0:0:
240,296,80454,2,0,L|344:288,1,89.60000109375,0|0,1:0|0:0,0:0:0:0:
360,256,80800,1,0,0:0:0:0:
384,224,80915,2,0,P|416:176|472:168,1,89.60000109375,8|0,0:1|0:0,0:0:0:0:
224,72,81377,2,0,P|176:104|128:112,1,89.60000109375,0|0,1:0|0:0,0:0:0:0:
112,112,81723,1,0,0:0:0:0:
80,104,81838,2,0,L|56:200,1,89.60000109375,8|0,0:1|0:0,0:0:0:0:
240,288,82300,6,0,P|296:248|344:240,1,89.60000109375,0|0,1:0|0:0,0:0:0:0:
352,240,82646,1,0,0:0:0:0:
392,248,82761,1,8,0:1:0:0:
352,352,82992,2,2,P|304:248|320:176,1,179.2000021875,4|0,1:0|0:0,0:0:0:0:
448,96,83685,1,12,0:1:0:0:
424,64,83800,1,0,0:0:0:0:
384,48,83915,1,0,0:0:0:0:
344,48,84031,1,0,0:0:0:0:
312,64,84146,6,0,L|168:80,1,134.400001640625,0|0,1:0|0:0,0:0:0:0:
144,120,84608,1,8,0:1:0:0:
368,168,84838,1,0,0:0:0:0:
216,304,85069,2,0,P|160:328|112:320,2,89.60000109375,0|0|8,1:0|1:0|0:1,0:0:0:0:
408,296,85762,6,0,L|376:256,1,44.800000546875,4|0,3:1|0:0,0:0:0:0:
416,208,85992,2,0,P|376:160|400:64,1,134.400001640625,0|0,1:0|0:0,0:0:0:0:
379,91,86454,2,0,L|280:120,1,89.60000109375,8|0,0:1|0:0,0:0:0:0:
88,56,86915,2,0,L|56:104,1,44.800000546875,0|8,1:0|0:1,0:0:0:0:
112,144,87146,2,0,L|128:192,1,44.800000546875
80,240,87377,1,8,1:0:0:0:
184,328,87608,5,4,0:1:0:0:
184,328,87723,1,0,0:0:0:0:
184,328,87839,2,0,P|264:320|288:304,1,89.60000109375,0|0,1:0|0:0,0:0:0:0:
296,280,88185,1,0,0:0:0:0:
320,240,88300,2,0,L|328:144,1,89.60000109375,8|0,0:1|0:0,0:0:0:0:
200,80,88762,1,0,1:0:0:0:
392,48,88992,1,0,0:0:0:0:
392,48,89108,1,0,0:0:0:0:
392,48,89223,2,0,P|440:104|440:152,1,89.60000109375,8|0,0:1|0:0,0:0:0:0:
312,136,89685,6,0,P|232:160|184:152,1,134.400001640625,8|0,0:1|0:0,0:0:0:0:
152,136,90146,1,2,3:0:0:0:
296,64,90377,1,4,0:1:0:0:
352,240,90608,1,0,0:0:0:0:
336,272,90723,1,0,0:0:0:0:
312,296,90839,1,0,0:0:0:0:
280,312,90954,1,0,0:0:0:0:
248,312,91069,1,8,0:1:0:0:
64,208,91300,1,0,0:0:0:0:
64,208,91416,1,0,0:0:0:0:
64,208,91531,6,0,P|64:144|96:96,1,89.60000109375,0|0,1:0|0:0,0:0:0:0:
104,96,91877,1,0,0:0:0:0:
136,72,91992,2,0,L|240:72,1,89.60000109375,8|0,0:1|0:0,0:0:0:0:
456,56,92454,1,0,3:0:0:0:
456,56,92569,1,0,3:0:0:0:
456,56,92685,1,0,1:0:0:0:
328,184,92916,1,8,1:0:0:0:
488,240,93146,2,0,P|448:296|400:320,1,89.60000109375,4|0,0:1|0:0,0:0:0:0:
184,272,93608,5,0,3:0:0:0:
184,272,93723,1,0,3:0:0:0:
184,272,93839,1,8,0:1:0:0:
328,184,94069,1,0,0:0:0:0:
328,32,94300,1,0,1:0:0:0:
176,176,94530,1,0,1:0:0:0:
176,176,94646,1,0,0:0:0:0:
176,176,94762,2,2,P|112:216|96:296,1,134.400001640625,12|0,1:1|0:0,0:0:0:0:
184,272,95223,6,0,P|256:304|304:272,1,134.400001640625,0|0,1:0|0:0,0:0:0:0:
320,248,95685,1,8,0:1:0:0:
392,104,95916,2,0,L|416:48,1,44.800000546875,0|8,0:0|0:1,0:0:0:0:
232,64,96262,2,0,L|264:128,1,44.800000546875,8|0,0:1|0:0,0:0:0:0:
320,248,96608,2,0,L|336:304,3,44.800000546875,8|8|0|0,0:1|0:1|1:0|0:0,0:0:0:0:
336,304,97069,6,0,P|256:320|200:307,1,134.400001640625,4|0,0:1|0:0,0:0:0:0:
104,112,97762,1,0,2:0:0:0:
104,112,97877,1,0,0:0:0:0:
104,112,97993,2,0,L|104:224,1,89.60000109375,0|0,1:0|1:0,0:0:0:0:
256,88,98454,1,8,0:1:0:0:
256,88,98570,1,8,0:1:0:0:
256,88,98685,1,0,1:0:0:0:
216,248,98916,6,0,P|152:216|104:120,1,179.2000021875,4|0,2:0|0:0,0:0:0:0:
256,88,99608,1,4,2:0:0:0:
296,248,99839,2,0,P|360:216|408:120,1,179.2000021875,4|0,2:0|0:0,0:0:0:0:
256,88,100531,1,0,0:0:0:0:
256,88,100646,1,0,0:0:0:0:
256,88,100762,6,0,L|160:128,1,80,0|0,1:0|0:0,0:0:0:0:
224,168,101108,2,0,L|120:168,1,80,0|0,1:0|0:0,0:0:0:0:
168,232,101454,1,4,0:1:0:0:
384,88,102146,6,0,L|457:118,1,80,0|0,1:0|0:0,0:0:0:0:
416,168,102492,2,0,L|496:168,1,80,0|0,1:0|0:0,0:0:0:0:
472,232,102838,1,4,0:1:0:0:
248,320,103531,6,2,P|319:349|392:320,1,160,12|0,3:1|0:0,0:0:0:0:
256,192,104107,12,0,107684,0:0:0:0:
