osu file format v9

[General]
AudioFilename: - OP 1.mp3
AudioLeadIn: 1015
PreviewTime: 74871
Countdown: 1
SampleSet: Soft
StackLeniency: 0.7
Mode: 0
LetterboxInBreaks: 1

[Editor]
Bookmarks: 6334,8411,40488,45334,46488,88717,92180,102103,103950
DistanceSpacing: 0.7
BeatDivisor: 4
GridSize: 4

[Metadata]
Title:Natsu no Fantasia
Artist:Satou Hiromi
Creator:AisamaDX
Version:azuki
Source:Tasogare no sinsemilla
Tags:azuki swish opening applique

[Difficulty]
HPDrainRate:7
CircleSize:4
OverallDifficulty:8
ApproachRate:8
SliderMultiplier:2
SliderTickRate:1

[Events]
//Background and Video events
Video,0,"OP.flv"
0,0,"BG.jpg"
//Break Periods
//Storyboard Layer 0 (Background)
//Storyboard Layer 1 (Fail)
//Storyboard Layer 2 (Pass)
//Storyboard Layer 3 (Foreground)
//Storyboard Sound Samples
//Background Colour Transformations
3,100,163,162,255

[TimingPoints]
1025,461.538461538462,4,2,1,55,1,0
6332,-100,4,2,1,65,0,0
6448,-100,4,2,1,60,0,0
20871,-100,4,2,1,60,0,0
21332,-100,4,2,1,60,0,0
21563,-100,4,2,1,63,0,0
21794,-100,4,2,1,66,0,0
22025,-100,4,2,1,69,0,0
22255,-100,4,2,1,72,0,0
22717,-100,4,2,1,75,0,0
23178,-100,4,1,1,65,0,0
23986,-100,4,2,1,65,0,0
25025,-100,4,2,1,75,0,0
32409,-100,4,2,1,60,0,0
35755,-100,4,2,1,60,0,0
46486,-100,4,2,1,75,0,0
47178,-100,4,2,1,60,0,0
61371,-100,4,1,1,46,0,0
61948,-100,4,2,1,70,0,0
72563,-100,4,2,1,60,0,0
73601,-200,4,2,1,60,0,0
74871,-100,4,1,1,72,0,0
75794,-100,4,2,1,60,0,0
76717,-100,4,1,1,42,0,1
76832,-100,4,2,1,80,0,0
87909,-100,4,2,1,80,0,0
88255,-100,4,2,1,80,0,0
88832,-100,4,2,1,80,0,0
89178,-100,4,2,1,80,0,0
91025,-100,4,2,1,65,0,0
91717,-100,4,2,1,60,0,0
97025,-100,4,1,1,54,0,0
97486,-100,4,2,1,80,0,0
100717,-100,4,2,1,80,0,0
102101,-100,4,2,1,60,0,0
103486,-200,4,2,1,60,0,0
103948,461.538461538462,4,2,1,30,1,0
103948,-100,4,1,1,44,0,0
106948,-100,4,2,1,15,0,0
109948,-100,4,2,1,5,0,0

[Colours]
Combo1 : 255,255,255
Combo2 : 78,12,188
Combo3 : 170,170,255
Combo4 : 255,0,0
Combo5 : 255,128,0

[HitObjects]
56,268,1025,1,2
84,172,1255,1,0
164,236,1486,1,0
56,268,1717,2,0,B|96:304|148:288,1,100,0|2
216,164,2178,2,0,B|176:128|124:148,1,100
216,164,2640,1,0
248,248,2871,5,2
320,300,3101,1,0
372,228,3332,1,0
248,248,3563,2,0,B|272:188|232:156,1,100,0|2
364,256,4025,2,0,B|340:316|380:348,1,100
364,256,4486,1,0
432,200,4717,5,2
372,132,4948,1,0
320,208,5178,1,0
432,200,5409,2,0,B|484:160|444:112,1,100,0|2
372,60,5871,1,0
344,56,5986,1,0
316,52,6101,1,2
288,48,6217,1,0
260,44,6332,1,4
260,340,7486,5,0
164,304,7717,1,0
164,304,7832,1,0
164,304,7948,2,0,B|96:336|40:284,1,100
104,216,8409,2,0,B|152:188|200:200,1,100,4|0
284,244,8871,1,0
208,308,9101,1,0
116,252,9332,1,2
428,188,9794,1,0
344,240,10025,5,0
344,240,10140,1,0
344,240,10255,2,0,B|288:180|340:100,1,150,2|0
308,88,10717,2,0,B|264:120|212:92,1,100
128,40,11178,1,2
200,352,11640,1,0
144,264,11871,5,0
144,264,11986,1,0
144,264,12101,2,0,B|200:204|280:208,1,150,2|0
312,212,12563,1,0
352,316,12794,1,0
452,260,13024,1,2
252,32,13486,5,0
340,76,13717,1,0
296,164,13948,1,2
208,116,14178,1,0
272,96,14409,6,0,B|208:40|128:76,1,150,2|0
124,128,14871,2,0,B|64:140|24:88,1,100,2|0
76,184,15332,5,0
64,212,15448,1,0
76,240,15563,1,0
60,264,15678,1,0
72,292,15794,2,0,B|124:344|196:344|256:296,1,200,2|0
352,344,16486,1,0
436,276,16717,1,2
340,80,17178,5,0
260,140,17409,1,0
192,212,17640,2,0,B|116:156|184:80,1,150,2|0
200,56,18101,1,0
320,192,18332,1,0
200,328,18563,1,2
200,328,19255,5,0
200,328,19371,1,0
200,328,19486,1,4
200,328,20871,5,4
200,328,21332,5,2
40,260,21563,1,0
232,212,21794,1,2
104,60,22025,1,0
300,212,22255,1,2
408,60,22486,1,0
312,328,22717,1,2
472,260,22948,1,2
80,192,23178,5,0
256,352,23525,1,0
432,192,23871,1,0
256,128,24217,6,0,B|256:56,2,50,0|0|0
256,168,24563,2,0,B|256:236,3,50,2|0|0|0
252,260,25025,6,0,B|200:316|108:276,1,150,8|0
80,264,25486,1,0
32,176,25717,1,0
88,92,25948,1,8
168,152,26178,1,0
176,252,26409,5,0
220,276,26525,1,0
268,284,26640,1,0
316,272,26755,1,0
360,248,26871,2,0,B|436:224|436:128,1,150,8|0
436,96,27332,1,0
352,44,27563,1,0
260,88,27794,1,8
308,176,28025,1,0
204,172,28255,5,0
188,220,28371,1,0
148,248,28486,1,0
100,252,28601,1,0
52,244,28717,2,0,B|-20:188|48:112,1,150,2|0
72,88,29178,1,0
172,184,29409,2,0,B|240:240|176:316,1,150,2|0
156,340,29871,1,0
304,312,30101,2,0,B|336:264|396:284,1,100,2|0
456,196,30563,5,2
256,52,30909,1,2
56,196,31255,1,2
148,240,31486,1,0
68,300,31717,1,0
152,356,31948,1,2
176,352,32063,1,0
200,348,32178,1,0
224,344,32294,1,0
248,340,32409,1,4
408,308,32871,5,0
380,232,33101,1,0
440,176,33332,1,0
372,48,33678,1,0
372,48,33794,2,0,B|336:16|276:32,1,100,2|0
212,76,34255,1,2
176,148,34486,1,0
168,228,34717,1,0
200,300,34948,1,0
200,300,35640,5,2
200,300,36101,2,0,B|308:337|391:276,1,200,2|0
388,196,36794,1,0
328,144,37025,2,0,B|280:184|220:152|224:96,1,150,2|0
228,60,37486,2,0,B|172:40|128:56,1,100
188,168,37948,6,0,B|232:200|232:268|192:304,1,150,2|0
176,332,38409,2,0,B|136:372|84:364,1,100
40,292,38871,1,2
40,292,38986,1,0
40,292,39101,1,0
104,200,39332,1,0
52,104,39563,1,0
140,36,39794,1,2
392,132,40255,5,0
376,232,40486,1,0
312,168,40717,2,0,B|248:224|168:192,1,150,2|0
148,184,41178,1,0
80,112,41409,1,0
168,64,41640,2,0,B|244:-4|356:48,1,200,2|0
404,132,42332,1,0
404,132,42448,1,0
404,132,42563,2,0,B|484:216|416:316,1,200,2|0
328,360,43255,1,0
236,260,43486,6,0,B|248:320,1,50,2|0
128,256,43832,2,0,B|116:196,1,50,2|0
32,152,44178,1,0
116,96,44409,2,0,B|104:36,1,50,2|0
216,120,44755,2,0,B|228:180,1,50,2|0
296,244,45101,1,0
424,192,45332,5,2
256,52,45678,1,2
88,192,46025,1,2
344,336,46486,5,2
372,316,46601,1,0
356,284,46717,1,2
388,272,46832,1,0
412,244,46948,1,0
404,208,47063,1,0
388,176,47178,2,0,B|332:108|256:124,1,150,2|0
224,136,47640,1,0
148,216,47871,5,0
224,296,48101,2,0,B|176:368|88:320,1,150,2|0
64,300,48563,1,0
112,204,48794,2,0,B|160:160|208:188,1,100,0|2
232,204,49140,1,0
276,300,49371,1,0
304,304,49486,1,0
376,240,49717,2,0,B|384:184,1,50,2|0
432,204,49948,2,0,B|432:148,1,50,2|0
420,104,50178,2,0,B|376:128,1,50,2|0
344,140,50409,6,0,B|292:160|248:116,1,100,2|0
320,32,50871,2,0,B|492:80,1,150,2|0
480,104,51332,1,0
440,204,51563,1,0
376,292,51794,2,0,B|208:320,1,150,2|0
196,300,52255,1,0
144,208,52486,1,0
192,108,52717,2,0,B|376:84,1,150,2|0
368,112,53178,1,0
432,196,53409,5,0
364,280,53640,1,2
256,336,53871,1,0
148,280,54101,1,0
80,196,54332,1,0
80,196,54448,1,0
80,196,54563,1,6
432,196,55025,5,0
368,108,55255,1,0
284,180,55486,2,0,B|220:236|148:176,1,150,2|0
120,160,55948,1,0
72,60,56178,1,0
52,168,56409,2,0,B|16:208|12:296|48:316,1,150,2|0
56,340,56871,1,0
132,244,57101,1,0
248,292,57332,6,0,B|144:352,1,100,2|0
264,92,57794,2,0,B|368:32,1,100,2|0
468,192,58255,6,0,B|384:200|328:140,1,150,2|0
316,120,58717,1,0
172,72,58948,2,0,B|112:156|176:248,1,150,2|0
172,240,59409,1,0
232,332,59640,1,0
340,316,59871,1,0
416,236,60101,1,2
424,208,60217,1,0
432,180,60332,1,0
440,152,60448,1,0
368,76,60678,1,2
360,48,60794,1,0
256,264,61255,5,2
256,264,61486,1,4
160,40,61948,6,0,B|104:28|56:108|88:152,1,150,2|0
96,172,62409,1,0
60,276,62640,1,0
160,320,62871,1,2
160,320,62986,1,0
56,96,63217,1,2
56,96,63332,1,0
152,44,63563,1,0
248,96,63794,6,0,B|324:120|400:84,1,150,2|0
424,68,64255,1,0
460,172,64486,1,0
416,272,64717,1,2
416,272,64832,1,0
176,312,65063,1,2
176,312,65178,1,0
92,244,65409,5,0
156,156,65640,1,2
72,84,65871,1,0
180,76,66101,2,0,B|216:36|284:52,1,100,2|0
300,60,66448,2,0,B|368:96|352:160,1,100,2|0
348,168,66794,1,2
280,256,67025,1,0
280,256,67140,1,0
280,256,67255,1,0
160,280,67486,6,0,B|100:300|52:220|96:184,1,150,2|0
112,160,67948,1,0
152,56,68178,1,0
236,124,68409,1,2
284,116,68525,1,0
356,36,68755,2,0,B|408:52,1,50,2|0
392,84,68986,2,0,B|444:96,1,50,2|0
460,112,69217,1,0
476,136,69332,6,0,B|472:224|400:260,1,150,2|0
372,264,69794,1,0
344,156,70025,1,0
244,76,70255,1,2
244,76,70371,1,0
112,280,70601,1,2
112,280,70717,1,0
76,176,70948,5,0
164,108,71178,2,0,B|244:156|308:96,1,150,2|0
324,80,71640,1,0
416,144,71871,1,0
364,240,72101,1,2
364,240,72217,1,0
208,56,72448,1,2
208,56,72563,1,0
120,124,72794,1,0
48,208,73025,5,2
252,340,73371,1,2
472,192,73717,2,0,B|400:192|388:208|376:244|320:240|280:216|288:184|304:152|328:148|360:172|356:192,1,250,2|4
351,177,75217,1,0
351,177,75563,1,4
268,244,75794,6,0,B|248:296,3,50
264,164,76255,2,0,B|216:144,1,50,2|0
216,68,76486,2,0,B|156:48,1,50,2|0
80,92,76717,6,0,B|0:192|80:272,1,200,4|0
180,352,77409,1,0
268,256,77640,2,0,B|300:188|236:116,1,150,2|0
208,100,78101,1,0
100,172,78332,1,0
140,296,78563,2,0,B|208:344|280:296,1,150,2|0
308,276,79025,1,0
400,184,79255,1,0
336,72,79486,1,2
232,152,79717,1,0
232,152,79832,1,0
232,152,79948,1,0
164,248,80178,5,0
164,248,80294,1,0
164,248,80409,2,0,B|116:272|32:196|64:160,1,150,2|0
68,140,80871,1,0
192,100,81101,1,0
192,100,81217,1,0
192,100,81332,2,0,B|228:32|324:52,1,150,2|0
356,60,81794,1,0
416,176,82024,1,0
316,260,82255,1,6
244,52,82717,6,0,B|159:50|121:129,1,150,2|0
151,171,83179,2,0,B|113:219|49:205,1,100,2|0
204,360,83640,5,2
236,328,83755,1,0
204,296,83871,1,0
240,272,83986,1,0
208,240,84101,2,0,B|232:172|144:116,1,150,2|0
112,104,84563,1,0
24,200,84794,1,0
112,292,85024,1,2
112,292,85140,1,0
352,316,85371,1,2
352,316,85486,1,0
268,216,85717,5,0
260,88,85948,2,0,B|324:34|409:67,1,150,2|0
432,76,86409,1,0
464,204,86640,1,0
376,300,86871,1,2
136,84,87332,5,0
136,84,87563,1,0
136,84,87794,2,0,B|96:44|32:60,1,100,4|0
52,92,88140,2,0,B|4:124|24:184,1,100,4|0
40,212,88486,1,2
176,352,88717,6,0,B|229:370|279:327,1,100,4|0
248,308,89063,2,0,B|277:258|232:213,1,100,4|0
206,194,89409,1,2
352,64,89640,6,0,B|392:24|456:40,1,100,4|0
436,72,89986,2,0,B|484:104|464:164,1,100,4|0
448,192,90332,1,2
368,284,90563,1,0
208,40,91024,5,0
80,136,91486,1,2
176,264,91948,1,0
304,168,92409,1,2
208,40,92871,5,0
68,256,93332,1,2
308,360,93794,1,0
480,164,94255,1,2
440,72,94486,1,0
348,112,94717,6,0,B|276:108|296:28,1,100,2|0
164,272,95178,2,0,B|236:276|216:356,1,100,2|0
448,272,95640,2,0,B|332:240,1,100,2|0
64,112,96101,2,0,B|180:144,1,100,2|0
256,192,96563,5,2
256,192,96678,1,0
256,192,96794,1,0
380,248,97024,2,0,B|396:300,1,50,4|0
440,296,97255,2,0,B|452:344,1,50,4|0
256,192,97717,6,0,B|256:124,1,50,2|0
256,108,97948,2,0,B|228:72|160:56|116:80,1,150,2|0
88,96,98409,1,0
48,184,98640,1,0
140,224,98871,2,0,B|176:268|244:268|268:220,1,150,2|0
288,192,99332,1,0
340,108,99563,1,0
436,140,99794,2,0,B|476:164|476:256|436:272,1,150,2|0
408,288,100255,1,0
320,336,100486,1,0
200,296,100717,5,2
96,168,101063,1,2
196,36,101409,1,4
312,296,102101,5,2
416,168,102448,1,2
316,36,102794,1,4
256,336,103486,6,0,B|256:232,1,100,0|4
256,192,104063,12,0,109948
