osu file format v9

[General]
AudioFilename: - OP 1.mp3
AudioLeadIn: 1015
PreviewTime: 74871
Countdown: 1
SampleSet: Normal
StackLeniency: 0.7
Mode: 0
LetterboxInBreaks: 1

[Editor]
Bookmarks: 6334,8411,40488,45334,46488,92180,102103,103950
DistanceSpacing: 1.1
BeatDivisor: 4
GridSize: 4

[Metadata]
Title:Natsu no Fantasia
Artist:Satou Hiromi
Creator:AisamaDX
Version:Normal
Source:Tasogare no sinsemilla
Tags:azuki swish opening applique

[Difficulty]
HPDrainRate:3
CircleSize:3
OverallDifficulty:3
ApproachRate:4
SliderMultiplier:0.899999999999999
SliderTickRate:1

[Events]
//Background and Video events
Video,0,"OP.flv"
0,0,"BG.jpg"
//Break Periods
//Storyboard Layer 0 (Background)
//Storyboard Layer 1 (Fail)
//Storyboard Layer 2 (Pass)
//Storyboard Layer 3 (Foreground)
//Storyboard Sound Samples
//Background Colour Transformations
3,100,163,162,255

[TimingPoints]
1025,461.538461538462,4,2,1,55,1,0
6334,-100,4,2,1,65,0,0
6450,-100,4,2,1,60,0,0
19257,-100,4,1,1,60,0,0
21103,-100,4,1,1,40,0,0
22142,-100,4,1,1,55,0,0
22950,-100,4,1,1,65,0,0
23988,-100,4,2,1,65,0,0
24796,-100,4,2,1,75,0,0
31719,-100,4,1,1,65,0,0
32294,-100,4,2,1,60,0,0
35065,-100,4,2,1,40,0,0
35296,-100,4,2,1,60,0,0
38757,-100,4,2,1,30,0,0
38988,-100,4,2,1,60,0,0
42450,-100,4,2,1,30,0,0
42680,-100,4,2,1,60,0,0
46488,-100,4,2,1,75,0,0
47180,-100,4,2,1,60,0,0
49834,-100,4,2,1,30,0,0
50065,-100,4,2,1,60,0,0
53527,-100,4,2,1,40,0,0
53757,-100,4,2,1,60,0,0
61950,-100,4,2,1,70,0,0
72565,-100,4,2,1,60,0,0
74873,-100,4,1,1,60,0,0
75796,-100,4,2,1,60,0,0
76719,-100,4,2,1,80,0,1
76834,-100,4,2,1,80,0,0
83411,-100,4,1,1,50,0,0
83873,-100,4,2,1,80,0,0
90794,-100,4,1,1,50,0,0
91255,-100,4,2,1,60,0,0
94488,-100,4,2,1,50,0,0
94950,-100,4,2,1,60,0,0
97257,-100,4,1,1,50,0,0
97488,-100,4,2,1,80,0,0
102103,-100,4,2,1,60,0,0
103257,-100,4,1,1,50,0,0
103719,-100,4,2,1,60,0,0
106257,-100,4,2,1,30,0,0
108103,-100,4,2,1,15,0,0
109950,-100,4,2,1,5,0,0

[Colours]
Combo1 : 255,255,255
Combo2 : 78,12,188
Combo3 : 170,170,255
Combo4 : 255,0,0
Combo5 : 255,128,0

[HitObjects]
384,324,1025,1,0
312,256,1486,2,0,B|276:316|176:312|139:272,1,180,0|2
52,276,2871,1,0
108,192,3332,2,0,B|86:170|91:133,2,45,2|0|0
196,148,4255,5,2
196,148,4717,2,0,B|256:152|304:188|308:268,1,180
380,332,6101,1,2
380,332,6332,1,4
328,92,7486,6,0,B|339:67|387:59|410:79,1,89.9999999999999,0|2
364,168,8409,2,0,B|304:184|260:156|248:108,1,135,0|0
212,92,9332,1,2
16,100,10255,2,0,B|24:24,2,67.4999999999999,0|0|0
36,144,11178,1,2
224,208,12101,6,0,B|196:248|148:248,1,89.9999999999999,0|2
208,332,13024,2,0,B|268:288|348:308,1,135
384,320,13948,1,0
412,224,14409,2,0,B|448:220|464:260|500:256,2,89.9999999999999,2|0|2
348,148,15794,6,0,B|316:204|316:204|252:180|208:224,1,180,4|0
176,80,17409,1,0
176,80,17640,2,0,B|176:136|120:164,2,89.9999999999999,0|2|0
256,260,19486,1,4
256,128,21332,6,0,B|256:72,6,45
256,228,23178,2,0,B|256:308,2,67.4999999999999,2|0|2
360,120,24563,1,4
408,208,25025,6,0,B|360:232|300:216|276:172,1,135,4|0
264,88,26178,2,0,B|296:40,1,45,0|2
360,120,26871,2,0,B|332:184|368:256,1,135
292,316,28025,2,0,B|244:336,1,45,0|2
260,236,28717,6,0,B|326:246|377:177|357:109,1,180
272,72,30101,1,2
184,116,30563,2,0,B|172:192,2,67.4999999999999
92,236,31948,2,0,B|112:284|180:284,1,89.9999999999999,0|0
252,164,33101,5,0
252,164,33332,2,0,B|196:156|168:196,2,89.9999999999999,0|2|0
352,168,34717,1,2
428,104,35178,1,8
480,188,35640,2,0,B|452:288,1,89.9999999999999,2|2
320,340,36794,5,0
320,340,37025,2,0,B|284:268,1,67.4999999999999
216,292,37717,1,0
216,292,37948,2,0,B|176:260|172:196|208:156,1,135
216,124,38871,1,8
128,76,39332,2,0,B|60:140,1,89.9999999999999,2|0
172,240,40486,5,0
172,240,40717,2,0,B|132:280|76:256,2,89.9999999999999,0|2|0
304,308,42332,1,0
304,308,42563,2,0,B|328:268|328:208,1,89.9999999999999,0|2
292,128,43486,6,0,B|240:136|228:208,1,89.9999999999999,0|2
184,180,44178,2,0,B|60:128,1,135,0|2
132,72,45332,2,0,B|88:52|88:52|80:20,2,67.4999999999999
228,48,46486,2,0,B|232:52|232:52|240:44|240:44|248:52|248:52|256:44|256:44|264:52|264:52|272:44|272:44|280:52|280:52|288:44|288:44|296:48|296:48|336:48,1,135,0|4
388,188,47871,5,0
388,188,48101,2,0,B|392:232|380:268,2,67.4999999999999,2|0|0
356,148,49025,2,0,B|256:168|176:120,1,180,2|8
84,100,50409,2,0,B|96:152|92:200,1,89.9999999999999,0|2
192,296,51563,5,0
192,296,51794,2,0,B|182:253|185:214,1,67.4999999999999,2|0
212,160,52486,1,0
212,160,52717,2,0,B|252:184|316:176|352:136,1,135,2|0
368,108,53640,1,8
404,304,54563,1,2
256,320,55255,6,0,B|268:264,1,45,0|2
336,204,55948,1,0
380,116,56409,2,0,B|428:140|448:196|428:240,1,135,2|0
412,276,57332,2,0,B|312:256,1,89.9999999999999,2|0
232,220,58255,2,0,B|232:292,2,67.4999999999999,2|0|2
256,192,59063,12,2,60794
152,100,61948,6,0,B|128:100|128:100|112:88|112:88|84:88,2,67.4999999999999,4|0|0
200,100,62871,1,0
360,216,63794,6,0,B|384:216|384:216|400:228|400:228|428:228,2,67.4999999999999
312,216,64717,1,0
116,224,65640,6,0,B|140:268|128:312,2,89.9999999999999,0|2|0
92,180,66794,2,0,B|112:124,2,45,0|2|0
132,208,67486,2,0,B|168:236|232:228|256:188,1,135
272,148,68409,1,2
104,32,69332,6,0,B|76:100|112:164,1,135,6|0
132,208,70255,1,2
260,136,70948,1,0
260,136,71178,2,0,B|304:156|368:124|364:72,1,135,2|0
324,52,72101,2,0,B|228:36,1,89.9999999999999,2|0
180,120,73025,6,0,B|172:160|196:184,2,67.4999999999999,2|0|2
256,192,73832,12,0,75794
68,312,76717,6,0,B|80:264|152:252|192:292,1,135,4|0
220,252,77640,2,0,B|276:240|288:180,1,89.9999999999999,2|0
192,156,78563,2,0,B|160:92,2,67.4999999999999,2|0|0
180,204,79486,2,0,B|239:253|324:228,1,135,2|0
352,208,80409,6,0,B|376:280,1,67.4999999999999,2|0
424,328,81101,1,0
424,328,81332,2,0,B|504:356,2,67.4999999999999,2|0|0
440,280,82255,2,0,B|468:236|444:184,2,89.9999999999999,2|0|2
360,336,83640,1,0
276,288,84101,6,0,B|204:264|136:292,1,135,4|0
96,304,85024,1,2
184,184,85717,1,0
184,184,85948,2,0,B|203:113|140:63,1,135,2|0
96,44,86871,1,2
84,192,87563,5,0
84,192,87794,2,0,B|56:268,2,67.4999999999999,2|0|0
132,176,88717,2,0,B|152:208|228:224|264:200,1,135,2|0
304,200,89640,2,0,B|350:230|340:328|262:349,1,180,2|0
184,300,91024,5,0
184,300,91486,2,0,B|217:266|284:273|314:313,1,135,4|0
428,216,92871,1,2
328,108,93563,2,0,B|284:96|256:124|256:124|204:88,1,135
116,132,94717,1,4
256,192,95178,12,0,97371
304,236,97948,6,0,B|328:190|304:146,1,89.9999999999999,0|2
204,148,98871,2,0,B|180:194|204:238,1,89.9999999999999,0|2
220,280,99563,1,0
256,192,99794,12,4,101409
224,220,102101,6,0,B|256:248|288:216,2,67.4999999999999,2|0|2
256,76,103486,1,0
256,192,103948,12,0,109948
