osu file format v10

[General]
AudioFilename: - OP 1.mp3
AudioLeadIn: 1015
PreviewTime: 74871
Countdown: 1
SampleSet: Normal
StackLeniency: 0.7
Mode: 0
LetterboxInBreaks: 1

[Editor]
Bookmarks: 911,6334,8411,40488,45334,46488,92180,102103,103950
DistanceSpacing: 1.8
BeatDivisor: 4
GridSize: 4

[Metadata]
Title:Natsu no Fantasia
TitleUnicode:Natsu no Fantasia
Artist:Satou Hiromi
ArtistUnicode:Satou Hiromi
Creator:AisamaDX
Version:Insane
Source:Tasogare no sinsemilla
Tags:azuki swish opening applique
BeatmapID:158245
BeatmapSetID:51662

[Difficulty]
HPDrainRate:7
CircleSize:5
OverallDifficulty:7
ApproachRate:7
SliderMultiplier:1.6
SliderTickRate:1

[Events]
//Background and Video events
Video,0,"OP.flv"
0,0,"BG.jpg"
//Break Periods
//Storyboard Layer 0 (Background)
//Storyboard Layer 1 (Fail)
//Storyboard Layer 2 (Pass)
//Storyboard Layer 3 (Foreground)
//Storyboard Sound Samples
//Background Colour Transformations
3,100,163,162,255

[TimingPoints]
1025,461.538461538462,4,2,1,55,1,0
6332,-100,4,2,1,65,0,0
6448,-100,4,2,1,60,0,0
20871,-100,4,2,1,60,0,0
21332,-100,4,2,1,60,0,0
21563,-100,4,2,1,63,0,0
21794,-100,4,2,1,66,0,0
22025,-100,4,2,1,69,0,0
22255,-100,4,2,1,72,0,0
22717,-100,4,2,1,75,0,0
23178,-100,4,1,1,65,0,0
23986,-100,4,2,1,65,0,0
25025,-100,4,2,1,75,0,0
32409,-100,4,2,1,60,0,0
46486,-100,4,2,1,75,0,0
47178,-100,4,2,1,60,0,0
61948,-100,4,2,1,70,0,0
72563,-100,4,2,1,60,0,0
74871,-100,4,1,1,60,0,0
75794,-100,4,2,1,60,0,0
76717,-100,4,2,1,80,0,1
76832,-100,4,2,1,80,0,0
87794,-100,4,2,1,95,0,0
87909,-100,4,2,1,80,0,0
88140,-100,4,2,1,95,0,0
88255,-100,4,2,1,80,0,0
88717,-100,4,2,1,95,0,0
88832,-100,4,2,1,80,0,0
89063,-100,4,2,1,95,0,0
89178,-100,4,2,1,80,0,0
91025,-100,4,2,1,65,0,0
91717,-100,4,2,1,60,0,0
97025,-100,4,2,1,85,0,0
100717,-100,4,2,1,80,0,0
102101,-100,4,2,1,60,0,0
103486,-100,4,2,1,60,0,0
103948,-100,4,2,1,30,0,0
106948,-100,4,2,1,15,0,0
109948,-100,4,2,1,5,0,0

[Colours]
Combo1 : 255,255,255
Combo2 : 78,12,188
Combo3 : 170,170,255
Combo4 : 255,0,0
Combo5 : 255,128,0

[HitObjects]
400,192,1025,2,0,B|356:240|296:248,1,120,2|0,0:0|0:0,0:0:0
264,224,1486,2,0,B|220:220|184:232,1,80
128,172,1948,1,2,0:0:0
128,172,2063,1,0,0:0:0
128,172,2178,2,0,B|40:172,2,80
192,120,2871,1,2,0:0:0
204,200,3101,1,0,0:0:0
128,172,3332,5,0,0:0:0
272,148,3563,1,0,0:0:0
152,228,3794,1,2,0:0:0
112,88,4025,1,0,0:0:0
244,32,4255,2,0,B|280:48|324:36,1,80
436,124,4717,2,0,B|400:108|356:120,1,80,2|0,0:0|0:0,0:0:0
324,140,5063,5,0,0:0:0
296,168,5178,2,0,B|253:179|217:163,1,80
172,100,5640,1,2,0:0:0
56,184,5871,1,0,0:0:0
68,200,5986,1,0,0:0:0
80,216,6101,1,2,0:0:0
92,232,6217,1,0,0:0:0
104,248,6332,5,4,0:0:0
268,60,8409,6,0,B|248:120|188:144,1,120
156,168,8871,2,0,B|172:208|204:232,1,80,2|0,0:0|0:0,0:0:0
264,284,9332,1,0,0:0:0
264,284,9448,2,0,B|348:284,1,80
364,320,9794,2,0,B|444:320,1,80,2|0,0:0|0:0,0:0:0
476,248,10255,5,2,0:0:0
456,128,10601,1,0,0:0:0
364,208,10948,1,0,0:0:0
340,132,11178,1,2,0:0:0
288,192,11409,6,0,B|252:216|208:212,1,80,0|2,0:0|0:0,0:0:0
108,112,11871,1,0,0:0:0
96,128,11986,1,0,0:0:0
84,144,12101,2,0,B|48:224|128:284,1,160,2|0,0:0|0:0,0:0:0
236,188,12794,1,0,0:0:0
252,180,12909,1,0,0:0:0
268,172,13024,2,0,B|380:108,1,120,2|0,0:0|0:0,0:0:0
372,112,13486,1,0,0:0:0
452,132,13717,1,0,0:0:0
396,188,13948,5,0,0:0:0
152,340,14409,1,2,0:0:0
144,52,14871,1,2,0:0:0
396,188,15332,5,2,0:0:0
416,196,15448,1,0,0:0:0
436,204,15563,1,0,0:0:0
456,212,15678,1,0,0:0:0
476,220,15794,2,0,B|464:264|488:296,2,80
452,76,16486,1,0,0:0:0
304,68,16717,2,0,B|260:76|260:76|244:116,1,80,2|0,0:0|0:0,0:0:0
232,188,17178,1,0,0:0:0
164,144,17409,1,0,0:0:0
144,144,17525,1,0,0:0:0
124,144,17640,2,0,B|40:144,1,80,2|0,0:0|0:0,0:0:0
32,224,18101,5,0,0:0:0
24,304,18332,1,0,0:0:0
100,276,18563,2,0,B|140:260|176:284,1,80,2|0,0:0|0:0,0:0:0
248,320,19025,1,0,0:0:0
364,236,19255,5,0,0:0:0
364,236,19371,1,0,0:0:0
364,236,19486,2,0,B|392:160|464:96,1,160,4|0,0:0|0:0,0:0:0
316,68,20178,1,0,0:0:0
316,68,20409,2,0,B|236:132,1,80
112,144,20871,2,0,B|136:224,1,80,4|0,0:0|0:0,0:0:0
196,272,21332,5,2,0:0:0
276,288,21563,1,0,0:0:0
340,240,21794,1,8,0:0:0
320,164,22025,1,0,0:0:0
372,104,22255,5,2,0:0:0
452,224,22486,1,0,0:0:0
356,332,22717,1,8,0:0:0
280,212,22948,1,0,0:0:0
252,72,23178,5,0,0:0:0
72,192,23525,1,0,0:0:0
256,304,23871,1,0,0:0:0
396,276,24101,1,2,0:0:0
368,244,24217,1,0,0:0:0
360,204,24332,1,0,0:0:0
372,164,24448,1,0,0:0:0
392,132,24563,2,0,B|412:92|388:52,1,80,8|0,0:0|0:0,0:0:0
244,64,25025,6,0,B|164:96|88:52,1,160,2|0,0:0|0:0,0:0:0
24,184,25717,1,0,0:0:0
84,316,25948,2,0,B|120:300|164:312,1,80,2|0,0:0|0:0,0:0:0
288,240,26409,1,2,0:0:0
288,240,26640,1,0,0:0:0
288,240,26755,1,0,0:0:0
288,240,26871,6,0,B|412:132,1,160,2|0,0:0|0:0,0:0:0
276,84,27563,2,0,B|216:136,1,80,0|2,0:0|0:0,0:0:0
72,124,28025,2,0,B|132:72,2,80,0|2|0,0:0|0:0|0:0,0:0:0
32,192,28717,5,8,0:0:0
76,260,28948,1,0,0:0:0
156,272,29178,1,2,0:0:0
208,212,29409,1,0,0:0:0
156,272,29640,2,0,B|184:316|232:344,1,80,8|0,0:0|0:0,0:0:0
288,308,30101,1,2,0:0:0
352,260,30332,1,0,0:0:0
404,180,30563,5,2,0:0:0
412,160,30678,1,0,0:0:0
420,140,30794,1,0,0:0:0
344,80,31025,1,2,0:0:0
332,64,31140,1,0,0:0:0
320,48,31255,1,0,0:0:0
224,56,31486,2,0,B|160:72,3,40,2|0|0|0,0:0|0:0|0:0|0:0,0:0:0
120,124,31948,2,0,B|140:168,1,40,2|0,0:0|0:0,0:0:0
76,244,32178,2,0,B|59:207,2,40
256,176,32871,5,0,0:0:0
196,228,33101,1,0,0:0:0
248,292,33332,2,0,B|328:300|384:220,1,160,2|0,0:0|0:0,0:0:0
364,144,34025,1,0,0:0:0
380,68,34255,5,2,0:0:0
400,68,34371,1,0,0:0:0
420,68,34486,1,0,0:0:0
364,144,34717,1,2,0:0:0
288,204,34948,1,0,0:0:0
204,248,35178,1,2,0:0:0
204,248,35294,1,0,0:0:0
204,248,35409,2,0,B|164:252|128:224,2,80,0|2|0,0:0|0:0|0:0,0:0:0
292,288,36101,6,0,B|376:268|452:288,1,160,2|0,0:0|0:0,0:0:0
220,96,36794,2,2,B|136:116|60:96,1,160
104,184,37486,1,0,0:0:0
172,252,37717,1,0,0:0:0
80,280,37948,2,0,B|12:348,1,80,2|0,0:0|0:0,0:0:0
256,300,38409,2,0,B|324:232,1,80,0|0,0:0|0:0,0:0:0
336,56,38871,1,2,0:0:0
256,108,39101,1,0,0:0:0
344,152,39332,2,0,B|384:196,2,40,2|0|0,0:0|0:0|0:0,0:0:0
344,152,39794,1,2,0:0:0
84,280,40486,6,0,B|164:256|244:288,1,160,2|0,0:0|0:0,0:0:0
336,304,41178,1,0,0:0:0
412,248,41409,1,0,0:0:0
324,208,41640,2,0,B|296:176|300:128,1,80,2|0,0:0|0:0,0:0:0
280,92,41986,1,0,0:0:0
240,68,42101,2,0,B|192:84|160:64,1,80,2|0,0:0|0:0,0:0:0
68,88,42563,5,2,0:0:0
32,228,42794,1,0,0:0:0
172,252,43025,1,2,0:0:0
64,156,43255,1,0,0:0:0
104,292,43486,2,0,B|172:336|244:336,1,120,2|0,0:0|0:0,0:0:0
260,320,43948,2,0,B|296:304|296:304|340:312,1,80
432,204,44409,2,0,B|396:220|396:220|352:212,1,80,2|0,0:0|0:0,0:0:0
236,132,44871,5,0,0:0:0
220,120,44986,1,0,0:0:0
204,108,45101,1,0,0:0:0
188,96,45217,1,0,0:0:0
172,84,45332,2,0,B|124:76|108:116,1,80,8|0,0:0|0:0,0:0:0
116,164,45678,2,0,B|144:200|96:232,1,80,8|0,0:0|0:0,0:0:0
96,280,46025,2,0,B|136:344|204:328,1,120,8|0,0:0|0:0,0:0:0
240,312,46486,6,0,B|280:280,3,40,2|0|2|0,0:0|0:0|0:0|0:0,0:0:0
308,260,46948,1,2,0:0:0
348,232,47063,1,0,0:0:0
388,204,47178,1,2,0:0:0
336,140,47409,5,0,0:0:0
244,164,47640,1,2,0:0:0
184,88,47871,2,0,B|140:80|112:116,1,80
96,208,48332,2,0,B|69:242|25:234,2,80,0|2|0,0:0|0:0|0:0,0:0:0
188,184,49025,2,0,B|236:216|252:284,1,120,2|0,0:0|0:0,0:0:0
276,324,49486,2,0,B|320:332|356:312,1,80,2|0,0:0|0:0,0:0:0
432,256,49948,1,2,0:0:0
384,176,50178,1,0,0:0:0
456,112,50409,1,2,0:0:0
456,112,50525,1,0,0:0:0
456,112,50640,6,0,B|428:72|392:64,1,80,0|2,0:0|0:0,0:0:0
300,48,51101,1,0,0:0:0
204,156,51332,1,2,0:0:0
72,100,51563,1,0,0:0:0
72,244,51794,2,0,B|124:304|188:320,1,120,2|0,0:0|0:0,0:0:0
216,320,52255,2,0,B|248:300|292:304,1,80,2|0,0:0|0:0,0:0:0
372,248,52717,1,8,0:0:0
432,172,52948,1,0,0:0:0
348,124,53178,1,2,0:0:0
432,240,53409,5,0,0:0:0
420,96,53640,1,8,0:0:0
280,128,53871,1,0,0:0:0
304,268,54101,2,0,B|312:312,3,40,2|0|0|0,0:0|0:0|0:0|0:0,0:0:0
276,340,54563,2,0,B|180:348|120:280,1,160,8|0,0:0|0:0,0:0:0
148,148,55255,1,0,0:0:0
92,68,55486,6,0,B|40:140,1,80,2|0,0:0|0:0,0:0:0
204,224,55948,2,0,B|256:152,1,80,8|0,0:0|0:0,0:0:0
56,228,56409,2,0,B|128:280,1,80,2|0,0:0|0:0,0:0:0
232,64,56871,2,0,B|160:12,2,80,8|0|0,0:0|0:0|0:0,0:0:0
300,132,57563,1,0,0:0:0
232,196,57794,1,8,0:0:0
300,264,58025,1,0,0:0:0
392,284,58255,6,0,B|440:244|440:176,1,120,2|0,0:0|0:0,0:0:0
412,140,58717,2,0,B|384:108|388:64,1,80,8|0,0:0|0:0,0:0:0
296,40,59178,1,2,0:0:0
220,96,59409,1,0,0:0:0
200,100,59525,1,0,0:0:0
180,104,59640,1,8,0:0:0
92,64,59871,1,0,0:0:0
36,140,60101,2,0,B|56:232,1,80,2|0,0:0|0:0,0:0:0
100,204,60448,2,0,B|120:296,1,80,8|0,0:0|0:0,0:0:0
148,320,60794,6,0,B|220:328|260:288,1,120,2|0,0:0|0:0,0:0:0
280,244,61255,1,8,0:0:0
324,156,61486,1,8,0:0:0
404,104,61717,1,8,0:0:0
448,116,61832,1,0,0:0:0
464,148,61948,2,0,B|476:232|400:288,1,160,6|0,0:0|0:0,0:0:0
312,252,62640,1,0,0:0:0
312,252,62871,5,2,0:0:0
312,252,62986,1,0,0:0:0
312,252,63101,2,0,B|268:252|236:276,1,80,0|2,0:0|0:0,0:0:0
144,300,63563,1,0,0:0:0
48,288,63794,2,0,B|88:236|84:176,1,120
64,132,64255,2,0,B|76:96|108:68,1,80,2|0,0:0|0:0,0:0:0
248,24,64717,1,2,0:0:0
152,132,64948,1,0,0:0:0
296,124,65178,1,2,0:0:0
436,164,65409,2,0,B|472:132,1,40
420,184,65640,6,0,B|360:200|360:200|364:236|328:248,1,120,2|0,0:0|0:0,0:0:0
308,288,66101,2,0,B|264:304|236:268,1,80,2|0,0:0|0:0,0:0:0
220,224,66448,2,0,B|140:224,1,80,2|0,0:0|0:0,0:0:0
104,192,66794,2,0,B|16:192,2,80,0|2|0,0:0|0:0|0:0,0:0:0
180,136,67486,1,2,0:0:0
264,92,67717,1,0,0:0:0
340,152,67948,1,2,0:0:0
256,196,68178,1,0,0:0:0
192,68,68409,5,8,0:0:0
336,68,68640,1,0,0:0:0
256,196,68871,1,4,0:0:0
256,196,68986,1,0,0:0:0
256,196,69101,1,0,0:0:0
256,196,69217,1,0,0:0:0
256,196,69332,2,0,B|192:256|224:344,1,160,8|0,0:0|0:0,0:0:0
352,280,70025,1,0,0:0:0
352,280,70255,2,0,B|444:240,1,80,2|0,0:0|0:0,0:0:0
425,248,70601,1,0,0:0:0
425,248,70717,1,2,0:0:0
476,112,70948,5,0,0:0:0
356,36,71178,1,2,0:0:0
388,252,71525,1,0,0:0:0
184,320,71871,1,0,0:0:0
184,320,72101,1,2,0:0:0
256,40,72563,1,0,0:0:0
256,328,73025,2,0,B|288:300|328:292,1,80,2|0,0:0|0:0,0:0:0
376,292,73371,1,0,0:0:0
420,276,73486,2,0,B|440:240|432:196,1,80,2|0,0:0|0:0,0:0:0
284,72,73948,5,8,0:0:0
380,44,74178,1,0,0:0:0
356,136,74409,1,8,0:0:0
336,172,74525,1,0,0:0:0
300,188,74640,1,0,0:0:0
260,192,74755,1,0,0:0:0
220,180,74871,5,0,0:0:0
80,344,75217,1,0,0:0:0
296,356,75563,1,0,0:0:0
416,276,75794,2,0,B|432:232,3,40
436,168,76255,2,0,B|392:136,1,40
416,72,76486,2,0,B|356:64,1,40
304,84,76717,2,0,B|216:104|156:48,1,160,4|2,0:0|0:0,0:0:0
64,160,77409,1,0,0:0:0
104,248,77640,5,0,0:0:0
188,204,77871,1,0,0:0:0
184,300,78101,2,0,B|156:332|108:328,2,80,2|0|0,0:0|0:0|0:0,0:0:0
268,252,78794,1,0,0:0:0
328,328,79025,2,0,B|368:312|376:268,1,80,2|0,0:0|0:0,0:0:0
440,64,79486,1,2,0:0:0
428,80,79601,1,0,0:0:0
416,96,79717,1,0,0:0:0
404,112,79832,1,0,0:0:0
392,128,79948,6,0,B|384:172|384:172|412:200,1,80,2|0,0:0|0:0,0:0:0
292,112,80409,2,0,B|212:88,1,80
88,160,80871,2,0,B|168:184,1,80,2|0,0:0|0:0,0:0:0
304,220,81332,2,0,B|252:336,1,120
256,328,81794,1,2,0:0:0
256,328,82024,1,0,0:0:0
256,328,82255,5,0,0:0:0
112,80,82717,1,2,0:0:0
400,80,83178,1,2,0:0:0
144,212,83640,5,2,0:0:0
144,212,83755,1,0,0:0:0
144,212,83871,1,0,0:0:0
144,212,83986,1,0,0:0:0
144,212,84101,2,0,B|136:292|136:292|184:268|208:300,1,160,6|0,0:0|0:0,0:0:0
300,328,84794,1,0,0:0:0
388,288,85024,1,2,0:0:0
432,196,85255,1,0,0:0:0
432,196,85371,1,0,0:0:0
432,196,85486,1,2,0:0:0
432,196,85717,5,0,0:0:0
296,240,85948,1,2,0:0:0
84,276,86294,1,0,0:0:0
168,76,86640,1,0,0:0:0
184,220,86871,1,2,0:0:0
188,240,86986,1,0,0:0:0
192,260,87101,1,0,0:0:0
264,324,87332,2,0,B|304:304|344:324,1,80,2|0,0:0|0:0,0:0:0
456,236,87794,6,0,B|408:156,1,80,4|0,0:0|0:0,0:0:0
416,96,88140,2,0,B|324:72,1,80,4|0,0:0|0:0,0:0:0
272,104,88486,1,2,0:0:0
148,32,88717,2,0,B|84:96,1,80,4|0,0:0|0:0,0:0:0
52,148,89063,2,0,B|76:256,1,80,4|0,0:0|0:0,0:0:0
124,276,89409,1,2,0:0:0
212,164,89640,5,4,0:0:0
248,304,89871,1,0,0:0:0
284,164,90101,1,4,0:0:0
188,272,90332,1,0,0:0:0
152,132,90563,1,4,0:0:0
176,92,90678,1,0,0:0:0
216,64,90794,1,0,0:0:0
264,60,90909,1,0,0:0:0
308,80,91024,2,0,B|384:104|480:80,1,160,6|4,0:0|0:0,0:0:0
440,224,91717,1,0,0:0:0
332,320,91948,1,2,0:0:0
332,320,92178,2,0,B|260:280|176:288,1,160
68,132,92871,5,2,0:0:0
164,128,93101,1,0,0:0:0
120,212,93332,2,0,B|96:248|116:288,1,80
152,320,93678,1,0,0:0:0
200,316,93794,2,0,B|240:304|280:324,1,80,2|0,0:0|0:0,0:0:0
324,328,94140,1,0,0:0:0
368,308,94255,2,0,B|400:280|400:236,1,80,2|0,0:0|0:0,0:0:0
356,100,94717,5,2,0:0:0
488,156,94948,1,0,0:0:0
348,184,95178,2,0,B|264:208|228:108,1,160,2|2,0:0|0:0,0:0:0
92,44,95871,1,0,0:0:0
72,188,96101,1,2,0:0:0
72,188,96217,1,0,0:0:0
164,300,96448,1,0,0:0:0
164,300,96563,1,2,0:0:0
256,192,96794,5,0,0:0:0
256,192,96909,1,0,0:0:0
256,192,97024,1,6,0:0:0
256,192,97371,1,4,0:0:0
256,192,97717,6,0,B|256:244,2,40
256,96,98178,2,0,B|288:72|332:72,1,80,0|6,0:0|0:0,0:0:0
376,84,98524,1,0,0:0:0
412,116,98640,1,0,0:0:0
472,188,98871,6,0,B|416:236|440:296,1,120,4|0,0:0|0:0,0:0:0
404,340,99332,2,0,B|328:360|248:320,1,160,2|4,0:0|0:0,0:0:0
212,232,100024,1,0,0:0:0
132,284,100255,1,2,0:0:0
196,356,100486,1,0,0:0:0
148,204,100717,5,2,0:0:0
352,80,101063,1,2,0:0:0
348,320,101409,1,2,0:0:0
364,180,102101,5,2,0:0:0
160,304,102448,1,2,0:0:0
164,64,102794,1,2,0:0:0
256,304,103486,5,2,0:0:0
256,192,103948,12,0,109948,0:0:0
