osu file format v9

[General]
AudioFilename: - OP 1.mp3
AudioLeadIn: 1015
PreviewTime: 74871
Countdown: 1
SampleSet: Soft
StackLeniency: 0.7
Mode: 0
LetterboxInBreaks: 1

[Editor]
Bookmarks: 6334,8411,40488,45334,46488,92180,102103,103950
DistanceSpacing: 1
BeatDivisor: 2
GridSize: 4

[Metadata]
Title:Natsu no Fantasia
Artist:Satou Hiromi
Creator:AisamaDX
Version:Easy
Source:Tasogare no sinsemilla
Tags:azuki swish opening applique

[Difficulty]
HPDrainRate:1
CircleSize:3
OverallDifficulty:2
ApproachRate:3
SliderMultiplier:0.7
SliderTickRate:1

[Events]
//Background and Video events
Video,0,"OP.flv"
0,0,"BG.jpg"
//Break Periods
//Storyboard Layer 0 (Background)
//Storyboard Layer 1 (Fail)
//Storyboard Layer 2 (Pass)
//Storyboard Layer 3 (Foreground)
//Storyboard Sound Samples
//Background Colour Transformations
3,100,163,162,255

[TimingPoints]
1025,461.538461538462,4,2,1,55,1,0
1125,-100,4,2,1,65,0,0
21334,-100,4,1,0,60,0,0
21565,-100,4,2,1,63,0,0
23178,-100,4,1,1,63,0,0
24332,-100,4,2,1,63,0,0
76719,-100,4,2,1,80,0,1
76948,-100,4,2,1,80,0,0
103950,-100,4,2,1,30,0,0
106950,-100,4,2,1,15,0,0
109950,-100,4,2,1,5,0,0

[Colours]
Combo1 : 255,255,255
Combo2 : 78,12,188
Combo3 : 170,170,255
Combo4 : 255,0,0
Combo5 : 255,128,0

[HitObjects]
240,60,1025,2,0,B|156:68|120:128,1,140,2|0
84,260,2871,2,0,B|168:252|204:192,1,140,2|0
340,172,4717,1,2
476,212,5640,2,0,B|456:268|404:284,1,105,2|4
420,56,8409,6,0,B|400:120|436:192,1,140,2|0
328,280,10255,2,0,B|348:216|312:144,1,140,2|0
208,52,12101,2,0,B|128:68|100:132,1,140,2|0
188,240,13948,2,0,B|184:332,2,70,2|0|0
288,140,15794,6,0,B|344:104|424:108,1,140,2|0
388,244,17640,2,0,B|428:248|460:228,2,70,2|0|0
256,292,19486,1,4
156,192,20409,6,0,B|64:192,2,70,2|4|0
296,196,22255,1,2
436,200,23178,2,0,B|460:176|464:136,2,70,2|0|0
396,64,25024,6,0,B|244:64,1,140,4|0
152,160,26871,2,0,B|304:160,1,140,4|0
428,192,28717,1,4
356,312,29640,1,2
284,192,30563,2,0,B|284:108,2,70,4|0|0
188,292,32409,6,0,B|116:244|128:168,1,140,2|0
216,68,34255,2,0,B|312:68,2,70,2|0|8
328,148,36101,2,0,B|404:184|464:164,1,140,2|0
476,300,37948,2,0,B|408:324|336:292,1,140,2|8
260,180,39794,5,2
176,68,40717,2,0,B|96:72|56:136,1,140,2|0
28,268,42563,2,0,B|60:336|148:332,1,140,2|8
256,248,44409,1,2
364,160,45332,2,0,B|404:100,2,70,2|0|0
284,52,47178,6,0,B|208:76|144:72,1,140,0|0
56,180,49025,2,0,B|96:240|172:260,1,140,2|8
304,296,50871,1,2
432,244,51794,1,2
380,112,52717,2,0,B|352:84|312:88,2,70,2|0|8
284,216,54563,6,0,B|136:216,1,140,2|0
60,104,56409,2,0,B|200:104,1,140,2|0
340,84,58255,1,2
440,180,59178,1,2
348,284,60101,2,0,B|176:284,2,140,2|0|4
340,144,62871,5,2
236,48,63794,1,2
104,92,64717,2,0,B|112:164|80:232,1,140,2|0
200,300,66563,2,0,B|292:324|368:288,1,140,2|0
368,164,68409,6,0,B|404:156|444:164,2,70,2|0|4
232,196,70255,1,2
116,120,71178,2,0,B|52:156|68:240,1,140,2|0
188,312,73025,2,0,B|256:328|324:296,1,140,2|0
388,172,74871,2,0,B|392:88,2,70,0|0|0
256,220,76717,6,0,B|188:184|188:100,1,140,4|0
64,40,78563,2,0,B|28:108|28:108|64:164,1,140,2|0
196,208,80409,2,0,B|160:276|160:276|196:332,1,140,2|0
332,300,82255,1,2
440,212,83178,1,2
392,80,84101,6,0,B|324:76|256:36,1,140,4|0
124,64,85948,2,0,B|36:64,2,70,2|0|0
244,132,87794,1,2
380,168,88717,1,2
260,236,89640,2,0,B|188:272,2,70,2|0|0
392,288,91486,6,0,B|452:244|464:168,1,140,4|0
372,68,93332,2,0,B|296:92|236:56,1,140,2|0
96,60,95178,2,0,B|84:136|144:188,1,140,2|0
280,192,97025,6,0,B|372:192,2,70,4|0|0
156,256,98871,1,4
276,328,99794,1,4
256,192,100717,12,2,103486
256,192,103948,12,0,109948
