osu file format v9

[General]
AudioFilename: Melty Air(Short Ver.).mp3
AudioLeadIn: 0
PreviewTime: -1
Countdown: 1
SampleSet: Normal
StackLeniency: 0.7
Mode: 0
LetterboxInBreaks: 1

[Editor]
Bookmarks: 30864
DistanceSpacing: 0.4
BeatDivisor: 1
GridSize: 4

[Metadata]
Title:Melty Air(Short Ver.)
Artist:Satou Hiromi
Creator:SnowWhite
Version:Insane
Source:
Tags:

[Difficulty]
HPDrainRate:6
CircleSize:4
OverallDifficulty:6
ApproachRate:9
SliderMultiplier:2
SliderTickRate:1

[Events]
//Background and Video events
0,0,"kur_n_02_a.jpg"
//Break Periods
//Storyboard Layer 0 (Background)
//Storyboard Layer 1 (Fail)
//Storyboard Layer 2 (Pass)
//Storyboard Layer 3 (Foreground)
//Storyboard Sound Samples
//Background Colour Transformations
3,100,163,162,255

[TimingPoints]
24464,400,4,1,0,60,1,0
86864,-100,4,1,0,100,0,1

[Colours]
Combo1 : 0,0,255
Combo2 : 255,0,0
Combo3 : 128,255,255
Combo4 : 255,0,255

[HitObjects]
32,80,24464,2,0,B|80:64|80:64|144:88,1,100
88,176,24864,1,0
108,184,24964,1,0
128,188,25064,1,0
148,188,25164,1,0
168,180,25264,2,0,B|212:200|212:200|268:172,1,100
368,60,25664,2,0,B|324:40|324:40|268:68,1,100
420,140,26064,5,0
420,140,26264,1,0
452,236,26464,1,0
436,244,26564,1,0
416,252,26664,1,0
396,248,26764,1,0
376,244,26864,2,0,B|332:264|332:264|312:316,1,100
296,300,27164,2,0,B|336:336,1,50
432,356,27464,1,0
344,308,27664,6,0,B|240:284|144:332,1,200
64,276,28264,1,0
64,276,28364,1,0
64,276,28464,2,0,B|44:232|48:160,1,100
132,124,28864,1,0
224,84,29064,1,0
316,44,29264,6,0,B|328:92|328:92|316:148,1,100
232,196,29664,1,0
376,264,29864,5,0
376,264,29964,1,0
376,264,30064,2,0,B|364:312|364:312|376:368,1,100
276,352,30464,2,0,B|236:360,7,25
236,336,30864,6,0,B|128:320,1,100,8|0
60,256,31264,1,0
60,256,31464,2,0,B|24:176|112:80,1,150
132,112,31864,2,0,B|240:148,1,100,2|0
312,92,32264,1,0
312,92,32464,6,0,B|424:32,1,100,8|0
376,204,32864,6,0,B|272:268,1,100
140,196,33264,5,8
60,336,33464,2,0,B|-8:348,2,50
220,352,33864,1,0
368,288,34064,6,0,B|408:260|408:260|464:300,1,100,8|0
340,172,34464,2,0,B|300:200|300:200|244:160,2,100,2|0|8
192,68,35064,1,0
184,88,35164,1,0
192,108,35264,1,8
92,232,35464,1,0
220,328,35664,6,0,B|352:324,1,100
396,184,36064,6,0,B|260:184,1,100,8|0
140,148,36464,6,0,B|56:48,1,100
236,92,36864,6,0,B|308:188,1,100,8|0
236,252,37264,5,0
324,304,37464,1,0
372,292,37564,1,0
412,260,37664,1,8
428,212,37764,1,0
436,164,37864,2,0,B|340:124,1,100,2|0
264,68,38264,6,0,B|240:112,1,50
192,128,38464,2,0,B|76:156,1,100,8|0
24,224,38864,1,0
76,308,39064,6,0,B|72:360,2,50,0|0|8
176,292,39464,2,0,B|288:272,1,100,2|0
364,228,39864,1,0
364,228,39964,1,0
364,228,40064,1,8
300,148,40264,1,0
384,92,40464,6,0,B|288:128|148:104,1,200,0|8
92,76,41064,1,0
92,76,41164,1,0
92,76,41264,2,0,B|48:180|104:296,1,200,0|8
184,312,41864,1,2
240,228,42064,6,0,B|304:248,1,50,8|0
332,220,42264,6,0,B|252:200,1,50
264,160,42464,6,0,B|316:176,1,50
384,108,42764,1,0
384,108,42864,1,8
428,88,42964,1,0
432,40,43064,1,2
480,172,43264,5,0
436,304,43464,1,0
392,324,43564,1,0
348,304,43664,2,0,B|296:292|296:292|260:324,1,100,8|0
112,264,44064,2,0,B|164:276|164:276|200:244,2,100,0|0|8
92,272,44564,2,0,B|40:176,1,100
56,168,44864,1,0
140,112,45064,1,0
212,40,45264,6,0,B|380:40,2,150,8|0|0
140,112,46064,1,8
140,112,46164,1,0
140,112,46264,1,0
192,196,46464,2,0,B|188:252,3,50,2|0|0|0
232,272,46864,6,0,B|400:296,1,150,8|0
416,256,47264,2,0,B|472:164,1,100
408,88,47664,1,8
316,124,47864,1,0
232,68,48064,1,0
160,136,48264,1,0
64,112,48464,6,0,B|40:232|104:312,1,200,8|0
148,300,48964,1,0
196,320,49064,1,0
288,356,49264,1,8
324,320,49364,1,0
364,288,49464,1,0
412,268,49564,1,0
460,272,49664,6,0,B|500:216|504:116,1,150,2|0
468,92,50064,2,0,B|368:72,1,100,8|0
256,184,50464,2,0,B|354:164,1,100
292,84,50864,1,8
292,84,50964,1,0
292,84,51064,1,0
200,44,51264,1,2
112,92,51464,1,0
48,168,51664,6,0,B|-12:76,1,100,8|0
144,140,52064,2,0,B|204:232,1,100,0|0
132,300,52464,1,8
132,300,52564,1,0
132,300,52664,1,0
220,344,52864,1,2
312,304,53064,1,0
328,296,53164,1,0
344,304,53264,6,0,B|388:328|388:328|432:300,1,100,8|0
424,284,53564,2,0,B|468:184,1,100
448,180,53864,1,0
408,88,54064,6,0,B|344:144|228:112,2,150,8|0|0
324,36,54864,5,8
52,108,55264,1,2
352,308,55664,1,8
168,44,56064,1,2
32,332,56464,6,0,B|80:344|80:344|156:324,1,100,8|0
100,236,56864,1,0
180,172,57064,1,0
228,152,57164,1,0
268,180,57264,2,0,B|284:228|284:228|264:284,2,100,8|2|0
200,104,57864,5,0
348,44,58064,2,0,B|392:24,1,50,8|0
344,176,58364,2,0,B|272:212,1,50
352,284,58664,1,0
352,284,58864,2,0,B|252:320|128:288,1,200,8|0
88,220,59464,1,2
88,220,59564,1,0
88,220,59664,6,0,B|140:128,1,100,8|0
104,96,59964,2,0,B|224:84,1,100
248,64,60264,1,0
400,120,60464,6,0,B|328:188,1,100,8|0
280,172,60764,2,0,B|296:288,1,100
272,316,61064,1,0
424,368,61264,5,8
500,228,61464,1,0
352,164,61664,1,0
352,164,61764,1,0
352,164,61864,1,0
276,304,62064,2,0,B|228:320|228:320|160:300,1,100,8|0
112,232,62464,1,2
112,232,62564,1,0
112,232,62664,1,0
112,232,62764,1,0
112,232,62864,1,8
88,136,63064,6,0,B|136:124|136:124|196:136,1,100
268,188,63464,1,0
216,36,63664,2,0,B|264:48|264:48|324:36,2,100,8|0|0
348,128,64264,5,0
348,128,64364,1,0
348,128,64464,2,0,B|384:232|336:332,1,200,8|0
244,292,65064,2,0,B|236:192,1,100,2|8
372,160,65464,2,0,B|380:260,2,100
428,32,66064,6,0,B|316:16|236:76,1,200,8|0
148,32,66664,2,0,B|124:136,1,100,2|8
28,156,67064,2,0,B|72:272,1,100
48,348,67464,1,0
96,332,67564,1,0
144,312,67664,6,0,B|256:276|372:344,1,200,8|0
408,256,68264,1,2
424,208,68364,1,0
404,164,68464,2,0,B|352:164,1,50,8|0
252,44,68764,2,0,B|332:44,1,50
160,120,69064,2,0,B|72:120,2,50,0|0|8
148,168,69364,5,0
160,216,69464,1,0
148,264,69564,1,0
164,312,69664,1,0
260,340,69864,6,0,B|328:336,1,50,2|8
392,224,70164,2,0,B|308:228,1,50
288,144,70464,1,0
340,56,70664,1,0
240,36,70864,2,0,B|152:28|84:104,1,150,8|0
52,84,71264,2,0,B|128:156,1,100,2|0
96,248,71664,1,8
96,248,71764,1,0
96,248,71864,1,0
164,320,72064,6,0,B|276:280,1,100
212,196,72464,2,0,B|388:192,1,150,8|0
404,164,72864,2,0,B|456:72,1,100,2|0
360,40,73264,1,8
360,40,73364,1,0
360,40,73464,1,0
264,72,73664,1,0
172,32,73864,1,0
112,112,74064,6,0,B|80:208,1,100,8|0
140,288,74464,1,0
228,336,74664,2,0,B|256:268,1,50,2|0
288,260,74864,6,0,B|336:248|336:248|396:288,1,100,8|0
264,164,75264,2,0,B|216:152|216:152|156:192,2,100
376,64,75964,2,0,B|376:12,1,50,2|0
448,156,76264,5,0
376,300,76464,2,0,B|268:272|180:340,1,200,8|0
112,268,77064,1,0
112,268,77164,1,0
112,268,77264,2,0,B|56:208|64:120,1,150,8|0
96,92,77664,2,0,B|196:56,1,100
272,112,78064,1,8
340,184,78264,1,0
340,184,78364,1,0
340,184,78464,1,0
424,128,78664,1,0
440,228,78864,6,0,B|440:332,1,100,8|0
372,184,79264,6,0,B|296:260,1,100,2|0
356,104,79664,6,0,B|244:104,1,100,8|0
256,104,79964,1,0
256,104,80064,1,0
256,104,80164,1,0
256,104,80264,1,0
164,60,80464,5,8
68,188,80664,1,2
228,172,80864,5,0
316,36,81064,1,0
412,164,81264,6,0,B|420:268|420:268|372:356,1,200,8|0
284,304,81864,1,2
284,304,81964,1,0
284,304,82064,2,0,B|312:200,1,100,8|0
296,192,82364,2,0,B|200:164,1,100,2|0
184,176,82664,1,0
64,72,82864,6,0,B|168:40,1,100,8|0
172,56,83164,2,0,B|280:40,1,100,2|0
288,48,83464,1,0
384,20,83664,5,8
396,36,83764,1,0
404,52,83864,1,0
408,72,83964,1,0
408,92,84064,5,0
404,112,84164,1,0
396,132,84264,1,0
384,148,84364,1,0
376,164,84464,5,8
372,184,84564,1,0
372,204,84664,1,0
380,224,84764,1,0
388,240,84864,5,0
400,256,84964,1,0
404,276,85064,1,0
404,296,85164,1,0
404,316,85264,6,0,B|280:332,1,100,8|0
256,240,85664,6,0,B|56:276,1,200,2|8
20,184,86264,1,0
20,184,86364,1,0
20,184,86464,1,0
68,96,86664,1,0
156,140,86864,6,0,B|204:160|288:128,1,100,8|0
148,20,87264,2,0,B|100:0|16:32,2,100,0|2|8
232,72,87864,1,0
248,60,87964,1,0
264,72,88064,1,8
280,60,88164,1,0
296,72,88264,1,0
392,52,88464,6,0,B|420:104|392:164,1,100,2|0
268,240,88864,2,0,B|240:188|268:128,2,100,8|0|0
368,228,89464,1,0
368,228,89564,1,0
368,228,89664,1,8
400,324,89864,1,0
304,352,90064,6,0,B|192:336,1,100,2|0
180,292,90364,2,0,B|56:316,1,100
48,276,90664,1,0
84,184,90864,1,0
84,184,90964,1,0
84,184,91064,1,0
32,100,91264,1,8
32,100,91464,1,0
120,52,91664,6,0,B|164:32|164:32|256:52,1,100,2|0
312,144,92064,2,0,B|268:164|268:164|176:144,2,100,8|0|0
396,88,92664,1,0
408,104,92764,1,0
396,120,92864,1,8
408,136,92964,1,0
396,152,93064,1,0
408,168,93164,1,0
396,184,93264,6,0,B|344:272,1,100,2|0
328,284,93564,1,0
308,284,93664,2,0,B|180:284,1,100,8|0
128,224,94064,6,0,B|52:268|36:364,2,150
148,216,94764,1,2
168,208,94864,2,0,B|272:208,1,100
280,192,95164,2,0,B|296:144|280:72,1,100
280,72,95464,6,0,B|388:72,2,100
184,44,96064,1,8
184,44,96164,1,0
184,44,96264,1,0
88,68,96464,6,0,B|32:152|48:268,1,200,2|8
192,328,97064,1,0
192,328,97164,1,0
192,328,97264,2,0,B|256:240|240:108,1,200,8|0
212,44,97864,1,0
212,44,98064,6,0,B|328:56,1,100,8|0
176,144,98464,2,0,B|76:164,2,100,0|0|8
240,220,99064,1,2
240,220,99164,1,0
240,220,99264,1,0
332,180,99464,1,0
404,248,99664,6,0,B|420:300|400:352,1,100,8|0
272,252,100064,2,0,B|256:200|276:148,2,100,2|0|8
304,348,100664,1,0
288,336,100764,1,0
272,348,100864,1,8
256,336,100964,1,0
240,348,101064,1,0
156,292,101264,6,0,B|104:308|32:292,1,100,8|0
144,160,101664,2,0,B|196:144|268:160,2,100,2|0|8
64,100,102264,1,0
212,36,102464,1,8
344,128,102664,1,0
208,208,102864,6,0,B|168:280|212:384,1,150
220,344,103264,2,0,B|320:344,1,100,8|0
388,272,103664,1,0
344,184,103864,1,2
344,184,103964,1,0
344,184,104064,1,8
420,120,104264,1,0
348,48,104464,6,0,B|232:48,1,100
144,168,104864,6,0,B|264:168,1,100,8|0
96,112,105264,6,0,B|96:256,1,100
244,156,105664,6,0,B|244:48,2,100,8|0|0
196,244,106264,1,2
196,244,106364,1,0
196,244,106464,1,8
120,308,106664,1,0
208,352,106864,6,0,B|252:328|252:328|304:348,1,100,2|0
396,244,107264,2,0,B|352:268|352:268|300:248,2,100,8|0|0
452,160,107864,2,0,B|500:160,2,50,0|0|8
400,76,108264,2,0,B|328:76,2,50
336,152,108664,1,2
244,112,108864,1,8
244,112,108964,1,0
244,112,109064,1,0
244,112,109164,1,0
244,112,109264,6,0,B|120:148|108:288,1,200,0|8
40,316,109864,2,0,B|20:272,2,50
188,256,110264,6,0,B|220:316,2,50,0|0|8
308,152,110664,6,0,B|288:108,2,50,0|0|0
444,300,111264,5,8
256,40,111664,1,2
76,304,112064,1,8
172,332,112264,1,0
252,276,112464,6,0,B|336:216,1,100
380,236,112764,2,0,B|288:128,1,100,2|0
272,136,113064,1,0
428,100,113264,5,0
272,136,113464,1,0
120,84,113664,6,0,B|76:176,1,100,8|0
28,184,113964,2,0,B|156:232,1,100,2|0
128,268,114264,1,0
228,144,114464,5,8
128,268,114664,1,0
264,348,114864,6,0,B|368:332,1,100
412,344,115164,2,0,B|380:216,1,100,2|0
404,200,115464,1,0
372,104,115664,1,0
336,72,115764,1,0
288,64,115864,1,0
240,76,115964,1,0
208,116,116064,6,0,B|92:88,1,100,8|0
176,240,116464,2,0,B|296:272,1,100
292,260,116764,1,0
312,256,116864,2,0,B|368:140,1,100,8|0
428,96,117264,5,2
456,252,117464,1,0
320,336,117664,1,8
300,332,117764,1,0
280,336,117864,1,0
260,332,117964,1,0
240,336,118064,1,4
