osu file format v9

[General]
AudioFilename: Melty Air(Short Ver.).mp3
AudioLeadIn: 0
PreviewTime: -1
Countdown: 1
SampleSet: Normal
StackLeniency: 0.7
Mode: 0
LetterboxInBreaks: 1

[Editor]
Bookmarks: 30864
DistanceSpacing: 0.4
BeatDivisor: 4
GridSize: 4

[Metadata]
Title:Melty Air(Short Ver.)
Artist:Satou Hiromi
Creator:SnowWhite
Version:Insane+
Source:
Tags:

[Difficulty]
HPDrainRate:6
CircleSize:4
OverallDifficulty:6
ApproachRate:9
SliderMultiplier:2
SliderTickRate:1

[Events]
//Background and Video events
0,0,"kur_n_02_a.jpg"
//Break Periods
//Storyboard Layer 0 (Background)
//Storyboard Layer 1 (Fail)
//Storyboard Layer 2 (Pass)
//Storyboard Layer 3 (Foreground)
//Storyboard Sound Samples
//Background Colour Transformations
3,100,163,162,255

[TimingPoints]
24464,400,4,1,2,60,1,0
86864,-100,4,1,0,100,0,1

[Colours]
Combo1 : 0,0,255
Combo2 : 255,0,0
Combo3 : 128,255,255
Combo4 : 255,0,255

[HitObjects]
36,120,24464,2,0,B|60:72|60:72|140:72,1,100
128,168,24864,1,0
144,156,24964,1,0
160,168,25064,1,0
176,156,25164,1,0
192,168,25264,6,0,B|208:216|208:216|160:256,1,100
276,152,25664,2,0,B|260:104|260:104|308:64,1,100,0|0
316,80,25964,1,0
316,80,26064,2,0,B|416:104|416:104|464:200,1,200
420,220,26564,1,0
372,240,26664,1,0
308,316,26864,1,0
272,284,26964,1,0
224,272,27064,1,0
180,244,27164,1,0
148,204,27264,1,0
48,184,27464,1,0
92,92,27664,6,0,B|188:60|188:60|296:96,1,200
281,91,28164,1,0
228,176,28364,1,0
228,176,28464,2,0,B|324:204|324:204|436:172,1,200
464,88,29064,5,0
464,88,29164,1,0
464,88,29264,5,0
328,208,29464,1,0
260,40,29664,1,0
412,172,29864,5,0
212,148,30064,1,0
288,332,30264,1,0
288,332,30464,2,0,B|312:348,7,25
284,300,30864,6,0,B|156:308,1,100,0|0
96,256,31264,2,0,B|32:148,1,100
128,112,31664,1,0
216,64,31864,1,0
216,64,31964,1,0
216,64,32064,1,0
300,116,32264,1,0
392,80,32464,5,0
444,252,32664,1,0
268,212,32864,1,0
420,344,33064,5,0
340,160,33264,1,0
160,248,33464,1,0
84,200,33664,2,0,B|24:84,1,100
108,52,34064,6,0,B|220:92,1,100
216,128,34364,2,0,B|336:112,1,100
348,84,34664,1,0
424,136,34864,1,0
372,212,35064,1,0
400,296,35264,2,0,B|500:272,1,100
372,212,35664,6,0,B|260:208|148:296,1,200
84,252,36264,1,0
44,280,36364,1,0
24,324,36464,5,0
168,252,36664,1,0
36,160,36864,5,0
136,332,37064,1,0
296,212,37264,6,0,B|232:56,1,150
280,48,37664,1,0
372,92,37864,1,0
464,128,38064,5,0
456,148,38164,1,0
464,168,38264,1,0
456,188,38364,1,0
464,208,38464,1,0
376,256,38664,5,0
376,256,38764,1,0
376,256,38864,2,0,B|264:240|200:336,1,200
108,304,39464,1,0
108,304,39564,1,0
108,304,39664,2,0,B|64:200,1,100
84,164,39964,5,0
108,120,40064,1,0
144,84,40164,1,0
188,60,40264,1,0
236,48,40364,1,0
284,52,40464,2,0,B|452:108,1,150
460,140,40864,5,0
320,220,41064,1,0
260,72,41264,5,0
328,240,41464,1,0
160,172,41664,5,0
340,260,41864,1,0
264,324,42064,1,2
220,300,42164,1,0
172,304,42264,1,0
124,292,42364,1,0
84,264,42464,2,0,B|48:188,1,50
16,128,42764,6,0,B|72:104,1,50,4|0
84,64,42964,1,0
84,64,43064,1,0
128,216,43264,1,0
268,140,43464,5,2
308,112,43564,1,0
348,144,43664,2,0,B|464:168,1,100
496,152,43964,2,0,B|464:268,1,100,8|0
424,268,44264,1,0
332,304,44464,2,0,B|244:292|160:360,2,150
424,268,45264,6,0,B|392:192|420:100,2,150
272,216,46064,1,2
140,304,46264,1,0
140,304,46364,1,0
140,304,46464,1,0
40,180,46664,6,0,B|52:120,1,50,8|0
96,152,46864,2,0,B|128:112|128:112|184:112,1,100,2|0
216,144,47164,2,0,B|248:184|248:184|304:184,1,100
320,140,47464,1,8
408,92,47664,6,0,B|460:152|456:244,2,150
320,140,48464,5,2
172,76,48664,1,0
56,188,48864,1,8
56,188,48964,1,0
56,188,49064,1,0
112,16,49264,5,2
200,172,49464,1,8
200,172,49564,1,0
200,172,49664,1,0
376,200,49864,5,0
244,324,50064,6,0,B|204:352|204:352|144:352,1,100,2|0
68,300,50464,1,2
220,244,50664,6,0,B|284:244|284:244|324:276,2,100,8|0|0
148,172,51264,1,2
192,84,51464,1,0
336,156,51664,6,0,B|376:128|376:128|376:56,2,100,8|0|0
236,136,52264,1,2
176,216,52464,1,0
88,164,52664,1,8
88,164,52764,1,0
88,164,52864,1,0
32,248,53064,6,0,B|80:268,1,50,2|0
64,316,53264,2,0,B|172:296,1,100
252,256,53664,2,0,B|336:352,1,100
416,352,54064,1,0
440,256,54264,1,0
440,256,54364,1,0
440,256,54464,1,0
372,184,54664,1,0
272,172,54864,5,2
60,60,55264,1,2
380,32,55664,1,2
80,300,56064,1,0
80,300,56464,6,0,B|124:280|124:280|176:304,1,100
252,244,56864,1,2
348,276,57064,1,8
348,276,57164,1,0
348,276,57264,2,0,B|396:156,1,100,2|0
428,204,57564,2,0,B|388:88,1,100,2|0
344,100,57864,1,2
252,56,58064,5,0
132,160,58264,1,2
132,160,58364,1,0
132,160,58464,1,0
284,216,58664,1,0
164,320,58864,6,0,B|260:340|260:340|372:292,1,200
388,204,59464,1,2
388,204,59564,1,0
388,204,59664,2,0,B|408:156|408:156|376:108,1,100,8|0
332,104,59964,1,2
240,68,60164,1,8
240,68,60264,1,2
148,104,60464,6,0,B|68:96|16:20,2,150,2|0|0
240,64,61264,2,0,B|264:160|188:256,1,200,2|0
92,232,61864,1,8
116,328,62064,1,0
212,348,62264,1,2
256,328,62364,1,0
304,340,62464,6,0,B|380:264,1,100
476,280,62864,1,8
444,184,63064,1,2
444,184,63164,1,0
444,184,63264,1,8
348,156,63464,1,8
296,72,63664,6,0,B|160:224,1,200,2|8
64,200,64264,1,0
20,108,64464,1,8
100,48,64664,1,0
100,48,64864,1,2
180,108,65064,6,0,B|312:56,1,100
324,160,65464,1,2
408,108,65664,1,8
408,108,65764,1,0
408,108,65864,1,0
408,108,65964,1,0
408,108,66064,5,2
364,260,66264,1,8
232,168,66464,1,8
364,260,66664,1,0
212,308,66864,5,8
272,140,67064,1,8
92,156,67264,1,0
272,140,67464,1,0
272,140,67564,1,2
272,140,67664,1,0
196,72,67864,5,0
136,152,68064,1,0
104,248,68264,1,0
148,336,68464,2,0,B|220:308,1,50,8|0
288,188,68764,2,0,B|228:208,1,50
352,316,69064,1,2
428,248,69264,5,8
448,200,69364,1,0
456,152,69464,1,0
436,104,69564,1,0
408,64,69664,1,0
316,108,69864,2,0,B|320:164,1,50,2|0
204,76,70164,2,0,B|196:20,1,50,2|0
104,68,70464,1,8
132,164,70664,1,0
68,240,70864,6,0,B|128:288|224:268,1,150,2|0
240,232,71264,1,8
308,156,71464,1,0
308,156,71564,1,0
308,156,71664,2,0,B|400:216|360:348,1,200
404,240,72264,5,8
404,240,72364,1,0
404,240,72464,2,0,B|392:160|472:96,1,150
452,56,72864,1,2
352,76,73064,1,0
256,48,73264,6,0,B|36:60,1,200
24,216,73864,1,8
24,216,73964,1,0
24,216,74064,1,0
124,340,74264,1,0
276,288,74464,1,0
432,316,74664,1,0
432,316,74764,2,0,B|488:228|468:108,1,200
420,128,75264,1,8
352,56,75464,5,2
352,56,75564,1,0
352,56,75664,2,0,B|280:92|280:92|300:164,1,150,0|8
292,208,76064,1,8
200,172,76264,1,2
120,228,76464,2,0,B|80:292|80:292|152:336,1,150,0|8
192,348,76864,1,8
288,316,77064,1,0
380,352,77264,6,0,B|440:264,1,100
384,184,77664,1,8
368,136,77764,1,0
328,108,77864,1,0
280,104,77964,1,0
232,116,78064,1,0
168,192,78264,1,2
168,192,78364,1,0
168,192,78464,1,0
84,140,78664,1,0
52,180,78764,1,0
36,228,78864,5,2
136,296,79064,1,8
212,204,79264,1,8
112,140,79464,1,0
8,236,79664,5,2
144,320,79864,1,8
248,200,80064,1,8
108,120,80264,1,0
260,220,80464,5,2
384,92,80664,1,8
500,228,80864,1,8
372,352,81064,1,0
324,160,81264,5,2
164,280,81464,1,8
40,124,81664,1,8
212,20,81864,1,0
304,56,82064,6,0,B|408:72,1,100,2|0
444,104,82364,2,0,B|404:200,1,100
372,232,82664,1,8
296,296,82864,6,0,B|228:196,1,100,2|0
196,192,83164,2,0,B|148:284,1,100
104,264,83464,1,8
44,184,83664,5,2
56,168,83764,1,0
72,152,83864,1,0
88,140,83964,1,0
104,128,84064,1,8
124,120,84164,1,0
144,116,84264,1,0
164,116,84364,1,0
184,120,84464,1,8
204,124,84564,1,0
224,128,84664,1,0
244,128,84764,1,0
264,124,84864,1,8
284,116,84964,1,0
300,108,85064,1,8
316,100,85164,1,8
332,88,85264,6,0,B|456:104,1,100,2|0
500,176,85664,2,0,B|480:284|364:320,1,200
300,248,86264,1,0
256,228,86364,1,0
208,244,86464,1,0
160,228,86564,1,0
116,248,86664,1,0
56,168,86864,6,0,B|16:116|68:40,1,100,2|0
200,124,87264,2,0,B|228:172|204:224,1,100
56,168,87664,1,8
200,124,87864,1,2
48,76,88064,5,8
208,220,88264,1,0
144,296,88464,1,0
232,348,88664,2,0,B|280:348,2,50
368,264,89064,5,0
224,192,89264,1,0
364,116,89464,1,0
224,40,89664,2,0,B|128:76,1,100,2|0
32,52,90064,1,8
16,152,90264,1,0
16,152,90364,1,0
16,152,90464,6,0,B|116:184,1,100
128,280,90864,1,2
128,280,91064,1,0
216,232,91264,1,2
216,232,91464,1,0
300,288,91664,6,0,B|440:276,1,100
408,180,92064,1,8
468,100,92264,1,2
468,100,92364,1,0
468,100,92464,2,0,B|396:52|288:80,1,150
288,108,92864,1,8
212,40,93064,5,2
184,80,93164,1,0
144,112,93264,2,0,B|56:176,1,100,8|0
40,216,93564,2,0,B|144:192,1,100,8|0
164,236,93864,1,2
204,328,94064,6,0,B|280:288|280:164,1,150
212,68,94664,1,2
212,68,94764,1,0
212,68,94864,2,0,B|340:56,1,100
360,44,95164,2,0,B|432:128,1,100,8|0
416,168,95464,1,2
316,164,95664,6,0,B|228:188|212:276,1,150
348,332,96264,1,0
348,332,96364,1,0
348,332,96464,2,0,B|260:272|140:300,1,200,2|0
68,248,97064,1,0
144,180,97264,1,0
52,136,97464,2,0,B|28:40,1,100
124,60,97864,2,0,B|172:48,1,50
304,120,98264,5,8
364,40,98464,1,2
404,68,98564,1,0
436,104,98664,1,0
432,152,98764,1,0
408,196,98864,1,0
328,256,99064,2,0,B|240:204,1,100,8|0
192,120,99464,1,0
148,276,99664,6,0,B|196:296|256:268,1,100,2|0
192,120,100064,2,0,B|144:96|92:124,1,100
148,276,100464,1,8
192,120,100664,1,2
245,272,100864,5,8
96,120,101064,1,0
152,36,101264,1,0
248,68,101464,2,0,B|296:68,2,50
284,160,101864,2,0,B|392:136,1,100,2|0
252,232,102264,5,8
128,132,102464,1,0
20,252,102664,1,0
152,344,102864,6,0,B|292:328,1,100,2|0
272,340,103164,2,0,B|320:240,1,100,8|0
336,244,103464,1,2
424,196,103664,1,2
380,108,103864,1,0
284,80,104064,1,2
188,108,104264,1,0
116,180,104464,6,0,B|40:68,1,100
240,128,104864,6,0,B|304:232,1,100
124,276,105264,6,0,B|168:252|168:252|240:292,1,100
284,88,105664,6,0,B|240:112|240:112|168:72,2,100,2|0|0
376,44,106264,1,8
376,44,106364,1,0
376,44,106464,1,0
408,140,106664,1,2
332,208,106864,6,0,B|216:216,1,100
152,156,107264,2,0,B|104:272,1,100
16,272,107664,2,0,B|-20:176|12:68,1,200
108,80,108264,1,2
156,64,108364,1,0
200,84,108464,6,0,B|312:56,2,100,8|0|0
168,180,109064,2,0,B|104:200,2,50,8|0|0
232,256,109464,1,0
316,200,109664,1,8
252,124,109864,1,0
144,176,110064,5,0
228,288,110264,1,0
340,204,110464,1,8
256,92,110664,1,0
256,92,110764,1,0
256,92,110864,6,0,B|352:56|352:56|472:104,1,200
428,140,111364,1,2
420,188,111464,1,0
436,236,111564,1,0
416,280,111664,6,0,B|288:308,1,100
196,196,112064,2,0,B|328:172,2,100
72,96,112664,5,8
72,96,112764,2,0,B|32:168|72:256,1,150
152,188,113264,1,2
228,252,113464,1,0
280,124,113664,6,0,B|364:108|448:172,1,150,0|0
480,284,114164,1,8
480,284,114264,2,0,B|376:300,1,100
260,224,114664,1,2
88,276,114864,6,0,B|28:216|80:120,1,150
224,44,115364,1,8
224,44,115464,2,0,B|328:84,1,100
444,208,115864,5,2
444,208,115964,1,0
444,208,116064,1,0
288,296,116264,1,0
300,116,116464,1,2
364,304,116664,5,0
196,196,116864,1,0
376,108,117064,1,2
164,320,117264,5,2
256,36,117464,1,2
448,268,117664,1,0
456,248,117764,1,0
448,228,117864,1,0
456,212,117964,1,0
444,196,118064,1,4
