osu file format v12

[General]
AudioFilename: mp3.mp3
AudioLeadIn: 1000
PreviewTime: 93857
Countdown: 0
SampleSet: Soft
StackLeniency: 0.7
Mode: 0
LetterboxInBreaks: 0
WidescreenStoryboard: 0

[Editor]
DistanceSpacing: 1.4
BeatDivisor: 4
GridSize: 4

[Metadata]
Title:Call to me, Call for you
TitleUnicode:Call to me, Call for you
Artist:Satou Hiromi
ArtistUnicode:佐藤ひろ美
Creator:-Gamu-
Version:iyasine's Hard
Source:LOVELYxCATION2
Tags:hibiki works game visual novel opening hentai eroge umi -umi- guy iyasine
BeatmapID:264983
BeatmapSetID:99312

[Difficulty]
HPDrainRate:6
CircleSize:4
OverallDifficulty:6
ApproachRate:7
SliderMultiplier:1.4
SliderTickRate:1

[Events]
//Background and Video events
0,0,"Wakoto.jpg",0,0
Video,0,"video.avi"
//Break Periods
//Storyboard Layer 0 (Background)
//Storyboard Layer 1 (Fail)
//Storyboard Layer 2 (Pass)
//Storyboard Layer 3 (Foreground)
//Storyboard Sound Samples
//Background Colour Transformations
3,100,163,162,255

[TimingPoints]
1249,434.782608695652,4,2,1,30,1,0
1683,-133.333333333333,4,2,1,30,0,0
2988,-133.333333333333,4,2,1,60,0,0
3640,-133.333333333333,4,2,1,40,0,0
9944,-133.333333333333,4,2,2,30,0,0
10379,-133.333333333333,4,2,2,35,0,0
10814,-133.333333333333,4,2,2,40,0,0
11248,-133.333333333333,4,2,2,45,0,0
11683,-133.333333333333,4,2,2,50,0,0
14292,-133.333333333333,4,2,6,40,0,0
14509,-133.333333333333,4,2,2,50,0,0
15162,-133.333333333333,4,2,2,45,0,0
15596,-133.333333333333,4,2,2,40,0,0
16031,-133.333333333333,4,2,1,40,0,0
16901,-100,4,2,1,60,0,0
17335,-100,4,2,4,60,0,0
17553,-100,4,2,1,60,0,0
19075,-100,4,2,4,60,0,0
19292,-100,4,2,1,60,0,0
21466,-100,4,2,1,15,0,0
21575,-100,4,2,1,60,0,0
21683,-100,4,2,4,60,0,0
21901,-100,4,2,1,60,0,0
24292,-100,4,2,4,60,0,0
24509,-100,4,2,1,60,0,0
26031,-100,4,2,4,60,0,0
26248,-100,4,2,1,60,0,0
28422,-100,4,2,1,40,0,0
28531,-100,4,2,1,60,0,0
28640,-100,4,2,4,60,0,0
28857,-100,4,2,1,60,0,0
30379,-100,4,2,1,50,0,0
30814,-100,4,2,1,60,0,0
31031,-100,4,2,1,15,0,0
31140,-100,4,2,1,60,0,0
31248,-100,4,2,4,60,0,0
31466,-100,4,2,1,60,0,0
32770,-100,4,2,1,40,0,0
32879,-100,4,2,1,60,0,0
32988,-100,4,2,4,60,0,0
33205,-100,4,2,1,60,0,0
35596,-100,4,2,4,60,0,0
35814,-100,4,2,1,60,0,0
37988,-100,4,2,1,40,0,0
38096,-100,4,2,1,60,0,0
38205,-100,4,2,4,60,0,0
38422,-100,4,2,1,60,0,0
39727,-100,4,2,1,40,0,0
39835,-100,4,2,1,60,0,0
39944,-100,4,2,4,60,0,0
40162,-100,4,2,1,60,0,0
44292,-100,4,2,1,50,0,0
44727,-100,4,2,3,50,0,0
45596,-100,4,2,5,50,0,0
45814,-100,4,2,3,50,0,0
46683,-100,4,2,1,15,0,0
46792,-100,4,2,1,50,0,0
46901,-100,4,2,5,50,0,0
47118,-100,4,2,3,50,0,0
52553,-100,4,2,5,50,0,0
52770,-100,4,2,3,50,0,0
56031,-100,4,2,5,50,0,0
56248,-100,4,2,3,50,0,0
58314,-100,4,2,1,50,0,0
60705,-100,4,2,1,15,0,0
60814,-100,4,2,1,50,0,0
71466,-100,4,2,3,40,0,0
71901,-100,4,2,1,50,0,0
72553,-100,4,2,1,60,0,0
72988,-100,4,2,4,60,0,0
73096,-100,4,2,1,60,0,0
74727,-100,4,2,4,60,0,0
74835,-100,4,2,1,60,0,0
76466,-100,4,2,4,60,0,0
76575,-100,4,2,1,60,0,0
79944,-100,4,2,4,60,0,0
80053,-100,4,2,1,60,0,0
81683,-100,4,2,4,60,0,0
81792,-100,4,2,1,60,0,0
83422,-100,4,2,4,60,0,0
83531,-100,4,2,1,60,0,0
86031,-100,4,2,1,50,0,0
86466,-100,4,2,1,60,0,0
86901,-100,4,2,4,60,0,0
87227,-100,4,2,1,60,0,0
88640,-100,4,2,4,60,0,0
88966,-100,4,2,1,60,0,0
93205,-100,4,2,1,50,0,0
95162,-100,4,2,1,70,0,1
99944,-100,4,2,4,70,0,1
100162,-100,4,2,1,70,0,1
100814,-100,4,2,4,70,0,1
100922,-100,4,2,1,70,0,1
106901,-100,4,2,4,70,0,1
107118,-100,4,2,1,70,0,1
107770,-100,4,2,4,70,0,1
107879,-100,4,2,1,70,0,1
108422,-100,4,2,1,50,0,1
109075,-100,4,2,1,70,0,0
109509,-100,4,2,1,70,0,1
110379,-100,4,2,1,50,0,1
110814,-100,4,2,1,60,0,1
111031,-100,4,2,1,70,0,1
113857,-100,4,2,4,70,0,1
114075,-100,4,2,1,70,0,1
114727,-100,4,2,4,70,0,1
114835,-100,4,2,1,70,0,1
119075,-100,4,2,4,70,0,1
119292,-100,4,2,1,70,0,1
120814,-100,4,2,4,70,0,1
121031,-100,4,2,1,70,0,1
122553,-100,4,2,1,50,0,1
122988,-100,4,2,1,60,0,0
123422,-100,4,2,4,60,0,0
123640,-100,4,2,1,60,0,0
125162,-100,4,2,4,60,0,0
125379,-100,4,2,1,60,0,0
127770,-100,4,2,4,60,0,0
127988,-100,4,2,1,60,0,0
130379,-100,4,2,4,60,0,0
130596,-100,4,2,1,60,0,0
132118,-100,4,2,4,60,0,0
132335,-100,4,2,1,60,0,0
134727,-100,4,2,4,60,0,0
134944,-100,4,2,1,60,0,0
136466,-100,4,2,1,50,0,0
136901,-133.333333333333,4,2,1,50,0,0
139727,-133.333333333333,4,2,1,40,0,0
139944,-133.333333333333,4,2,1,50,0,0
140596,-133.333333333333,4,2,1,40,0,0
140814,-133.333333333333,4,2,1,50,0,0
141031,-133.333333333333,4,2,1,40,0,0
141248,-133.333333333333,4,2,1,50,0,0
142553,-133.333333333333,4,2,1,40,0,0
142770,-133.333333333333,4,2,1,50,0,0
144944,-133.333333333333,4,2,1,40,0,0
145162,-133.333333333333,4,2,1,50,0,0
146683,-133.333333333333,4,2,1,40,0,0
146901,-133.333333333333,4,2,1,50,0,0
147553,-133.333333333333,4,2,1,40,0,0
147770,-133.333333333333,4,2,1,50,0,0
148314,-133.333333333333,4,2,1,40,0,0
148422,-133.333333333333,4,2,1,50,0,0
149509,-133.333333333333,4,2,1,40,0,0
149727,-200,4,2,1,30,0,0
150379,-200,4,2,1,40,0,0
150596,-200,4,2,1,30,0,0
150705,-200,4,2,1,20,0,0
150814,-200,4,2,1,10,0,0

[Colours]
Combo1 : 98,98,255
Combo2 : 0,128,255
Combo3 : 162,162,255
Combo4 : 0,64,128

[HitObjects]
303,318,1683,6,0,P|347:347|398:352,2,105.000004005432
254,224,2988,6,0,L|265:131,1,78.7500030040742,4|0,0:0|0:0,0:0:0:0:
178,64,3640,2,0,L|165:170,1,105.000004005432,2|0,0:0|0:0,0:0:0:0:
165,247,4292,1,0,0:0:0:0:
165,247,4509,2,0,P|175:271|197:293,1,52.5000020027161,0|2,0:0|0:0,0:0:0:0:
264,324,4944,6,0,P|329:300|351:221,1,157.500006008148,0|0,0:0|0:0,0:0:0:0:
339,142,5814,2,0,P|335:116|326:91,1,52.5000020027161
266,39,6248,2,0,P|240:38|213:44,1,52.5000020027161,0|2,0:0|0:0,0:0:0:0:
94,151,6901,5,0,0:0:0:0:
94,151,7118,2,0,L|198:134,1,105.000004005432,0|0,0:0|0:0,0:0:0:0:
272,174,7770,1,0,0:0:0:0:
200,217,7988,1,0,0:0:0:0:
200,217,8205,6,0,P|278:281|380:265,1,210.000008010865,2|0,0:0|0:0,0:0:0:0:
441,207,9292,2,0,L|491:226,2,52.5000020027161,2|0|0,0:0|0:0|0:0,0:0:0:0:
371,158,9944,6,0,L|382:105,1,52.5000020027161,2|0,0:0|0:0,0:0:0:0:
336,35,10379,2,0,L|285:24,1,52.5000020027161,2|0,0:0|0:0,0:0:0:0:
164,85,10814,2,0,L|215:74,1,52.5000020027161,2|0,0:0|0:0,0:0:0:0:
291,109,11248,2,0,L|280:160,1,52.5000020027161,2|0,0:0|0:0,0:0:0:0:
263,248,11683,6,0,P|314:225|363:231,1,105.000004005432,2|2,0:0|0:0,0:0:0:0:
386,316,12335,2,0,P|360:331|336:340,1,52.5000020027161,0|2,0:0|0:0,0:0:0:0:
252,360,12770,1,0,0:0:0:0:
171,321,12988,2,0,P|163:295|160:269,1,52.5000020027161,2|0,0:0|0:0,0:0:0:0:
234,221,13422,6,0,P|247:170|234:120,1,105.000004005432,2|2,0:0|0:0,0:0:0:0:
190,41,14075,2,0,P|244:30|290:50,1,105.000004005432
341,121,14727,1,2,0:0:0:0:
152,117,14944,1,0,0:0:0:0:
152,117,15053,1,0,0:0:0:0:
152,117,15162,6,0,L|159:172,1,52.5000020027161,2|0,0:0|0:0,0:0:0:0:
240,186,15596,2,0,L|247:241,1,52.5000020027161,2|0,0:0|0:0,0:0:0:0:
329,253,16031,2,0,P|376:221|393:178,1,105.000004005432,2|2,0:0|0:0,0:0:0:0:
393,178,16901,6,0,L|501:199,2,105,4|0|0,0:0|0:0|0:0,0:0:0:0:
329,253,17770,2,0,P|326:291|321:322,1,70
232,365,18205,1,8,0:0:0:0:
145,319,18422,1,0,0:0:0:0:
72,252,18640,6,0,P|54:200|55:151,2,105
145,319,19509,2,0,P|174:299|197:272,1,70
245,187,19944,2,0,L|233:74,1,105,8|0,0:0|0:0,0:0:0:0:
230,33,20379,6,0,P|266:33|299:22,1,70
439,85,20814,2,0,P|403:85|370:96,1,70,8|0,0:0|0:0,0:0:0:0:
245,187,21248,2,0,P|281:187|314:176,1,70
362,171,21575,2,0,L|379:277,1,105
300,333,22118,6,0,P|234:359|166:350,2,140,0|8|0,0:0|0:0|0:0,0:0:0:0:
379,275,23205,1,0,0:0:0:0:
289,236,23422,1,8,0:0:0:0:
362,171,23640,5,8,0:0:0:0:
362,171,23748,1,8,0:0:0:0:
362,171,23857,2,0,P|419:181|470:172,2,105,4|0|0,0:0|0:0|0:0,0:0:0:0:
274,125,24727,2,0,P|243:108|210:97,1,70
114,75,25162,1,8,0:0:0:0:
86,168,25379,1,0,0:0:0:0:
140,257,25596,6,0,P|139:312|117:357,2,105
219,198,26466,2,0,P|254:199|290:210,1,70
381,237,26901,2,0,P|429:222|449:174,1,105,8|0,0:0|0:0,0:0:0:0:
440,126,27335,6,0,P|415:100|385:80,1,70
300,34,27770,2,0,P|299:72|291:104,1,70,8|0,0:0|0:0,0:0:0:0:
133,154,28205,2,0,P|170:157|205:170,1,70
245,187,28531,2,0,P|240:239|249:290,1,105
293,378,29075,6,0,P|329:372|362:362,1,70
449,319,29509,1,8,0:0:0:0:
369,261,29727,1,0,0:0:0:0:
348,164,29944,1,4,0:0:0:0:
412,88,30162,1,8,0:0:0:0:
412,88,30270,1,8,0:0:0:0:
412,88,30379,2,0,L|447:99,2,35,8|8|4,3:0|3:0|3:0,3:0:0:0:
300,69,30814,6,0,P|267:75|232:87,1,70,4|0,0:0|0:0,0:0:0:0:
185,100,31140,2,0,P|131:93|85:68,1,105
8,127,31683,2,0,P|10:162|18:197,1,70
49,289,32118,1,8,0:0:0:0:
125,227,32335,1,0,0:0:0:0:
211,273,32553,6,0,P|237:292|264:317,1,70
302,348,32879,2,0,P|348:322|401:311,1,105
473,248,33422,2,0,L|464:179,1,70
450,81,33857,2,0,P|400:70|350:89,1,105,8|0,0:0|0:0,0:0:0:0:
312,119,34292,6,0,L|321:188,1,70
229,223,34727,2,0,L|220:154,1,70,8|0,0:0|0:0,0:0:0:0:
139,96,35162,2,0,P|88:82|37:86,2,105
232,154,36031,6,0,P|232:190|228:223,1,70
151,285,36466,2,0,P|153:320|159:358,1,70,8|0,0:0|0:0,0:0:0:0:
298,356,36901,2,0,P|303:321|305:286,1,70
314,196,37335,1,8,0:0:0:0:
232,154,37553,1,8,0:0:0:0:
232,154,37662,1,8,0:0:0:0:
232,154,37770,6,0,P|196:154|162:150,1,70,4|0,0:0|0:0,0:0:0:0:
114,138,38096,2,0,P|110:84|122:31,1,105
236,84,38640,2,0,P|236:117|232:155,1,70
216,250,39075,1,8,0:0:0:0:
156,327,39292,1,0,0:0:0:0:
68,371,39509,6,0,P|52:333|45:305,1,70
39,256,39835,2,0,P|78:221|105:175,1,105
167,100,40379,2,0,P|202:101|236:110,1,70
322,155,40814,2,0,P|354:197|404:201,1,105,8|0,0:0|0:0,0:0:0:0:
442,173,41248,6,0,P|460:140|468:108,1,70,2|0,0:0|0:0,0:0:0:0:
362,44,41683,2,0,P|344:77|336:109,1,70,8|0,0:0|0:0,0:0:0:0:
321,155,42009,2,0,P|270:138|220:135,1,105
67,211,42553,2,0,P|105:209|135:198,1,70,8|0,0:0|0:0,0:0:0:0:
225,234,42988,6,0,P|245:305|217:364,1,140,2|8,0:0|0:0,0:0:0:0:
147,293,43640,1,0,0:0:0:0:
225,234,43857,2,0,P|258:227|296:227,1,70,4|8,0:0|0:0,0:0:0:0:
343,229,44183,1,8,0:0:0:0:
343,229,44292,2,0,L|389:240,2,35,8|8|4,3:0|3:0|3:0,0:0:0:0:
282,151,44727,6,0,P|285:111|293:80,1,70,12|0,0:0|0:0,0:0:0:0:
407,31,45162,2,0,P|418:65|425:101,1,70,8|0,0:0|0:0,0:0:0:0:
432,147,45488,2,0,P|417:197|424:255,1,105
441,337,46031,1,8,0:0:0:0:
509,277,46248,1,0,0:0:0:0:
422,249,46466,6,0,P|387:249|354:265,1,70,8|0,0:0|0:0,0:0:0:0:
310,269,46792,2,0,P|255:253|217:225,1,105
156,157,47335,1,8,0:0:0:0:
71,191,47553,2,0,P|39:204|5:212,2,70,0|8|0,0:0|0:0|0:0,0:0:0:0:
156,157,48205,6,0,P|222:134|292:143,2,140,8|8|8,0:0|0:0|0:0,0:0:0:0:
71,191,49292,2,0,P|72:226|78:262,1,70,0|8,0:0|0:0,0:0:0:0:
96,349,49727,5,0,0:0:0:0:
183,371,49944,1,8,0:0:0:0:
264,329,50162,2,0,P|262:293|257:258,1,70,0|8,0:0|0:0,0:0:0:0:
239,170,50596,1,0,0:0:0:0:
295,98,50814,1,8,0:0:0:0:
295,98,50922,1,0,0:0:0:0:
295,98,51031,2,0,P|332:101|367:113,1,70,0|8,0:0|0:0,0:0:0:0:
485,143,51466,5,0,0:0:0:0:
485,143,51575,1,0,0:0:0:0:
485,143,51683,2,0,L|476:214,1,70,12|0,0:0|0:0,0:0:0:0:
399,262,52118,2,0,L|390:333,1,70,8|0,0:0|0:0,0:0:0:0:
348,350,52444,2,0,P|297:327|245:326,1,105
159,345,52988,1,8,0:0:0:0:
159,345,53205,1,0,0:0:0:0:
89,286,53422,6,0,P|54:296|18:299,2,70,8|0|8,0:0|0:0|0:0,0:0:0:0:
143,212,54075,2,0,P|143:170|139:143,1,70,0|8,0:0|0:0,0:0:0:0:
126,52,54509,1,0,0:0:0:0:
56,111,54727,1,8,0:0:0:0:
126,52,54944,1,0,0:0:0:0:
211,84,55162,6,0,P|276:107|342:89,1,140,8|8,0:0|0:0,0:0:0:0:
422,44,55814,2,0,P|371:109|379:161,1,140
463,125,56466,1,8,0:0:0:0:
450,214,56683,5,0,0:0:0:0:
450,214,56792,1,0,0:0:0:0:
450,214,56901,2,0,L|442:284,2,70,8|0|8,0:0|0:0|0:0,0:0:0:0:
463,125,57553,5,8,0:0:0:0:
293,58,57988,2,0,P|259:72|231:90,1,70,8|0,0:0|0:0,0:0:0:0:
186,111,58314,2,0,P|169:106|151:92,2,35,8|8|8,0:0|0:0|0:0,0:0:0:0:
222,143,58640,6,0,P|230:177|231:213,1,70,4|0,0:0|0:0,0:0:0:0:
125,281,59075,2,0,P|117:247|116:211,1,70,8|0,0:0|0:0,0:0:0:0:
113,162,59401,2,0,P|64:143|11:146,1,105
56,291,59944,2,0,P|90:289|124:281,1,70,8|0,0:0|0:0,0:0:0:0:
215,242,60379,6,0,P|265:249|314:273,1,105
353,300,60814,2,0,P|346:337|349:371,2,70,8|0|0,0:0|0:0|0:0,0:0:0:0:
429,249,61466,1,0,0:0:0:0:
422,158,61683,1,8,0:0:0:0:
342,112,61901,5,0,0:0:0:0:
342,112,62009,1,0,0:0:0:0:
342,112,62118,2,0,P|309:103|273:103,1,70
187,204,62553,2,0,P|220:213|256:213,1,70,8|0,0:0|0:0,0:0:0:0:
346,208,62988,1,0,0:0:0:0:
422,158,63205,2,0,P|457:150|491:149,2,70,0|8|0,0:0|0:0|0:0,0:0:0:0:
342,112,63857,5,0,0:0:0:0:
256,144,64075,1,0,0:0:0:0:
171,110,64292,1,8,0:0:0:0:
106,173,64509,2,0,P|89:244|114:305,1,140
180,365,65162,1,8,0:0:0:0:
248,305,65379,5,8,0:0:0:0:
248,305,65488,1,8,0:0:0:0:
248,305,65596,2,0,P|284:305|321:299,1,70,4|0,0:0|0:0,0:0:0:0:
389,179,66031,2,0,P|353:179|316:185,1,70,8|0,0:0|0:0,0:0:0:0:
271,195,66357,2,0,P|258:140|259:89,1,105
167,25,66901,2,0,P|167:58|162:98,1,70,8|0,0:0|0:0,0:0:0:0:
145,183,67335,6,0,P|207:215|272:194,1,140,0|8,0:0|0:0,0:0:0:0:
341,137,67988,1,0,0:0:0:0:
315,49,68205,1,0,0:0:0:0:
341,137,68422,6,0,P|378:145|411:146,2,70,0|8|0,0:0|0:0|0:0,0:0:0:0:
252,114,69075,2,0,P|182:129|145:184,1,140,0|8,0:0|0:0,0:0:0:0:
54,184,69727,1,0,0:0:0:0:
54,184,69835,1,0,0:0:0:0:
54,184,69944,2,0,P|58:218|67:252,1,70
100,337,70379,1,8,0:0:0:0:
194,290,70596,6,0,L|227:275,2,35,8|8|4,0:0|0:0|3:0,0:0:0:0:
107,232,71031,1,8,0:0:0:0:
100,337,71248,1,4,3:0:0:0:
194,290,71466,1,12,0:0:0:0:
194,290,71901,6,0,P|228:273|255:250,1,70,4|0,0:0|0:0,0:0:0:0:
284,211,72227,2,0,L|276:171,2,35,8|8|8,0:0|0:0|0:0,0:0:0:0:
323,246,72553,6,0,P|347:266|381:283,1,70,4|0,0:0|0:0,0:0:0:0:
416,279,72879,2,0,P|445:254|465:225,1,70
480,197,73205,2,0,P|441:129|392:88,1,140
303,96,73857,2,0,P|275:115|239:124,1,70,8|0,0:0|0:0,0:0:0:0:
97,227,74292,6,0,P|125:208|161:199,1,70
205,197,74618,2,0,L|220:267,1,70
232,309,74944,2,0,P|303:306|362:270,1,140
422,204,75596,1,8,0:0:0:0:
450,290,75814,1,0,0:0:0:0:
361,271,76031,6,0,P|327:254|301:234,1,70,4|0,0:0|0:0,0:0:0:0:
270,201,76357,2,0,L|289:133,1,70
302,89,76683,2,0,P|234:68|169:87,1,140
52,184,77335,2,0,P|88:183|121:173,1,70,8|0,0:0|0:0,0:0:0:0:
211,165,77770,6,0,P|261:184|299:220,1,105
331,249,78205,2,0,L|322:320,2,70,8|0|0,0:0|0:0|0:0,0:0:0:0:
345,158,78857,1,0,0:0:0:0:
355,67,79075,2,0,P|322:58|287:55,1,70,8|0,0:0|0:0,0:0:0:0:
198,32,79509,6,0,P|165:41|134:58,1,70,4|0,0:0|0:0,0:0:0:0:
94,81,79835,2,0,P|96:118|103:151,1,70
114,194,80162,2,0,B|122:211|122:211|152:248|194:252|194:252|227:236,1,140
309,198,80814,1,8,0:0:0:0:
380,254,81031,1,0,0:0:0:0:
314,316,81248,6,0,P|288:342|259:358,1,70
216,375,81575,2,0,P|181:365|150:349,1,70
114,322,81901,2,0,B|95:301|95:301|125:256|114:193,1,140
93,104,82553,1,8,0:0:0:0:
28,167,82770,1,0,0:0:0:0:
114,194,82988,6,0,P|146:203|183:208,1,70,4|0,0:0|0:0,0:0:0:0:
227,203,83314,2,0,P|258:184|279:158,1,70
305,121,83640,2,0,P|358:164|426:157,1,140
385,74,84292,1,8,0:0:0:0:
385,74,84509,1,0,0:0:0:0:
305,121,84727,6,0,P|307:155|313:191,1,70
352,272,85162,2,0,P|347:309|335:339,1,70,8|0,0:0|0:0,0:0:0:0:
250,371,85596,2,0,P|216:369|179:358,1,70,0|8,0:0|0:0,0:0:0:0:
137,348,85922,1,8,0:0:0:0:
137,348,86031,2,0,L|98:356,2,35,8|8|4,3:0|3:0|3:0,0:0:0:0:
207,290,86466,5,4,0:0:0:0:
140,228,86683,2,0,P|120:161|144:97,1,140
216,42,87335,2,0,L|285:49,1,70
376,58,87770,1,8,0:0:0:0:
376,58,87988,1,0,0:0:0:0:
325,133,88205,5,0,0:0:0:0:
394,191,88422,2,0,P|414:258|390:322,1,140
307,359,89075,2,0,L|238:352,1,70
147,342,89509,1,8,0:0:0:0:
147,342,89727,1,0,0:0:0:0:
57,358,89944,6,0,B|26:314|91:276|52:224,1,140,0|8,0:0|0:0,0:0:0:0:
13,142,90596,2,0,P|48:136|82:136,1,70
168,167,91031,1,0,0:0:0:0:
253,198,91248,2,0,P|287:198|322:192,2,70,8|0|4,0:0|0:0|0:0,0:0:0:0:
256,192,91792,12,4,93205,3:0:0:0:
138,224,93857,5,2,0:0:0:0:
290,152,94292,1,2,0:0:0:0:
216,303,94727,1,2,0:0:0:0:
216,303,95162,6,0,P|186:311|146:309,1,70,4|0,0:0|0:0,0:0:0:0:
55,276,95596,1,8,0:0:0:0:
138,224,95814,2,0,P|138:187|135:155,1,70
212,94,96248,1,0,0:0:0:0:
290,152,96466,2,0,P|290:189|293:221,1,70,8|0,0:0|0:0,0:0:0:0:
323,315,96901,6,0,P|387:348|450:330,2,140,0|8|0,0:0|0:0|0:0,0:0:0:0:
255,244,97988,1,0,0:0:0:0:
290,152,98205,2,0,P|325:145|364:145,1,70,8|0,0:0|0:0,0:0:0:0:
321,53,98640,6,0,P|252:68|185:56,1,140,0|8,0:0|0:0,0:0:0:0:
91,23,99292,1,0,0:0:0:0:
27,97,99509,2,0,P|25:132|31:166,1,70
54,209,99835,2,0,P|60:261|47:312,1,105
138,274,100379,6,0,P|171:259|206:250,1,70
243,221,100705,2,0,P|279:223|316:236,1,70
353,257,101031,2,0,P|422:277|477:244,1,140
406,175,101683,1,8,0:0:0:0:
353,257,101901,5,8,0:0:0:0:
347,265,102009,1,8,0:0:0:0:
342,274,102118,2,0,P|319:303|294:324,1,70,4|0,0:0|0:0,0:0:0:0:
201,358,102553,1,8,0:0:0:0:
138,283,102770,2,0,P|103:275|68:276,1,70
4,201,103205,1,0,0:0:0:0:
85,147,103422,2,0,P|120:155|155:154,1,70,8|0,0:0|0:0,0:0:0:0:
232,94,103857,6,0,P|255:146|226:222,2,140,0|8|0,0:0|0:0|0:0,0:0:0:0:
138,64,104944,1,0,0:0:0:0:
85,147,105162,2,0,P|84:182|89:216,1,70,8|0,0:0|0:0,0:0:0:0:
113,311,105596,6,0,P|165:354|233:346,1,140,0|8,0:0|0:0,0:0:0:0:
315,292,106248,1,0,0:0:0:0:
391,230,106466,2,0,P|439:209|493:217,2,105
315,292,107335,6,0,P|279:286|247:269,1,70
226,226,107662,2,0,P|196:210|160:204,1,70
115,223,107988,2,0,P|79:217|47:200,1,70,0|4,0:0|0:0,0:0:0:0:
168,128,108422,5,8,3:0:0:0:
168,128,108531,1,8,3:0:0:0:
168,128,108640,2,0,L|199:100,4,35,8|4|4|4|0,3:0|3:0|3:0|3:0|0:0,0:0:0:0:
168,128,109509,6,0,L|172:199,1,70,4|0,0:0|0:0,0:0:0:0:
178,295,109944,1,8,0:0:0:0:
260,241,110162,1,0,0:0:0:0:
339,298,110379,2,0,P|370:314|404:323,1,70,8|4,3:0|3:0,0:0:0:0:
483,264,110814,5,4,0:0:0:0:
396,217,111031,2,0,P|384:184|386:150,1,70,0|8,0:0|0:0,0:0:0:0:
410,54,111466,1,0,0:0:0:0:
410,54,111575,2,0,P|358:68|305:61,1,105
213,36,112118,1,8,0:0:0:0:
124,81,112335,1,0,0:0:0:0:
45,139,112553,6,0,B|21:167|21:167|50:214|33:266,1,140,0|8,0:0|0:0,0:0:0:0:
94,342,113205,1,0,0:0:0:0:
94,342,113314,1,0,0:0:0:0:
94,342,113422,2,0,P|147:359|196:346,2,105
32,265,114292,6,0,P|65:248|99:244,1,70
145,255,114618,2,0,P|177:250|210:233,1,70
239,194,114944,2,0,P|303:162|369:178,1,140
314,260,115596,1,8,0:0:0:0:
254,338,115814,5,8,0:0:0:0:
254,338,115922,1,8,0:0:0:0:
254,338,116031,2,0,P|220:339|184:331,1,70,4|0,0:0|0:0,0:0:0:0:
89,308,116466,1,8,0:0:0:0:
153,234,116683,2,0,P|156:194|152:161,1,70
142,66,117118,1,0,0:0:0:0:
142,66,117335,2,0,P|178:69|209:84,1,70,8|0,0:0|0:0,0:0:0:0:
293,131,117770,5,0,0:0:0:0:
379,177,117988,2,0,P|410:192|446:195,2,70,0|8|0,0:0|0:0|0:0,0:0:0:0:
293,131,118640,2,0,P|250:154|193:156,2,105
375,77,119509,6,0,L|380:221,1,140,0|8,0:0|0:0,0:0:0:0:
382,315,120162,1,0,0:0:0:0:
296,362,120379,2,0,P|247:378|195:366,2,105
382,315,121248,6,0,B|394:283|394:283|358:240|379:182,1,140,0|8,0:0|0:0,0:0:0:0:
461,222,121901,1,0,0:0:0:0:
454,124,122118,2,0,P|426:102|392:89,1,70,4|8,0:0|0:0,0:0:0:0:
345,92,122444,1,8,0:0:0:0:
345,92,122553,2,0,L|314:106,2,35,8|8|4,3:0|3:0|3:0,0:0:0:0:
378,184,122988,6,0,P|386:235|386:290,2,105,4|0|0,0:0|0:0|0:0,0:0:0:0:
345,92,123857,2,0,P|312:100|282:119,1,70
203,179,124292,1,8,0:0:0:0:
282,236,124509,1,0,0:0:0:0:
204,296,124727,6,0,P|159:317|105:309,2,105
282,236,125596,2,0,P|284:198|279:166,1,70
272,68,126031,2,0,P|226:45|175:52,1,105,8|0,0:0|0:0,0:0:0:0:
132,78,126466,6,0,P|130:116|135:148,1,70
71,222,126901,2,0,P|81:257|100:289,1,70,8|0,0:0|0:0,0:0:0:0:
152,366,127335,2,0,P|186:346|207:325,1,70
242,288,127662,2,0,P|231:236|237:183,1,105
264,91,128205,6,0,P|332:95|386:52,2,140,0|8|0,0:0|0:0|0:0,0:0:0:0:
171,57,129292,1,0,0:0:0:0:
84,102,129509,1,8,0:0:0:0:
23,179,129727,5,8,0:0:0:0:
23,179,129835,1,8,0:0:0:0:
23,179,129944,2,0,P|12:231|25:286,2,105,4|0|0,0:0|0:0|0:0,0:0:0:0:
84,102,130814,2,0,P|108:129|137:148,1,70
224,188,131248,1,8,0:0:0:0:
302,128,131466,1,0,0:0:0:0:
379,68,131683,6,0,P|428:47|479:54,2,105
302,128,132553,2,0,L|310:199,1,70
323,294,132988,2,0,P|289:337|242:342,1,105,8|0,0:0|0:0,0:0:0:0:
198,320,133422,6,0,P|168:302|132:294,1,70
22,253,133857,2,0,P|55:245|85:227,1,70,8|0,0:0|0:0,0:0:0:0:
172,181,134292,2,0,P|171:142|167:109,1,70
161,62,134618,2,0,P|209:83|261:82,1,105
392,104,135162,6,0,P|361:118|334:145,1,70
266,212,135596,1,8,0:0:0:0:
343,272,135814,1,0,0:0:0:0:
277,345,136031,1,4,0:0:0:0:
198,285,136248,1,8,0:0:0:0:
198,285,136357,1,8,0:0:0:0:
198,285,136466,2,0,L|170:311,2,35,8|8|4,3:0|3:0|3:0,0:0:0:0:
266,212,136901,6,0,P|293:185|332:174,2,78.7500030040742,4|2|2,0:0|0:0|0:0,0:0:0:0:
187,207,137770,2,0,L|138:191,1,52.5000020027161,2|0,0:0|0:0,0:0:0:0:
89,96,138205,2,0,L|138:112,1,52.5000020027161,2|2,0:0|0:0,0:0:0:0:
214,133,138640,6,0,L|286:92,2,78.7500030040742,2|2|2,0:0|0:0|0:0,0:0:0:0:
187,207,139509,2,0,L|186:262,1,52.5000020027161,2|0,0:0|0:0,0:0:0:0:
183,338,139944,2,0,P|209:350|234:355,1,52.5000020027161,2|0,0:0|0:0,0:0:0:0:
311,354,140379,6,0,P|334:349|360:337,1,52.5000020027161,2|0,0:0|0:0,0:0:0:0:
430,300,140814,2,0,P|427:270|420:247,1,52.5000020027161,2|0,0:0|0:0,0:0:0:0:
401,172,141248,2,0,P|440:163|471:140,2,78.7500030040742,2|0|0,0:0|0:0|0:0,0:0:0:0:
328,139,142118,6,0,P|277:128|229:147,1,105.000004005432,2|0,0:0|0:0,0:0:0:0:
156,178,142770,1,2,0:0:0:0:
88,218,142988,2,0,P|66:234|42:243,2,52.5000020027161,2|2|2,0:0|0:0|0:0,0:0:0:0:
156,178,143640,1,2,0:0:0:0:
222,136,143857,6,0,P|261:123|300:128,2,78.7500030040742,2|2|2,0:0|0:0|0:0,0:0:0:0:
156,178,144727,2,0,L|162:241,1,52.5000020027161,2|0,0:0|0:0,0:0:0:0:
171,308,145162,2,0,P|189:329|213:342,1,52.5000020027161,2|2,0:0|0:0,0:0:0:0:
288,352,145596,6,0,P|328:345|361:325,2,78.7500030040742,2|2|2,0:0|0:0|0:0,0:0:0:0:
209,341,146466,2,0,P|188:330|170:309,1,52.5000020027161,2|0,0:0|0:0,0:0:0:0:
196,233,146901,2,0,P|199:204|196:181,1,52.5000020027161,2|0,0:0|0:0,0:0:0:0:
145,120,147335,6,0,P|142:97|145:68,1,52.5000020027161,2|0,0:0|0:0,0:0:0:0:
222,54,147770,2,0,P|251:63|269:81,1,52.5000020027161,2|2,0:0|0:0,0:0:0:0:
292,107,148096,2,0,P|312:123|340:128,1,52.5000020027161,2|0,0:0|0:0,0:0:0:0:
377,128,148422,2,0,P|428:136|464:173,1,105.000004005432,2|2,0:0|0:0,0:0:0:0:
480,250,149075,2,0,P|429:242|393:205,1,105.000004005432,2|0,0:0|0:0,0:0:0:0:
377,128,149727,6,0,P|295:103|225:153,1,175,2|0,0:0|0:0,0:0:0:0:
