osu file format v12

[General]
AudioFilename: mp3.mp3
AudioLeadIn: 1000
PreviewTime: 93857
Countdown: 0
SampleSet: Soft
StackLeniency: 0.7
Mode: 0
LetterboxInBreaks: 0
WidescreenStoryboard: 0

[Editor]
DistanceSpacing: 1
BeatDivisor: 4
GridSize: 4

[Metadata]
Title:Call to me, Call for you
TitleUnicode:Call to me, Call for you
Artist:Satou Hiromi
ArtistUnicode:佐藤ひろ美
Creator:-Gamu-
Version:Umi's Easy
Source:LOVELYxCATION2
Tags:hibiki works game visual novel opening hentai eroge umi -umi- guy iyasine
BeatmapID:271517
BeatmapSetID:99312

[Difficulty]
HPDrainRate:2
CircleSize:3
OverallDifficulty:2
ApproachRate:3
SliderMultiplier:1
SliderTickRate:1

[Events]
//Background and Video events
0,0,"Hinata.jpg",0,0
Video,0,"video.avi"
//Break Periods
2,123187,128504
//Storyboard Layer 0 (Background)
//Storyboard Layer 1 (Fail)
//Storyboard Layer 2 (Pass)
//Storyboard Layer 3 (Foreground)
//Storyboard Sound Samples
//Background Colour Transformations
3,100,163,162,255

[TimingPoints]
1249,434.782608695652,4,2,1,40,1,0
2988,-133.333333333333,4,3,0,40,0,0
3096,-133.333333333333,4,2,1,40,0,0
3857,-133.333333333333,4,2,1,10,0,0
4075,-133.333333333333,4,2,3,40,0,0
5162,-133.333333333333,4,2,1,10,0,0
5814,-133.333333333333,4,2,3,40,0,0
6901,-133.333333333333,4,2,1,10,0,0
7553,-133.333333333333,4,2,3,40,0,0
8640,-133.333333333333,4,2,1,10,0,0
9292,-133.333333333333,4,2,3,40,0,0
10379,-133.333333333333,4,2,5,30,0,0
10814,-133.333333333333,4,2,3,40,0,0
12118,-133.333333333333,4,2,5,40,0,0
12553,-133.333333333333,4,2,3,40,0,0
13857,-133.333333333333,4,2,5,50,0,0
14292,-133.333333333333,4,2,3,50,0,0
14509,-133.333333333333,4,2,3,40,0,0
15596,-133.333333333333,4,2,5,60,0,0
16031,-133.333333333333,4,2,1,60,0,0
16466,-100,4,2,1,60,0,0
22553,-100,4,2,4,60,0,0
22770,-100,4,2,1,60,0,0
29509,-100,4,2,4,60,0,0
29727,-100,4,2,1,60,0,0
34727,-100,4,2,4,60,0,0
34944,-100,4,2,1,60,0,0
38205,-100,4,2,4,60,0,0
38422,-100,4,2,1,60,0,0
39944,-100,4,2,4,60,0,0
40162,-100,4,2,1,60,0,0
40814,-100,4,2,4,60,0,0
41031,-100,4,2,1,60,0,0
43422,-100,4,2,4,60,0,0
43640,-100,4,2,1,60,0,0
44292,-100,4,3,0,60,0,0
44727,-100,4,2,3,60,0,0
48640,-100,4,2,5,60,0,0
48857,-100,4,2,3,60,0,0
50379,-100,4,2,5,60,0,0
50596,-100,4,2,3,60,0,0
50814,-100,4,2,5,60,0,0
51031,-100,4,2,3,60,0,0
52118,-100,4,2,5,60,0,0
52335,-100,4,2,3,60,0,0
53857,-100,4,2,5,60,0,0
54075,-100,4,2,3,60,0,0
54292,-100,4,2,5,60,0,0
54509,-100,4,2,3,60,0,0
55596,-100,4,2,5,60,0,0
55814,-100,4,2,3,60,0,0
56031,-100,4,2,5,60,0,0
56248,-100,4,2,3,60,0,0
58640,-100,4,2,1,60,0,0
69509,-100,4,2,4,60,0,0
69727,-100,4,2,1,60,0,0
70814,-100,4,3,0,60,0,0
71031,-100,4,2,1,60,0,0
90379,-100,4,2,4,60,0,0
90596,-100,4,2,1,60,0,0
93205,-100,4,2,1,10,0,0
93857,-100,4,2,3,30,0,0
95162,-100,4,2,1,70,0,1
98205,-100,4,2,4,70,0,1
98422,-100,4,2,1,70,0,1
99075,-100,4,2,4,70,0,1
99292,-100,4,2,1,70,0,1
107770,-100,4,2,4,70,0,1
107988,-100,4,2,1,70,0,1
109075,-100,4,2,1,70,0,0
109509,-100,4,2,1,70,0,1
110379,-100,4,3,0,70,0,1
110596,-100,4,2,1,70,0,1
113857,-100,4,2,4,70,0,1
114075,-100,4,2,1,70,0,1
114727,-100,4,2,4,70,0,1
114944,-100,4,2,1,70,0,1
122988,-100,4,2,1,60,0,0
136901,-100,4,2,3,40,0,0
137335,-100,4,2,3,10,0,0
137553,-100,4,2,3,40,0,0
139075,-100,4,2,3,10,0,0
139292,-100,4,2,3,40,0,0
144292,-100,4,2,3,30,0,0
149944,-100,4,2,1,20,0,0
150379,-100,4,2,1,10,0,0

[Colours]
Combo1 : 98,98,255
Combo2 : 0,128,255
Combo3 : 162,162,255
Combo4 : 0,64,128

[HitObjects]
184,128,2988,2,0,P|260:108|336:132,1,150.000005722046,4|0,0:0|0:0,0:0:0:0:
328,276,4727,2,0,P|260:294|184:276,1,150.000005722046,2|0,0:0|0:0,0:0:0:0:
256,144,6466,6,0,P|272:72|336:36,1,150.000005722046,2|0,0:0|0:0,0:0:0:0:
416,160,8205,2,0,P|400:232|336:268,1,150.000005722046,2|0,0:0|0:0,0:0:0:0:
192,232,9944,6,0,B|88:232|88:232|44:196,1,150.000005722046,2|8,0:0|0:0,0:0:0:0:
59,128,11248,1,8,0:0:0:0:
119,83,11683,6,0,B|223:83|223:83|258:112,1,150.000005722046,10|8,0:0|0:0,0:0:0:0:
272,186,12988,1,8,0:0:0:0:
262,260,13422,6,0,B|238:292|196:292|196:292|158:316|126:305,1,150.000005722046,10|8,0:0|0:0,0:0:0:0:
99,234,14727,1,8,0:0:0:0:
123,162,15162,6,0,B|145:129|188:127|188:127|226:105|264:118,1,150.000005722046,10|2,0:0|0:0,0:0:0:0:
301,177,16466,1,2,0:0:0:0:
348,234,16901,6,0,P|404:246|452:230,2,100,4|8|0,0:0|0:0|0:0,0:0:0:0:
256,192,18205,1,8,0:0:0:0:
164,234,18640,2,0,P|108:246|60:230,2,100,4|8|0,0:0|0:0|0:0,0:0:0:0:
256,192,19944,1,8,0:0:0:0:
167,144,20379,6,0,P|133:90|141:44,1,100,0|8,0:0|0:0,0:0:0:0:
234,72,21248,2,0,P|302:72|334:92,1,100,0|8,0:0|0:0,0:0:0:0:
265,165,22118,2,0,B|273:257|213:309|97:297|77:189,1,300,0|8,0:0|0:0,0:0:0:0:
174,182,23857,6,0,P|178:122|209:91,1,100,4|8,0:0|0:0,0:0:0:0:
300,118,24727,1,0,0:0:0:0:
356,38,25162,2,0,P|404:41|440:74,2,100,8|0|8,0:0|0:0|0:0,0:0:0:0:
365,137,26466,6,0,P|357:185|325:229,1,100,0|8,0:0|0:0,0:0:0:0:
257,153,27335,2,0,P|229:205|229:265,1,100,0|8,0:0|0:0,0:0:0:0:
265,337,28205,2,0,P|205:341|161:318,1,100,0|8,0:0|0:0,0:0:0:0:
93,260,29075,2,0,B|89:164|1:132,2,150,0|0|8,0:0|0:0|0:0,0:0:0:0:
179,310,30814,6,0,B|202:263|263:262,1,100,4|8,0:0|0:0,0:0:0:0:
360,264,31683,2,0,B|418:264|441:311,2,100,0|8|0,0:0|0:0|0:0,0:0:0:0:
299,186,32988,2,0,P|279:98|171:70,1,200,8|8,0:0|0:0,0:0:0:0:
195,166,34292,6,0,P|115:142|87:34,1,200
183,66,35596,2,0,P|271:66|395:-2,2,200,8|8|8,0:0|0:0|0:0,0:0:0:0:
171,166,37770,6,0,B|247:166|247:166|303:166|335:198|327:246,1,200,4|0,0:0|0:0,0:0:0:0:
231,270,39075,1,8,0:0:0:0:
135,297,39509,2,0,B|127:337|159:369|215:369|215:369|291:369,2,200
59,230,41683,6,0,B|103:186|167:202|167:202|219:114,1,200,8|8,0:0|0:0,0:0:0:0:
123,78,42988,2,0,P|207:32|267:50,2,150,0|0|8,0:0|0:0|0:0,0:0:0:0:
88,172,44727,6,0,P|76:216|92:280,2,100,4|8|8,0:0|0:0|0:0,0:0:0:0:
176,220,46031,2,0,P|224:228|284:216,1,100,8|8,0:0|0:0,0:0:0:0:
368,248,46901,2,0,P|344:290|283:311,2,100,8|8|8,0:0|0:0|0:0,0:0:0:0:
420,332,48205,6,8,P|460:264|408:156,1,200,8|8,0:0|0:0,0:0:0:0:
314,157,49509,1,8,0:0:0:0:
368,73,49944,2,0,P|290:60|225:117,2,150,8|0|8,0:0|0:0|0:0,0:0:0:0:
421,157,51683,6,8,P|386:238|282:258,1,200,4|8,0:0|0:0,0:0:0:0:
195,212,52988,1,8,0:0:0:0:
144,124,53422,2,8,B|68:124|68:124|-12:164,2,150,8|0|8,0:0|0:0|0:0,0:0:0:0:
240,156,55162,6,8,B|316:156|316:156|396:116,2,150,8|0|8,0:0|0:0|0:0,0:0:0:0:
140,156,56901,2,8,P|148:108|244:60,1,150,8|4,0:0|0:0,0:0:0:0:
328,60,57988,1,4,0:0:0:0:
239,182,58640,5,4,0:0:0:0:
175,258,59075,1,8,0:0:0:0:
239,334,59509,1,0,0:0:0:0:
336,340,59944,2,0,P|380:268|312:160,2,200,8|8|8,0:0|0:0|0:0,0:0:0:0:
284,256,62118,6,0,L|156:256,1,100,0|8,0:0|0:0,0:0:0:0:
136,168,62988,2,0,L|260:168,1,100,0|8,0:0|0:0,0:0:0:0:
284,80,63857,2,0,L|176:80,1,100,0|8,0:0|0:0,0:0:0:0:
83,85,64727,2,0,P|42:133|46:199,1,100,0|8,0:0|0:0,0:0:0:0:
136,168,65596,5,4,0:0:0:0:
235,182,66031,2,0,P|283:150|299:102,1,100,8|0,0:0|0:0,0:0:0:0:
395,142,66901,2,0,P|385:190|405:235,1,100,8|0,0:0|0:0,0:0:0:0:
335,306,67770,2,0,P|285:276|235:281,2,100,8|0|8,0:0|0:0|0:0,0:0:0:0:
393,224,69075,6,0,P|323:184|244:182,2,150,0|0|8,0:0|0:0|0:0,0:0:0:0:
336,306,70814,2,0,P|277:337|181:300,1,150,8|4,0:0|0:0,0:0:0:0:
261,239,71901,1,4,0:0:0:0:
336,112,72553,6,0,P|388:140|448:140,2,100,4|8|0,0:0|0:0|0:0,0:0:0:0:
256,52,73857,1,8,0:0:0:0:
176,112,74292,2,0,P|124:140|64:140,2,100,0|8|0,0:0|0:0|0:0,0:0:0:0:
256,176,75596,1,8,0:0:0:0:
208,264,76031,6,0,P|257:279|308:260,1,100,4|8,0:0|0:0,0:0:0:0:
256,192,76683,12,0,78640,0:0:0:0:
256,136,79509,6,0,L|256:32,2,100,4|8|0,0:0|0:0|0:0,0:0:0:0:
172,192,80814,1,8,0:0:0:0:
256,244,81248,2,0,L|256:344,2,100,0|8|0,0:0|0:0|0:0,0:0:0:0:
340,192,82553,1,8,0:0:0:0:
428,144,82988,6,0,B|445:191|445:191|428:240,1,100,4|8,0:0|0:0,0:0:0:0:
256,192,83640,12,0,85596,0:0:0:0:
170,255,86466,6,0,P|174:202|206:170,1,100,4|8,0:0|0:0,0:0:0:0:
298,137,87335,1,0,0:0:0:0:
391,102,87770,2,0,P|424:66|426:17,2,100,8|0|8,0:0|0:0|0:0,0:0:0:0:
298,137,89075,1,0,0:0:0:0:
371,203,89509,5,8,0:0:0:0:
292,264,89944,2,0,B|264:300|184:300|156:264,2,150,0|0|8,0:0|0:0|0:0,0:0:0:0:
224,188,91683,6,0,B|212:128|272:96,1,100,4|8,0:0|0:0,0:0:0:0:
308,88,92335,2,0,P|384:116|404:224,1,200,4|0,0:0|0:0,0:0:0:0:
256,192,93857,5,2,0:0:0:0:
306,278,94292,1,2,0:0:0:0:
206,278,94727,1,2,0:0:0:0:
256,192,95162,6,0,P|306:178|384:212,2,100,4|8|0,0:0|0:0|0:0,0:0:0:0:
164,232,96466,2,0,P|116:244|64:232,2,100,8|0|8,0:0|0:0|0:0,0:0:0:0:
116,144,97770,2,0,B|204:116|252:180|252:180|304:176,2,200
164,232,99944,1,8,0:0:0:0:
252,276,100379,2,0,L|372:264,2,100,0|8|0,0:0|0:0|0:0,0:0:0:0:
172,336,101683,1,8,0:0:0:0:
84,288,102118,6,0,P|128:244|176:232,1,100,4|8,0:0|0:0,0:0:0:0:
113,145,102988,2,0,P|169:133|231:157,2,100,0|8|0,0:0|0:0|0:0,0:0:0:0:
162,232,104292,1,8,0:0:0:0:
252,276,104727,1,0,0:0:0:0:
340,232,105162,1,8,0:0:0:0:
388,144,105596,6,0,P|332:132|272:157,2,100,0|8|0,0:0|0:0|0:0,0:0:0:0:
439,230,106901,1,8,0:0:0:0:
392,320,107335,2,0,B|344:348|344:348|248:348,2,150,0|0|8,0:0|0:0|0:0,0:0:0:0:
328,244,109075,6,0,L|216:244,2,100,0|4|0,0:0|0:0|0:0,0:0:0:0:
380,160,110379,2,0,L|280:160,1,100,8|4,0:0|0:0,0:0:0:0:
260,60,111248,2,0,P|204:84|180:132,1,100,8|0,0:0|0:0,0:0:0:0:
180,216,112118,2,0,P|159:247|103:271,2,100,8|0|8,0:0|0:0|0:0,0:0:0:0:
92,168,113422,6,0,P|24:208|20:328,2,200
160,240,115596,1,8,0:0:0:0:
240,180,116031,6,0,P|276:152|332:144,1,100,4|8,0:0|0:0,0:0:0:0:
320,244,116901,2,0,P|364:292|424:312,2,100,0|8|0,0:0|0:0|0:0,0:0:0:0:
324,144,118205,6,0,B|284:112|168:176|128:144,2,200,8|8|8,0:0|0:0|0:0,0:0:0:0:
396,216,120379,1,0,0:0:0:0:
380,316,120814,1,8,0:0:0:0:
288,352,121248,6,0,P|215:359|175:343,1,100,0|8,0:0|0:0,0:0:0:0:
144,332,121901,2,0,P|84:264|136:116,1,250,0|4,0:0|0:0,0:0:0:0:
231,195,129944,6,0,P|279:195|335:219,1,100,4|8,0:0|0:0,0:0:0:0:
343,311,130814,2,0,P|435:295|455:267,1,100,0|8,0:0|0:0,0:0:0:0:
423,195,131683,2,0,P|423:119|451:79,1,100,0|8,0:0|0:0,0:0:0:0:
339,67,132553,2,0,P|291:135|255:147,2,100,0|8|0,0:0|0:0|0:0,0:0:0:0:
243,47,133857,6,0,P|191:99|223:223,1,200,8|8,0:0|0:0,0:0:0:0:
124,260,135162,2,0,P|188:312|220:316,1,100,0|8,0:0|0:0,0:0:0:0:
302,316,136031,2,0,P|316:312|380:260,1,100,4|8,0:0|0:0,0:0:0:0:
436,175,136901,6,0,P|475:215|480:271,2,100,2|0|2,0:0|0:0|0:0,0:0:0:0:
339,147,138205,1,0,0:0:0:0:
243,175,138640,2,0,P|204:215|203:275,2,100,2|0|2,0:0|0:0|0:0,0:0:0:0:
319,238,139944,2,0,P|314:305|361:346,1,100,0|2,0:0|0:0,0:0:0:0:
411,268,140814,6,0,B|459:228|499:172|457:94|400:158,1,200
308,150,142118,2,0,B|260:95|213:168|253:224|301:264,2,200,2|0|2,0:0|0:0|0:0,0:0:0:0:
286,52,144292,6,0,P|234:58|195:88,1,100,0|2,0:0|0:0,0:0:0:0:
153,176,145162,1,0,0:0:0:0:
195,266,145596,2,0,P|232:293|284:299,2,100,2|0|2,0:0|0:0|0:0,0:0:0:0:
153,176,146901,1,0,0:0:0:0:
177,81,147335,6,0,P|266:55|372:82,1,200,2|2,0:0|0:0,0:0:0:0:
329,172,148640,1,0,0:0:0:0:
282,260,149075,2,0,P|374:264|410:240,1,100,2|0,0:0|0:0,0:0:0:0:
426,244,149727,2,0,P|442:123|337:52,1,250,2|0,0:0|0:0,0:0:0:0:
