osu file format v12

[General]
AudioFilename: mp3.mp3
AudioLeadIn: 1000
PreviewTime: 93857
Countdown: 0
SampleSet: Soft
StackLeniency: 0.7
Mode: 0
LetterboxInBreaks: 0
WidescreenStoryboard: 0

[Editor]
DistanceSpacing: 0.7
BeatDivisor: 4
GridSize: 4

[Metadata]
Title:Call to me, Call for you
TitleUnicode:Call to me, Call for you
Artist:Satou Hiromi
ArtistUnicode:佐藤ひろ美
Creator:-Gamu-
Version:Insane
Source:LOVELYxCATION2
Tags:hibiki works game visual novel opening hentai eroge umi -umi- guy iyasine
BeatmapID:264218
BeatmapSetID:99312

[Difficulty]
HPDrainRate:7
CircleSize:4
OverallDifficulty:8
ApproachRate:8
SliderMultiplier:1.8
SliderTickRate:1

[Events]
//Background and Video events
0,0,"Hime.jpg",0,0
Video,0,"video.avi"
//Break Periods
//Storyboard Layer 0 (Background)
//Storyboard Layer 1 (Fail)
//Storyboard Layer 2 (Pass)
//Storyboard Layer 3 (Foreground)
//Storyboard Sound Samples
//Background Colour Transformations
3,100,163,162,255

[TimingPoints]
1249,434.782608695652,4,2,3,30,1,0
1683,-133.333333333333,4,2,3,30,0,0
2118,-133.333333333333,4,2,3,40,0,0
2553,-133.333333333333,4,2,3,50,0,0
2988,-133.333333333333,4,2,3,70,0,0
3205,-133.333333333333,4,2,3,40,0,0
9944,-133.333333333333,4,2,3,45,0,0
10814,-133.333333333333,4,2,5,45,0,0
11031,-133.333333333333,4,2,3,45,0,0
11683,-133.333333333333,4,2,3,50,0,0
12988,-133.333333333333,4,2,2,50,0,0
13096,-133.333333333333,4,2,3,50,0,0
13422,-133.333333333333,4,2,3,55,0,0
13857,-133.333333333333,4,2,2,55,0,0
13966,-133.333333333333,4,2,3,55,0,0
14727,-133.333333333333,4,2,2,55,0,0
14835,-133.333333333333,4,2,3,55,0,0
15162,-133.333333333333,4,2,3,60,0,0
15379,-133.333333333333,4,2,3,65,0,0
15596,-133.333333333333,4,2,2,70,0,0
15814,-133.333333333333,4,2,2,65,0,0
15922,-133.333333333333,4,2,1,65,0,0
16901,-100,4,2,1,70,0,0
17335,-100,4,2,4,70,0,0
17444,-100,4,2,1,70,0,0
19075,-100,4,2,4,70,0,0
19292,-100,4,2,1,70,0,0
24292,-100,4,2,4,70,0,0
24509,-100,4,2,1,70,0,0
26031,-100,4,2,4,70,0,0
26248,-100,4,2,1,70,0,0
36901,-100,4,2,1,75,0,0
37335,-100,4,2,1,80,0,0
37770,-100,4,2,1,70,0,0
39944,-100,4,2,4,70,0,0
40162,-100,4,2,1,70,0,0
44727,-100,4,2,3,60,0,0
45596,-100,4,2,5,60,0,0
45814,-100,4,2,3,60,0,0
52553,-100,4,2,5,60,0,0
52770,-100,4,2,3,60,0,0
53857,-100,4,2,5,60,0,0
54075,-100,4,2,3,60,0,0
56031,-100,4,2,5,60,0,0
56248,-100,4,2,3,60,0,0
58640,-100,4,2,1,60,0,0
70814,-100,4,2,3,60,0,0
71248,-100,4,2,1,60,0,0
72988,-100,4,2,4,60,0,0
73205,-100,4,2,1,60,0,0
92770,-100,4,2,3,60,0,0
93422,-100,4,2,3,40,0,0
93857,-200,4,2,1,40,0,0
94292,-133.333333333333,4,2,1,50,0,0
94727,-133.333333333333,4,2,1,60,0,0
95162,-100,4,2,1,80,0,1
106901,-100,4,2,4,80,0,1
107118,-100,4,2,1,80,0,1
107770,-100,4,2,4,80,0,1
107988,-100,4,2,1,80,0,1
108422,-100,4,2,3,80,0,1
109075,-200,4,2,3,80,0,0
109509,-100,4,2,3,80,0,1
110814,-100,4,2,1,80,0,1
122988,-100,4,2,1,70,0,0
123422,-100,4,2,4,70,0,0
123640,-100,4,2,1,70,0,0
136901,-133.333333333333,4,2,1,50,0,0
149727,-200,4,2,1,50,0,0
150379,-200,4,2,1,40,0,0
150596,-200,4,2,1,30,0,0
150705,-200,4,2,1,20,0,0
150814,-200,4,2,1,10,0,0

[Colours]
Combo1 : 98,98,255
Combo2 : 0,128,255
Combo3 : 162,162,255
Combo4 : 0,64,128

[HitObjects]
144,216,1683,6,0,P|192:184|208:136,1,101.250003862381
124,136,2118,6,2,P|76:166|61:209,1,101.250003862381,0|0,0:0|0:0,0:0:0:0:
100,284,2553,6,2,P|148:296|195:278,1,101.250003862381,0|0,0:0|0:0,0:0:0:0:
232,200,2988,5,4,0:3:0:0:
248,184,3314,6,0,P|280:176|313:182,1,67.5000025749208
340,204,3640,2,0,P|356:136|412:104,1,135.000005149842
296,76,4292,1,0,0:0:0:0:
216,80,4509,6,0,L|144:96,1,67.5000025749208,0|2,0:0|0:0,0:0:0:0:
80,136,4944,2,0,P|64:200|104:256,1,135.000005149842
252,312,5814,2,0,P|276:288|284:256,1,67.5000025749208
272,176,6248,1,0,0:0:0:0:
252,96,6466,6,0,P|292:95|324:112,1,67.5000025749208,2|0,0:0|0:0,0:0:0:0:
272,176,6901,1,0,0:0:0:0:
224,24,7118,2,0,P|288:16|356:40,1,135.000005149842
396,108,7770,1,0,0:0:0:0:
436,180,7988,1,0,0:0:0:0:
484,248,8205,6,0,B|468:304|412:313|412:313|388:344,2,135.000005149842,2|0|0,0:0|0:0|0:0,0:0:0:0:
404,232,9292,1,0,0:0:0:0:
224,192,9509,1,0,0:0:0:0:
272,352,9727,1,0,0:0:0:0:
320,184,9944,6,0,P|288:120|232:96,1,135.000005149842,2|8,0:0|0:0,0:0:0:0:
136,128,10596,2,0,P|68:144|16:112,1,135.000005149842
84,64,11248,1,8,0:0:0:0:
84,64,11466,1,0,0:0:0:0:
88,216,11683,6,0,P|100:252|96:296,1,67.5000025749208,10|0,0:0|0:0,0:0:0:0:
84,312,12009,2,0,L|44:320,1,33.7500012874604,0|8,0:0|0:0,0:0:0:0:
200,288,12335,2,0,P|236:284|272:296,1,67.5000025749208,0|8,0:0|0:0,0:0:0:0:
440,352,12770,2,0,P|404:356|368:344,2,67.5000025749208,0|8|0,0:0|0:0|0:0,0:0:0:0:
496,240,13422,5,8,0:0:0:0:
452,156,13640,1,0,0:0:0:0:
384,92,13857,1,8,0:0:0:0:
292,112,14075,2,0,P|256:116|220:112,1,67.5000025749208,0|8,0:0|0:0,0:0:0:0:
100,248,14509,2,0,P|96:212|100:176,1,67.5000025749208,0|8,0:0|0:0,0:0:0:0:
132,92,14944,5,0,0:0:0:0:
132,92,15053,1,0,0:0:0:0:
132,92,15162,1,8,0:0:0:0:
324,28,15379,1,8,0:0:0:0:
436,168,15596,1,8,0:0:0:0:
244,104,15813,1,8,0:0:0:0:
56,52,16031,6,2,P|48:104|68:148,1,101.250003862381,2|0,0:0|0:0,0:0:0:0:
152,264,16466,6,2,P|160:212|140:165,1,101.250003862381,2|0,0:0|0:0,0:0:0:0:
72,224,16901,6,0,L|206:208,2,135,4|0|0,0:0|0:0|0:0,0:0:0:0:
228,124,17770,2,0,P|268:144|290:190,1,90,2|0,0:0|0:0,0:0:0:0:
268,268,18205,1,8,0:0:0:0:
80,308,18422,1,0,0:0:0:0:
352,244,18640,6,0,P|408:272|444:336,2,135,2|0|0,0:0|0:0|0:0,0:0:0:0:
184,248,19509,2,0,P|204:208|252:184,1,90,2|0,0:0|0:0,0:0:0:0:
328,156,19944,1,8,0:0:0:0:
352,136,20053,1,0,0:0:0:0:
368,108,20162,1,0,0:0:0:0:
376,76,20270,1,0,0:0:0:0:
368,44,20379,1,2,0:0:0:0:
368,44,20814,6,0,P|320:40|276:52,1,90,8|0,0:0|0:0,0:0:0:0:
220,116,21248,2,0,P|140:156|56:128,1,180,2|8,0:0|0:0,0:0:0:0:
44,40,21901,1,0,0:0:0:0:
136,80,22118,6,0,B|124:136|124:136|156:192|136:260,1,180,2|8,0:0|0:0,0:0:0:0:
228,296,22770,1,0,0:0:0:0:
120,344,22988,1,0,0:0:0:0:
256,184,23205,1,2,0:0:0:0:
336,336,23422,1,8,0:0:0:0:
428,188,23639,1,8,0:0:0:0:
396,180,23748,1,8,0:0:0:0:
364,188,23857,6,0,P|324:208|276:204,1,90,4|0,0:0|0:0,0:0:0:0:
256,184,24183,2,0,P|204:220|224:280,1,135
288,336,24727,2,0,P|330:331|373:312,1,90,2|0,0:0|0:0,0:0:0:0:
504,168,25162,1,8,0:0:0:0:
376,68,25379,1,0,0:0:0:0:
224,108,25596,6,0,P|187:136|174:178,1,90,2|0,0:0|0:0,0:0:0:0:
180,208,25922,2,0,P|144:260|84:240,1,135
256,184,26466,2,0,L|280:272,1,90
364,304,26901,1,8,0:0:0:0:
392,320,27009,1,0,0:0:0:0:
424,316,27118,1,0,0:0:0:0:
448,296,27227,1,0,0:0:0:0:
460,268,27335,6,0,P|460:216|440:184,1,90,2|0,0:0|0:0,0:0:0:0:
504,120,27770,2,0,P|471:89|423:78,1,90,8|0,0:0|0:0,0:0:0:0:
200,192,28205,2,0,P|233:223|281:234,1,90,0|0,0:0|0:0,0:0:0:0:
352,184,28640,2,0,L|336:92,1,90,8|0,0:0|0:0,0:0:0:0:
320,68,28966,1,0,0:0:0:0:
296,48,29075,6,0,P|212:76|124:60,1,180,2|8,0:0|0:0,0:0:0:0:
36,32,29727,2,0,P|32:80|52:116,1,90,0|4,0:0|0:0,0:0:0:0:
112,182,30162,1,0,0:0:0:0:
112,182,30270,1,0,0:0:0:0:
112,182,30379,2,0,P|160:178|200:192,1,90,8|8,0:0|0:0,0:0:0:0:
256,280,30814,5,4,0:0:0:0:
476,184,31140,1,0,0:0:0:0:
404,320,31466,1,0,0:0:0:0:
332,264,31683,2,0,P|368:232|416:232,1,90,2|0,0:0|0:0,0:0:0:0:
484,276,32118,1,8,0:0:0:0:
276,192,32335,1,0,0:0:0:0:
256,104,32553,5,2,0:0:0:0:
36,200,32879,1,0,0:0:0:0:
108,64,33205,1,0,0:0:0:0:
180,120,33422,2,0,P|144:152|96:152,1,90,2|0,0:0|0:0,0:0:0:0:
28,108,33857,1,8,0:0:0:0:
60,72,33966,1,0,0:0:0:0:
108,64,34075,1,0,0:0:0:0:
156,76,34183,1,0,0:0:0:0:
180,120,34292,6,0,P|220:140|272:136,1,90,2|0,0:0|0:0,0:0:0:0:
328,76,34727,2,0,B|388:64|440:104|440:104|432:140|452:160,1,180,8|2,0:0|0:0,0:0:0:0:
416,308,35379,1,0,0:0:0:0:
348,172,35596,1,8,0:0:0:0:
196,192,35814,1,0,0:0:0:0:
268,260,36031,6,0,P|184:292|108:240,1,180,2|8,0:0|0:0,0:0:0:0:
72,68,36683,1,0,0:0:0:0:
168,19,36901,1,2,0:0:0:0:
245,95,37118,1,0,0:0:0:0:
196,192,37335,1,8,0:0:0:0:
90,175,37553,1,8,0:0:0:0:
68,320,37770,6,0,P|132:336|192:304,1,135,4|0,0:0|0:0,0:0:0:0:
220,292,38205,2,0,P|252:328|296:336,1,90,8|0,0:0|0:0,0:0:0:0:
372,132,38640,2,0,P|336:164|326:205,1,90,2|0,0:0|0:0,0:0:0:0:
424,216,39075,1,8,0:0:0:0:
256,168,39292,1,0,0:0:0:0:
88,216,39509,6,0,P|144:176|152:112,2,135,2|0|0,0:0|0:0|0:0,0:0:0:0:
0,96,40379,2,0,L|79:139,1,90,2|0,0:0|0:0,0:0:0:0:
220,204,40814,1,8,0:0:0:0:
252,200,40922,1,0,0:0:0:0:
284,208,41031,1,0,0:0:0:0:
312,224,41140,1,0,0:0:0:0:
332,248,41248,2,0,P|344:292|340:344,1,90,2|0,0:0|0:0,0:0:0:0:
332,248,41683,6,0,P|376:252|424:236,1,90,8|0,0:0|0:0,0:0:0:0:
440,216,42009,2,0,L|428:172,1,45,0|2,0:0|0:0,0:0:0:0:
396,88,42335,1,0,0:0:0:0:
312,52,42553,1,8,0:0:0:0:
224,64,42770,1,0,0:0:0:0:
156,124,42988,6,0,P|132:204|40:232,1,180,2|8,0:0|0:0,0:0:0:0:
72,148,43640,2,0,P|69:103|101:58,1,90,2|4,0:0|0:0,0:0:0:0:
268,108,44075,1,0,0:0:0:0:
268,108,44183,1,8,0:0:0:0:
268,108,44292,1,8,0:0:0:0:
304,192,44509,1,8,0:0:0:0:
424,64,44727,5,4,0:0:0:0:
392,148,44944,2,0,P|392:196|408:240,1,90,0|8,0:0|0:0,0:0:0:0:
328,284,45379,1,0,0:0:0:0:
328,284,45488,2,0,P|256:280|208:324,1,135,0|0,0:0|0:0,0:0:0:0:
124,348,46031,1,8,0:0:0:0:
32,280,46248,1,0,0:0:0:0:
16,164,46466,6,0,P|28:120|64:88,1,90,8|0,0:0|0:0,0:0:0:0:
92,84,46792,2,0,L|132:112,1,45,0|8,0:0|0:0,0:0:0:0:
212,148,47118,2,0,P|256:156|300:148,1,90,0|8,0:0|0:0,0:0:0:0:
316,236,47553,2,0,P|352:210|378:173,2,90,0|8|0,0:0|0:0|0:0,0:0:0:0:
144,184,48205,6,0,B|184:240|244:216|244:216|236:248|256:284,1,180,8|8,0:0|0:0,0:0:0:0:
360,104,48857,1,0,0:0:0:0:
208,144,49075,2,0,B|238:126|270:134|270:134|256:64|304:28,1,180,8|8,0:0|0:0,0:0:0:0:
316,236,49727,1,0,0:0:0:0:
483,281,49944,5,8,0:0:0:0:
317,236,50162,1,0,0:0:0:0:
477,172,50379,1,8,0:0:0:0:
383,321,50596,1,0,0:0:0:0:
376,148,50814,1,8,0:0:0:0:
376,148,50922,1,0,0:0:0:0:
375,147,51031,1,0,0:0:0:0:
224,68,51248,1,8,0:0:0:0:
136,216,51466,1,0,0:0:0:0:
136,216,51574,1,0,0:0:0:0:
136,216,51683,5,4,0:0:0:0:
204,152,51901,1,0,0:0:0:0:
224,240,52118,1,8,0:0:0:0:
296,292,52335,1,0,0:0:0:0:
296,292,52444,2,0,P|232:324|172:312,1,135
164,176,52988,2,0,P|204:152|247:156,1,90,8|0,0:0|0:0,0:0:0:0:
332,216,53422,6,0,P|364:246|380:291,1,90,8|0,0:0|0:0,0:0:0:0:
372,320,53748,2,0,P|420:308|448:272,1,90
452,248,54075,2,0,P|442:199|463:158,1,90,0|8,0:0|0:0,0:0:0:0:
504,84,54509,1,0,0:0:0:0:
236,20,54727,1,8,0:0:0:0:
356,120,54944,1,0,0:0:0:0:
255,112,55162,6,0,P|215:188|254:266,1,180,8|8,0:0|0:0,0:0:0:0:
452,248,55814,2,0,P|380:192|294:190,1,180
172,308,56466,1,8,0:0:0:0:
256,340,56683,1,0,0:0:0:0:
288,344,56792,1,0,0:0:0:0:
316,332,56901,5,8,0:0:0:0:
452,248,57118,1,0,0:0:0:0:
400,128,57335,1,8,0:0:0:0:
264,212,57552,1,4,0:0:0:0:
232,236,57988,6,0,P|188:240|152:216,1,90,4|0,0:0|0:0,0:0:0:0:
136,188,58314,1,8,0:0:0:0:
132,156,58422,1,8,0:0:0:0:
136,124,58531,1,8,0:0:0:0:
156,100,58640,6,0,P|196:80|248:88,1,90,4|0,0:0|0:0,0:0:0:0:
316,136,59075,1,8,0:0:0:0:
364,212,59292,1,0,0:0:0:0:
364,212,59401,2,0,P|295:235|261:286,1,135
352,304,59944,1,8,0:0:0:0:
480,252,60162,1,0,0:0:0:0:
492,224,60270,1,0,0:0:0:0:
480,196,60379,6,0,P|452:132|476:72,1,135,2|0,0:0|0:0,0:0:0:0:
496,52,60814,1,8,0:0:0:0:
380,104,61031,2,0,P|336:124|284:120,1,90
212,84,61466,1,0,0:0:0:0:
124,60,61683,1,8,0:0:0:0:
44,100,61901,1,0,0:0:0:0:
32,128,62009,1,0,0:0:0:0:
44,156,62118,6,0,P|94:208|72:305,2,180,2|8|0,0:0|0:0|0:0,0:0:0:0:
8,240,63205,1,0,0:0:0:0:
160,152,63422,1,8,0:0:0:0:
268,296,63640,1,0,0:0:0:0:
370,148,63858,5,2,0:0:0:0:
229,214,64075,1,0,0:0:0:0:
408,230,64292,1,8,0:0:0:0:
281,140,64510,1,0,0:0:0:0:
356,304,64727,1,0,0:0:0:0:
196,136,64944,1,0,0:0:0:0:
192,284,65161,1,8,0:0:0:0:
320,220,65379,1,8,0:0:0:0:
320,220,65488,1,8,0:0:0:0:
320,220,65596,5,4,0:0:0:0:
281,140,65814,2,0,P|248:172|231:214,1,90,0|8,0:0|0:0,0:0:0:0:
276,292,66248,1,0,0:0:0:0:
276,292,66357,2,0,P|340:300|395:258,1,135
416,172,66901,1,8,0:0:0:0:
364,100,67118,1,0,0:0:0:0:
116,88,67335,6,0,P|87:121|80:168,2,90,2|0|8,0:0|0:0|0:0,0:0:0:0:
192,172,67988,2,0,P|237:188|285:189,1,90
500,196,68422,2,0,P|496:148|472:104,1,90,0|8,0:0|0:0,0:0:0:0:
364,100,68857,1,0,0:0:0:0:
272,168,69075,6,0,B|264:224|296:268|296:268|252:284|236:324,1,180,2|8,0:0|0:0,0:0:0:0:
128,312,69727,1,0,0:0:0:0:
100,296,69835,1,0,0:0:0:0:
72,280,69944,2,0,P|81:184|120:199,1,180,0|8,0:0|0:0,0:0:0:0:
316,348,70596,1,8,0:0:0:0:
348,352,70705,1,8,0:0:0:0:
380,344,70814,5,8,0:0:0:0:
452,252,71031,1,8,0:0:0:0:
452,132,71248,1,8,0:0:0:0:
380,40,71466,2,0,P|336:36|304:68,1,90,4|0,0:0|0:0,0:0:0:0:
320,256,71901,2,0,P|324:212|292:180,1,90,4|0,0:0|0:0,0:0:0:0:
264,168,72227,1,8,0:0:0:0:
232,164,72335,1,8,0:0:0:0:
200,168,72444,1,8,0:0:0:0:
172,180,72553,6,0,P|144:216|144:264,1,90,4|0,0:0|0:0,0:0:0:0:
156,288,72879,2,0,L|248:272,1,90
276,268,73205,2,0,P|304:304|304:352,1,90,0|0,0:0|0:0,0:0:0:0:
56,336,73640,1,0,0:0:0:0:
20,256,73857,1,8,0:0:0:0:
40,168,74075,1,0,0:0:0:0:
136,68,74292,6,0,P|168:96|216:92,1,90
240,76,74618,2,0,L|276:120,1,45,0|8,0:0|0:0,0:0:0:0:
352,240,74944,2,0,P|309:237|278:200,1,90
352,152,75379,1,0,0:0:0:0:
380,320,75596,1,8,0:0:0:0:
216,264,75814,1,0,0:0:0:0:
324,72,76031,6,0,P|372:72|432:176,1,180,4|8,0:0|0:0,0:0:0:0:
380,320,76683,2,0,P|353:284|345:240,1,90
188,52,77118,6,0,P|159:85|146:132,1,90,0|8,0:0|0:0,0:0:0:0:
152,160,77444,1,0,0:0:0:0:
164,188,77553,1,0,0:0:0:0:
324,192,77770,6,0,P|290:163|243:150,1,90
216,156,78096,1,0,0:0:0:0:
188,168,78205,1,8,0:0:0:0:
164,188,78314,1,0,0:0:0:0:
152,216,78422,1,0,0:0:0:0:
152,248,78531,1,0,0:0:0:0:
164,276,78640,2,0,P|199:302|244:316,1,90
356,264,79075,1,8,0:0:0:0:
232,236,79292,1,0,0:0:0:0:
40,256,79509,5,4,0:0:0:0:
196,360,79835,2,0,P|220:352|240:336,1,45,0|8,0:0|0:0,0:0:0:0:
296,272,80162,2,0,P|304:224|280:180,1,90
232,120,80596,2,0,P|184:112|136:128,2,90,0|8|0,0:0|0:0|0:0,0:0:0:0:
404,316,81248,5,0,0:0:0:0:
388,84,81575,2,0,L|340:68,1,45,0|8,0:0|0:0,0:0:0:0:
260,40,81901,2,0,P|192:48|148:100,1,135
140,124,82335,2,0,L|48:144,2,90,0|8|8,0:0|0:0|0:0,0:0:0:0:
160,148,82879,1,8,0:0:0:0:
172,176,82988,6,0,P|176:224|160:264,1,90,4|0,0:0|0:0,0:0:0:0:
76,288,83422,1,8,0:0:0:0:
164,276,83640,2,0,L|252:304,1,90
492,320,84075,2,0,L|404:292,1,90,0|8,0:0|0:0,0:0:0:0:
160,264,84509,6,0,P|145:225|149:177,1,90
172,92,84944,2,0,L|164:48,2,45,0|0|8,0:0|0:0|0:0,0:0:0:0:
228,212,85379,1,0,0:0:0:0:
236,180,85488,1,0,0:0:0:0:
252,152,85596,2,0,P|290:137|338:141,1,90,0|8,0:0|0:0,0:0:0:0:
368,152,85922,1,8,0:0:0:0:
392,172,86031,1,8,0:0:0:0:
404,260,86248,1,8,0:0:0:0:
256,332,86466,5,4,0:0:0:0:
164,272,86683,2,0,P|120:260|80:280,1,90,0|8,0:0|0:0,0:0:0:0:
16,192,87118,1,0,0:0:0:0:
81,105,87335,2,0,P|120:124|164:112,1,90
256,52,87770,1,8,0:0:0:0:
340,192,87988,1,0,0:0:0:0:
452,72,88205,5,0,0:0:0:0:
272,140,88422,2,0,P|256:184|264:232,1,90,0|8,0:0|0:0,0:0:0:0:
340,192,88857,1,0,0:0:0:0:
184,112,89075,2,0,P|168:156|176:204,1,90
408,248,89509,1,8,0:0:0:0:
344,56,89727,1,0,0:0:0:0:
120,60,89944,6,0,P|88:145|104:239,1,180,0|8,0:0|0:0,0:0:0:0:
408,248,90596,2,0,P|427:204|421:158,1,90
344,56,91031,1,0,0:0:0:0:
120,60,91248,1,8,0:0:0:0:
340,192,91466,1,0,0:0:0:0:
204,76,91683,6,0,P|184:120|144:144,1,90,4|0,0:0|0:0,0:0:0:0:
120,148,92009,1,0,0:0:0:0:
88,144,92118,1,8,0:0:0:0:
16,32,92335,2,0,L|20:124,1,90,4|0,0:0|0:0,0:0:0:0:
36,264,92770,5,8,0:0:0:0:
116,308,92988,1,8,0:0:0:0:
220,288,93205,1,8,0:0:0:0:
256,168,93423,1,2,0:0:0:0:
256,167,93857,6,0,L|256:240,1,67.5
336,192,94292,6,2,P|336:136|304:100,1,101.250003862381,0|0,0:0|0:0,0:0:0:0:
203,102,94727,6,2,P|176:136|176:192,1,101.250003862381,0|0,0:0|0:0,0:0:0:0:
256,288,95162,6,0,P|344:268|420:312,1,180,4|8,0:0|0:0,0:0:0:0:
496,232,95814,2,0,L|476:132,1,90,2|0,0:0|0:0,0:0:0:0:
404,64,96248,1,2,0:0:0:0:
308,116,96466,1,8,0:0:0:0:
203,102,96683,2,0,P|159:98|117:116,1,90,2|0,0:0|0:0,0:0:0:0:
12,96,97118,6,0,P|12:144|40:188,1,90,0|8,0:0|0:0,0:0:0:0:
128,200,97553,1,0,0:0:0:0:
128,200,97662,2,0,L|140:248,1,45
208,328,97988,1,0,0:0:0:0:
312,216,98205,1,8,0:0:0:0:
452,288,98422,1,0,0:0:0:0:
270,117,98640,6,0,P|210:177|218:269,1,180,0|8,0:0|0:0,0:0:0:0:
356,304,99292,1,0,0:0:0:0:
404,208,99509,2,0,P|416:140|372:88,1,135
344,48,99944,2,0,L|432:72,1,90,8|0,0:0|0:0,0:0:0:0:
452,288,100379,6,0,P|384:300|328:264,1,135
300,232,100814,1,8,0:0:0:0:
256,132,101031,1,0,0:0:0:0:
256,132,101140,1,0,0:0:0:0:
256,132,101248,2,0,P|212:140|172:168,1,90
152,272,101683,1,8,0:0:0:0:
244,328,101901,1,8,0:0:0:0:
288,316,102009,1,8,0:0:0:0:
332,316,102118,6,0,P|376:320|420:344,1,90,4|0,0:0|0:0,0:0:0:0:
476,252,102553,1,8,0:0:0:0:
420,160,102770,2,0,P|424:116|448:72,1,90,2|0,0:0|0:0,0:0:0:0:
340,48,103205,1,2,0:0:0:0:
256,116,103422,1,8,0:0:0:0:
172,48,103640,2,0,P|150:89|149:134,1,90,2|0,0:0|0:0,0:0:0:0:
312,284,104075,5,0,0:0:0:0:
224,220,104292,1,8,0:0:0:0:
116,208,104509,1,0,0:0:0:0:
116,208,104618,2,0,P|129:274|184:320,1,135
312,284,105162,1,8,0:0:0:0:
444,316,105379,1,0,0:0:0:0:
328,172,105596,6,0,P|381:102|460:126,1,180,0|8,0:0|0:0,0:0:0:0:
424,228,106248,1,0,0:0:0:0:
248,228,106466,2,0,P|228:288|263:353,2,135
420,140,107335,6,0,P|481:160|511:222,2,135
216,148,108205,2,0,P|180:176|160:224,1,90,4|8,0:0|0:0,0:0:0:0:
152,260,108531,1,8,0:0:0:0:
164,304,108640,1,8,0:0:0:0:
336,352,108857,1,8,0:0:0:0:
460,220,109075,6,0,P|420:200|379:213,1,90,0|4,0:0|0:0,0:0:0:0:
324,276,109727,6,0,P|300:232|300:188,1,90,0|8,0:0|0:0,0:0:0:0:
360,116,110162,1,0,0:0:0:0:
456,148,110379,1,8,0:0:0:0:
380,214,110596,2,0,P|416:240|462:246,1,90,8|4,0:0|0:0,0:0:0:0:
264,120,111031,6,0,P|219:120|179:140,1,90,0|8,0:0|0:0,0:0:0:0:
64,328,111466,1,0,0:0:0:0:
64,328,111575,2,0,B|52:300|64:264|96:256|96:256|120:204,1,135
88,108,112118,1,8,0:0:0:0:
204,276,112335,1,0,0:0:0:0:
300,328,112553,6,0,P|342:313|376:279,2,90,0|0|8,0:0|0:0|0:0,0:0:0:0:
204,276,113205,1,0,0:0:0:0:
184,236,113314,1,0,0:0:0:0:
184,192,113422,2,0,B|191:138|231:114|271:122|271:122|295:146|319:138,1,180,0|8,0:0|0:0,0:0:0:0:
424,104,114075,1,0,0:0:0:0:
272,224,114292,6,0,B|184:240|184:240|144:208|96:232,1,180,0|8,0:0|0:0,0:0:0:0:
32,312,114944,1,0,0:0:0:0:
248,144,115162,2,0,P|334:171|349:255,1,180,0|8,0:0|0:0,0:0:0:0:
280,328,115814,1,8,0:0:0:0:
236,340,115922,1,8,0:0:0:0:
196,320,116031,6,0,P|144:272|144:208,1,135,4|0,0:0|0:0,0:0:0:0:
168,176,116466,1,8,0:0:0:0:
336,48,116683,2,0,L|240:56,1,90,2|0,0:0|0:0,0:0:0:0:
136,72,117118,1,2,0:0:0:0:
72,160,117335,1,8,0:0:0:0:
112,348,117553,2,0,P|108:304|88:264,1,90,2|0,0:0|0:0,0:0:0:0:
168,176,117988,6,0,P|172:220|192:260,2,90,0|8|0,0:0|0:0|0:0,0:0:0:0:
240,96,118640,2,0,P|280:76|332:84,1,90
416,140,119075,1,8,0:0:0:0:
508,84,119292,1,0,0:0:0:0:
364,236,119509,6,0,P|396:304|440:240,1,180,0|8,0:0|0:0,0:0:0:0:
416,140,120162,1,0,0:0:0:0:
312,144,120379,2,0,B|264:136|216:152|216:152|176:136|128:144,1,180,0|8,0:0|0:0,0:0:0:0:
40,192,121031,1,0,0:0:0:0:
216,72,121248,6,0,P|256:56|304:56,1,90
416,140,121683,2,0,P|432:180|432:228,1,90,8|0,0:0|0:0,0:0:0:0:
296,312,122118,2,0,P|256:328|208:328,1,90,4|0,0:0|0:0,0:0:0:0:
180,320,122444,1,8,0:0:0:0:
156,300,122553,1,8,0:0:0:0:
120,192,122770,1,8,0:0:0:0:
156,84,122988,6,0,B|216:80|256:32|256:32|288:32,2,135,4|0|0,0:0|0:0|0:0,0:0:0:0:
64,72,123857,2,0,P|40:112|40:160,1,90,2|0,0:0|0:0,0:0:0:0:
56,240,124292,1,8,0:0:0:0:
296,176,124509,1,0,0:0:0:0:
184,240,124727,5,2,0:0:0:0:
320,48,125053,1,0,0:0:0:0:
396,260,125379,1,0,0:0:0:0:
304,264,125596,2,0,P|316:308|354:343,1,90,2|0,0:0|0:0,0:0:0:0:
480,232,126031,1,8,0:0:0:0:
465,204,126139,1,0,0:0:0:0:
441,183,126248,1,0,0:0:0:0:
412,171,126357,1,0,0:0:0:0:
380,172,126465,1,2,0:0:0:0:
216,296,126901,6,0,P|128:324|72:268,2,180,8|2|8,0:0|0:0|0:0,0:0:0:0:
268,192,127988,1,0,0:0:0:0:
216,88,128205,2,0,P|128:60|72:116,1,180,2|8,0:0|0:0,0:0:0:0:
156,156,128857,1,0,0:0:0:0:
304,68,129075,2,0,P|348:64|396:80,1,90,2|0,0:0|0:0,0:0:0:0:
512,280,129509,2,0,P|468:284|420:268,1,90,8|8,0:0|0:0,0:0:0:0:
396,256,129835,1,8,0:0:0:0:
368,240,129944,6,0,P|300:236|252:280,1,135,4|0,0:0|0:0,0:0:0:0:
240,308,130379,2,0,L|152:280,1,90,8|0,0:0|0:0,0:0:0:0:
24,164,130814,2,0,L|112:192,1,90,2|0,0:0|0:0,0:0:0:0:
200,192,131248,1,8,0:0:0:0:
368,76,131466,1,0,0:0:0:0:
232,116,131683,6,0,P|161:118|120:168,1,135,2|0,0:0|0:0,0:0:0:0:
120,196,132118,2,0,L|24:228,1,90,8|0,0:0|0:0,0:0:0:0:
256,124,132553,2,0,P|284:160|284:208,1,90,2|0,0:0|0:0,0:0:0:0:
264,292,132988,1,8,0:0:0:0:
279,320,133096,1,0,0:0:0:0:
303,341,133205,1,0,0:0:0:0:
332,353,133314,1,0,0:0:0:0:
363,353,133422,5,2,0:0:0:0:
444,312,133640,1,0,0:0:0:0:
472,228,133857,2,0,P|428:176|448:116,1,135,8|0,0:0|0:0,0:0:0:0:
476,108,134292,2,0,L|388:128,1,90,2|0,0:0|0:0,0:0:0:0:
300,144,134727,1,8,0:0:0:0:
212,132,134944,1,0,0:0:0:0:
140,80,135162,6,0,P|96:76|56:108,2,90,4|0|8,0:0|0:0|0:0,0:0:0:0:
356,200,135814,2,0,P|320:228|280:220,1,90,0|4,0:0|0:0,0:0:0:0:
140,160,136248,1,0,0:0:0:0:
108,164,136357,1,0,0:0:0:0:
84,184,136466,1,8,0:0:0:0:
64,272,136683,1,8,0:0:0:0:
136,328,136901,6,0,P|184:320|232:348,2,101.250003862381,2|0|0,0:0|0:0|0:0,0:0:0:0:
64,272,137770,2,0,L|76:204,1,67.5000025749208,2|0,0:0|0:0,0:0:0:0:
96,112,138205,1,2,0:0:0:0:
180,68,138422,1,2,0:0:0:0:
256,124,138640,6,0,P|268:168|240:220,2,101.250003862381,2|0|0,0:0|0:0|0:0,0:0:0:0:
128,152,139509,2,0,L|194:162,1,67.5000025749208,2|0,0:0|0:0,0:0:0:0:
344,188,139944,1,2,0:0:0:0:
376,176,140053,1,2,0:0:0:0:
408,172,140162,1,2,0:0:0:0:
440,176,140270,1,2,0:0:0:0:
472,188,140379,1,2,0:0:0:0:
472,188,140814,6,0,L|460:256,1,67.5000025749208,2|0,0:0|0:0,0:0:0:0:
384,308,141248,2,0,P|332:308|284:344,2,101.250003862381,2|0|0,0:0|0:0|0:0,0:0:0:0:
472,188,142118,2,0,P|480:96|384:72,1,202.500007724762,2|0,0:0|0:0,0:0:0:0:
312,124,142988,1,2,0:0:0:0:
224,156,143205,1,2,0:0:0:0:
136,124,143422,1,2,0:0:0:0:
84,44,143640,1,2,0:0:0:0:
156,204,143857,6,0,P|148:252|108:296,2,101.250003862381,2|0|0,0:0|0:0|0:0,0:0:0:0:
64,216,144727,2,0,P|36:232|24:272,1,67.5000025749208,2|0,0:0|0:0,0:0:0:0:
180,344,145162,1,2,0:0:0:0:
256,288,145379,1,2,0:0:0:0:
416,248,145596,6,0,P|460:272|484:324,2,101.250003862381,2|0|0,0:0|0:0|0:0,0:0:0:0:
324,220,146466,2,0,L|320:152,1,67.5000025749208,2|0,0:0|0:0,0:0:0:0:
292,64,146901,1,2,0:0:0:0:
257,60,147010,1,2,0:0:0:0:
226,65,147118,1,2,0:0:0:0:
196,77,147227,1,2,0:0:0:0:
168,97,147336,5,2,0:0:0:0:
124,180,147553,1,0,0:0:0:0:
144,272,147770,2,0,P|172:292|212:296,1,67.5000025749208,2|0,0:0|0:0,0:0:0:0:
236,288,148096,1,0,0:0:0:0:
264,268,148205,2,0,P|297:273|329:299,1,67.5000025749208,2|0,0:0|0:0,0:0:0:0:
412,260,148640,2,0,P|431:233|436:199,1,67.5000025749208,2|0,0:0|0:0,0:0:0:0:
412,108,149075,6,0,P|348:88|291:119,1,135.000005149842,2|0,0:0|0:0,0:0:0:0:
244,204,149727,6,0,P|192:108|256:28,1,225,2|0,0:0|0:0,0:0:0:0:
