osu file format v14

[General]
AudioFilename: ore moechan no xinely.mp3
AudioLeadIn: 0
PreviewTime: 57661
Countdown: 0
SampleSet: None
StackLeniency: 0.7
Mode: 0
LetterboxInBreaks: 0
WidescreenStoryboard: 1

[Editor]
Bookmarks: 510,6784,16196,16980,17764,18059,18353,19333,38157,40510,86590
DistanceSpacing: 1
BeatDivisor: 8
GridSize: 4
TimelineZoom: 3.699999

[Metadata]
Title:Alola!!
TitleUnicode:アローラ!!
Artist:Satoshi with Pikachu (CV:Matsumoto Rica/Otani Ikue)
ArtistUnicode:サトシwithピカチュウ (CV:松本梨香/大谷育江)
Creator:Xinely
Version:Sotarks' Island Challenge!!
Source:ポケットモンスター サン&ムーン
Tags:Pokemon Pocket Monster Sun and Moon Sotarks Akitoshi Corinn Gero
BeatmapID:1166497
BeatmapSetID:547994

[Difficulty]
HPDrainRate:6.2
CircleSize:4.4
OverallDifficulty:8.5
ApproachRate:9.2
SliderMultiplier:1.82
SliderTickRate:1

[Events]
//Background and Video events
0,0,"liliewaifu.jpg",0,0
Video,0,"Lanturn moe.avi"
//Break Periods
//Storyboard Layer 0 (Background)
//Storyboard Layer 1 (Fail)
//Storyboard Layer 2 (Pass)
//Storyboard Layer 3 (Foreground)
//Storyboard Sound Samples

[TimingPoints]
505,392.156862745098,4,3,22,42,1,0
505,-108.695652173913,4,3,22,42,0,0
701,-108.695652173913,4,3,22,32,0,0
897,-108.695652173913,4,3,22,42,0,0
995,-108.695652173913,4,3,22,32,0,0
1289,-108.695652173913,4,3,22,42,0,0
1387,-108.695652173913,4,3,22,22,0,0
1485,-108.695652173913,4,3,22,32,0,0
1681,-108.695652173913,4,3,22,42,0,0
1877,-108.695652173913,4,3,22,52,0,0
2073,-108.695652173913,4,3,22,42,0,0
2171,-108.695652173913,4,3,22,32,0,0
2465,-108.695652173913,4,3,22,42,0,0
2563,-108.695652173913,4,3,22,32,0,0
2759,-108.695652173913,4,3,22,32,0,0
2857,-108.695652173913,4,3,22,42,0,0
2955,-108.695652173913,4,3,22,32,0,0
3250,-108.695652173913,4,3,22,52,0,0
3348,-108.695652173913,4,3,22,32,0,0
3446,-108.695652173913,4,3,22,52,0,0
3544,-108.695652173913,4,3,22,42,0,0
3740,-108.695652173913,4,3,22,32,0,0
3936,-108.695652173913,4,3,22,22,0,0
4034,-108.695652173913,4,3,22,42,0,0
4132,-108.695652173913,4,3,22,32,0,0
4230,-108.695652173913,4,3,22,42,0,0
4328,-108.695652173913,4,3,22,32,0,0
4426,-108.695652173913,4,3,22,42,0,0
4524,-108.695652173913,4,3,22,32,0,0
4818,-108.695652173913,4,3,22,52,0,0
5014,-108.695652173913,4,3,22,42,0,0
5112,-108.695652173913,4,3,22,32,0,0
5210,-108.695652173913,4,3,22,42,0,0
5308,-108.695652173913,4,3,22,22,0,0
5406,-108.695652173913,4,3,22,42,0,0
5505,-108.695652173913,4,3,22,22,0,0
5603,-108.695652173913,4,3,22,42,0,0
5799,-108.695652173913,4,3,22,42,0,0
6779,-98.0392156862745,4,2,22,62,0,0
16191,-75.7575757575758,4,2,22,52,0,0
16387,-75.7575757575758,4,2,22,5,0,0
16485,-89.2857142857143,4,2,22,52,0,0
16681,-89.2857142857143,4,2,22,5,0,0
16779,-108.695652173913,4,2,22,52,0,0
16877,-108.695652173913,4,2,22,5,0,0
16975,-65.7894736842105,4,2,22,62,0,0
17171,-65.7894736842105,4,2,22,5,0,0
17269,-75.7575757575758,4,2,22,62,0,0
17465,-75.7575757575758,4,2,22,5,0,0
17563,-89.2857142857143,4,2,22,62,0,0
17661,-89.2857142857143,4,2,22,5,0,0
17759,-61.7283950617284,4,2,22,72,0,0
17955,-61.7283950617284,4,2,22,5,0,0
18054,-54.9450549450549,4,2,22,82,0,0
18250,-54.9450549450549,4,2,22,5,0,0
18348,-192.307692307692,4,2,22,42,0,0
19328,-121.951219512195,4,2,22,52,0,0
19426,-121.951219512195,4,2,22,42,0,0
20210,-121.951219512195,4,2,22,22,0,0
20308,-121.951219512195,4,2,22,42,0,0
20406,-121.951219512195,4,2,22,22,0,0
20505,-121.951219512195,4,2,22,42,0,0
20897,-108.695652173913,4,2,22,42,0,0
20995,-108.695652173913,4,2,22,22,0,0
21093,-98.0392156862744,4,2,22,42,0,0
21191,-98.0392156862744,4,2,22,22,0,0
21289,-89.2857142857143,4,2,22,42,0,0
21387,-89.2857142857143,4,2,22,22,0,0
21485,-121.951219512195,4,2,22,42,0,0
21975,-121.951219512195,4,2,22,32,0,0
22073,-121.951219512195,4,2,22,42,0,0
22171,-121.951219512195,4,2,22,32,0,0
22465,-121.951219512195,4,2,22,52,0,0
22563,-121.951219512195,4,2,22,42,0,0
24034,-108.695652173913,4,2,22,42,0,0
24132,-108.695652173913,4,2,22,22,0,0
24230,-98.0392156862745,4,2,22,42,0,0
24328,-98.0392156862745,4,2,22,22,0,0
24426,-89.2857142857143,4,2,22,42,0,0
24524,-89.2857142857143,4,2,22,22,0,0
24622,-121.951219512195,4,2,22,42,0,0
25112,-121.951219512195,4,2,22,32,0,0
25210,-121.951219512195,4,2,22,42,0,0
25308,-121.951219512195,4,2,22,32,0,0
25603,-121.951219512195,4,2,22,52,0,0
25701,-121.951219512195,4,2,22,42,0,0
26093,-121.951219512195,4,2,22,22,0,0
26191,-121.951219512195,4,2,22,52,0,0
26289,-121.951219512195,4,2,22,42,0,0
26681,-121.951219512195,4,2,22,22,0,0
26779,-121.951219512195,4,2,22,42,0,0
26877,-121.951219512195,4,2,22,22,0,0
26975,-121.951219512195,4,2,22,52,0,0
27073,-121.951219512195,4,2,22,42,0,0
27465,-121.951219512195,4,2,22,22,0,0
27563,-121.951219512195,4,2,22,42,0,0
27661,-121.951219512195,4,2,22,22,0,0
27759,-121.951219512195,4,2,22,52,0,0
27857,-121.951219512195,4,2,22,42,0,0
28250,-121.951219512195,4,2,22,22,0,0
28348,-121.951219512195,4,2,22,42,0,0
28544,-121.951219512195,4,2,22,52,0,0
28642,-121.951219512195,4,2,22,32,0,0
28740,-61.7283950617284,4,2,22,72,0,0
29328,-121.951219512195,4,2,22,52,0,0
29524,-61.7283950617284,4,2,22,72,0,0
30112,-108.695652173913,4,2,22,62,0,0
30701,-81.9672131147541,4,2,22,72,0,0
30897,-81.9672131147541,4,2,22,52,0,0
31093,-61.7283950617284,4,2,22,82,0,0
31289,-61.7283950617284,4,2,22,52,0,0
31485,-52.0833333333333,4,2,22,92,0,0
31779,-52.0833333333333,4,2,22,82,0,0
31877,-98.0392156862745,4,2,22,52,0,0
38152,-89.2857142857143,4,2,22,52,0,0
38250,-89.2857142857143,4,2,22,22,0,0
38348,-108.695652173913,4,2,22,52,0,0
38446,-108.695652173913,4,2,22,32,0,0
38544,-89.2857142857143,4,2,22,52,0,0
38642,-89.2857142857143,4,2,22,22,0,0
38740,-108.695652173913,4,2,22,52,0,0
38838,-108.695652173913,4,2,22,32,0,0
38936,-89.2857142857143,4,2,22,52,0,0
39034,-89.2857142857143,4,2,22,22,0,0
39132,-108.695652173913,4,2,22,52,0,0
39230,-108.695652173913,4,2,22,32,0,0
39328,-89.2857142857143,4,2,22,52,0,0
39426,-89.2857142857143,4,2,22,22,0,0
39524,-108.695652173913,4,2,22,52,0,0
39622,-108.695652173913,4,2,22,32,0,0
39720,-89.2857142857143,4,2,22,52,0,0
39818,-89.2857142857143,4,2,22,22,0,0
39916,-108.695652173913,4,2,22,52,0,0
40014,-108.695652173913,4,2,22,32,0,0
40112,-89.2857142857143,4,2,22,52,0,0
40210,-89.2857142857143,4,2,22,22,0,0
40308,-108.695652173913,4,2,22,52,0,0
40406,-108.695652173913,4,2,22,32,0,0
40505,-98.0392156862745,4,2,22,52,0,0
42661,-98.0392156862745,4,2,22,62,0,0
44230,-98.0392156862745,4,2,22,52,0,0
52073,-98.0392156862745,4,2,22,62,0,0
53642,-98.0392156862745,4,2,22,52,0,0
55210,-98.0392156862745,4,2,22,62,0,0
56975,-65.7894736842105,4,2,22,72,0,0
57171,-65.7894736842105,4,2,22,12,0,0
57269,-75.7575757575758,4,2,22,72,0,0
57465,-75.7575757575758,4,2,22,12,0,0
57563,-89.2857142857143,4,2,22,72,0,0
57661,-89.2857142857143,4,2,22,12,0,0
57759,-61.7283950617284,4,2,22,72,0,0
57955,-61.7283950617284,4,2,22,12,0,0
58054,-58.1395348837209,4,2,22,72,0,0
58250,-58.1395348837209,4,2,22,12,0,0
58348,-70.4225352112676,4,2,22,72,0,0
58446,-70.4225352112676,4,2,22,12,0,0
58544,-52.0833333333333,4,2,22,72,0,0
58740,-52.0833333333333,4,2,22,32,0,0
59132,-108.695652173913,4,3,22,52,0,0
60112,-81.9672131147541,4,2,22,72,0,1
60603,-81.9672131147541,4,2,22,32,0,1
60701,-81.9672131147541,4,2,22,72,0,1
60799,-81.9672131147541,4,2,22,32,0,1
60897,-81.9672131147541,4,2,22,72,0,1
61387,-81.9672131147541,4,2,22,32,0,1
61485,-81.9672131147541,4,2,22,72,0,1
61583,-81.9672131147541,4,2,22,32,0,1
61681,-81.9672131147541,4,2,22,72,0,1
62955,-81.9672131147541,4,2,22,42,0,1
63054,-81.9672131147541,4,2,22,72,0,1
63152,-81.9672131147541,4,2,22,42,0,1
63250,-81.9672131147541,4,2,22,72,0,1
63740,-81.9672131147541,4,2,22,32,0,1
63838,-81.9672131147541,4,2,22,72,0,1
63936,-81.9672131147541,4,2,22,32,0,1
64034,-81.9672131147541,4,2,22,72,0,1
65701,-81.9672131147541,4,2,22,52,0,1
65799,-81.9672131147541,4,2,22,72,0,1
66387,-81.9672131147541,4,2,22,72,0,1
66877,-81.9672131147541,4,2,22,32,0,1
66975,-81.9672131147541,4,2,22,72,0,1
67073,-81.9672131147541,4,2,22,32,0,1
67171,-81.9672131147541,4,2,22,72,0,1
67661,-81.9672131147541,4,2,22,32,0,1
67759,-81.9672131147541,4,2,22,72,0,1
67857,-81.9672131147541,4,2,22,32,0,1
67955,-81.9672131147541,4,2,22,72,0,1
69230,-81.9672131147541,4,2,22,42,0,1
69328,-81.9672131147541,4,2,22,72,0,1
69426,-81.9672131147541,4,2,22,42,0,1
69524,-81.9672131147541,4,2,22,72,0,1
74230,-81.9672131147541,4,2,22,72,0,0
74524,-81.9672131147541,4,2,22,42,0,0
74622,-81.9672131147541,4,2,22,62,0,0
74916,-81.9672131147541,4,2,22,42,0,0
75014,-75.7575757575758,4,2,22,72,0,0
75210,-75.7575757575758,4,2,22,42,0,0
75308,-70.4225352112676,4,2,22,82,0,0
75504,-70.4225352112676,4,2,22,42,0,0
75602,-81.9672131147541,4,2,22,72,0,0
80896,-65.7894736842105,4,2,22,72,0,0
81288,-192.307692307692,4,2,22,72,0,0
82073,-98.0392156862745,4,2,22,62,0,0
87367,-98.0392156862745,4,2,22,12,0,0

[Colours]
Combo1 : 255,128,128
Combo2 : 0,128,255
Combo3 : 128,128,192
Combo4 : 255,255,62

[HitObjects]
96,85,505,6,0,P|144:75|200:86,1,83.7199971895753,4|0,0:0|0:0,0:0:0:0:
247,188,897,2,0,L|254:284,1,83.7199971895753,8|0,0:0|0:0,0:0:0:0:
172,232,1191,1,0,0:0:0:0:
172,232,1289,2,0,L|164:179,1,41.8599985947876,4|0,0:0|0:0,0:0:0:0:
242,109,1485,1,0,0:0:0:0:
259,342,1681,1,8,0:0:0:0:
327,221,1877,1,0,0:0:0:0:
364,216,1975,1,0,0:0:0:0:
400,212,2073,6,0,L|455:205,2,41.8599985947876,4|0|0,0:0|0:0|0:0,0:0:0:0:
342,58,2465,2,0,L|356:160,1,83.7199971895753,8|0,0:0|0:0,0:0:0:0:
372,245,2759,1,0,0:0:0:0:
372,245,2857,2,0,P|311:249|264:268,1,83.7199971895753,4|0,0:0|0:0,0:0:0:0:
190,353,3250,6,0,P|184:309|184:304,1,41.8599985947876,8|0,0:0|0:0,0:0:0:0:
212,232,3446,2,0,P|218:188|218:183,1,41.8599985947876
158,112,3642,6,0,P|210:96|291:118,1,125.579995784363,4|0,0:0|0:0,0:0:0:0:
334,168,4034,1,8,0:0:0:0:
420,84,4230,1,0,0:0:0:0:
425,116,4328,1,0,0:0:0:0:
431,148,4426,2,0,L|439:199,2,41.8599985947876,4|0|0,0:0|0:0|0:0,0:0:0:0:
404,6,4818,1,8,0:0:0:0:
449,271,5014,1,0,0:0:0:0:
449,271,5112,1,0,0:0:0:0:
449,271,5210,6,0,L|395:270,1,41.8599985947876,4|0,0:0|0:0,0:0:0:0:
286,332,5406,2,0,L|340:331,1,41.8599985947876
418,352,5603,1,8,0:0:0:0:
312,244,5799,6,0,L|313:264,2,20.9299992973938,4|0|0,0:0|0:0|0:0,0:0:0:0:
305,109,5995,2,0,L|308:169,1,41.8599985947876,4|0,0:0|0:0,0:0:0:0:
271,254,6191,6,0,L|311:243,1,41.8599985947876,8|0,0:0|0:0,0:0:0:0:
347,160,6387,2,0,L|294:146,1,41.8599985947876,8|0,0:0|0:0,0:0:0:0:
215,175,6583,1,0,1:0:0:0:
159,177,6681,1,0,1:0:0:0:
109,179,6779,6,0,L|6:190,1,92.8200005665283,6|0,1:0|0:0,0:0:0:0:
97,101,7171,1,8,0:0:0:0:
136,259,7367,2,0,L|239:270,1,92.8200005665283,2|0,0:0|1:0,0:0:0:0:
324,202,7759,1,2,0:0:0:0:
434,330,7955,2,0,P|440:274|436:226,1,92.8200005665283,8|0,0:0|0:0,0:0:0:0:
317,117,8348,5,0,1:0:0:0:
335,286,8544,1,2,0:0:0:0:
317,117,8740,1,8,0:0:0:0:
335,286,8936,1,2,0:0:0:0:
407,125,9132,5,0,1:0:0:0:
238,206,9328,1,2,0:0:0:0:
371,208,9524,1,8,0:0:0:0:
181,131,9720,6,0,B|267:91|278:172|383:107,1,185.640001133057,6|2,0:0|0:0,0:0:0:0:
226,200,10308,2,0,P|211:255|201:299,1,92.8200005665283,8|0,0:0|0:0,0:0:0:0:
202,318,10603,1,0,3:0:0:0:
202,318,10701,1,0,1:0:0:0:
380,268,10897,1,0,0:0:0:0:
380,268,10995,1,0,3:0:0:0:
380,268,11093,2,0,L|287:256,1,92.8200005665283,8|0,0:0|0:0,0:0:0:0:
202,289,11387,1,0,3:0:0:0:
202,289,11485,6,0,L|109:301,1,92.8200005665283,0|0,1:0|0:0,0:0:0:0:
80,307,11779,1,0,3:0:0:0:
80,307,11877,1,8,0:0:0:0:
157,211,12073,1,2,0:0:0:0:
157,211,12171,1,0,3:0:0:0:
157,211,12269,2,0,P|165:155|168:93,1,92.8200005665283,0|0,1:0|0:0,0:0:0:0:
287,22,12661,2,0,L|293:88,1,46.4100002832642,8|0,0:0|0:0,0:0:0:0:
276,194,12857,2,0,L|270:260,1,46.4100002832642,8|0,3:0|3:0,3:0:0:0:
333,355,13054,6,0,L|434:342,1,92.8200005665283,6|0,1:0|0:0,0:0:0:0:
352,247,13446,1,8,0:0:0:0:
218,333,13642,2,0,L|117:320,1,92.8200005665283,2|0,0:0|1:0,0:0:0:0:
81,205,14034,1,2,0:0:0:0:
23,361,14230,2,0,B|17:313|17:313|24:247,1,92.8200005665283,8|2,0:0|0:0,0:0:0:0:
148,128,14622,5,0,1:0:0:0:
190,309,14818,1,2,0:0:0:0:
148,128,15014,1,8,0:0:0:0:
190,309,15210,1,2,0:0:0:0:
67,175,15406,1,0,1:0:0:0:
259,184,15603,1,2,0:0:0:0:
20,106,15799,2,0,L|176:81,1,139.230000849792,10|0,0:0|0:0,0:0:0:0:
240,47,16191,6,0,B|247:119|247:119|228:187,1,120.119999633423,12|0,0:0|0:0,0:0:0:0:
155,300,16485,2,0,B|140:329|140:329|133:249,1,101.920001244141,0|0,1:0|0:0,0:0:0:0:
126,92,16779,2,0,L|130:158,1,41.8599985947876,0|0,1:0|0:0,0:0:0:0:
5,282,16975,6,0,P|78:250|156:272,1,138.319998311523,12|0,0:0|0:0,0:0:0:0:
235,348,17269,2,0,P|301:343|345:310,1,120.119999633423,0|0,1:0|0:0,0:0:0:0:
254,199,17563,2,0,L|264:256,1,50.9600006220703,0|0,1:0|0:0,0:0:0:0:
298,119,17759,6,0,B|246:115|246:115|202:131|202:131|120:121,1,147.420003599121,12|0,0:0|0:0,0:0:0:0:
31,59,18054,6,0,B|79:64|79:64|139:49|139:49|208:55,1,165.620005559754,0|0,1:0|0:0,0:0:0:0:
391,123,18348,6,0,B|362:123|362:123|331:116|331:116|286:120,1,94.6399994223633,2|0,0:0|0:0,0:0:0:0:
44,274,19328,6,0,P|89:288|141:273,1,74.6200011386109,4|0,3:0|0:0,0:0:0:0:
178,223,19622,1,0,0:0:0:0:
185,194,19720,2,0,L|192:285,1,74.6200011386109,4|0,3:0|0:0,0:0:0:0:
266,330,20014,1,0,0:0:0:0:
266,330,20112,2,0,L|316:334,1,37.3100005693054,4|0,3:0|0:0,0:0:0:0:
382,259,20308,2,0,L|332:263,1,37.3100005693054
280,199,20505,2,0,P|273:156|260:114,1,74.6200011386109,4|0,3:0|0:0,0:0:0:0:
189,74,20799,1,0,0:0:0:0:
159,58,20897,6,0,L|223:48,1,41.8599985947876,4|0,3:0|0:0,0:0:0:0:
289,46,21093,2,0,L|341:56,1,46.4100002832642,2|0,0:0|0:0,0:0:0:0:
453,100,21289,2,0,L|402:105,1,50.9600006220703,4|0,3:0|0:0,0:0:0:0:
315,125,21485,6,0,P|270:123|190:167,1,111.930001707916,2|0,0:0|0:0,0:0:0:0:
182,233,21877,2,0,L|180:280,1,37.3100005693054
129,343,22073,1,4,3:0:0:0:
166,340,22171,1,0,3:0:0:0:
203,338,22269,1,0,3:0:0:0:
240,335,22367,1,0,3:0:0:0:
274,334,22465,6,0,L|366:328,1,74.6200011386109,4|0,3:0|0:0,0:0:0:0:
459,268,22759,1,0,0:0:0:0:
481,249,22857,2,0,L|388:243,1,74.6200011386109,4|0,3:0|0:0,0:0:0:0:
182,233,23152,1,0,0:0:0:0:
160,214,23250,2,0,L|252:208,1,74.6200011386109,4|0,3:0|0:0,0:0:0:0:
304,101,23544,1,0,0:0:0:0:
313,69,23642,2,0,L|320:160,1,74.6200011386109,4|0,3:0|0:0,0:0:0:0:
302,253,23936,1,0,0:0:0:0:
302,253,24034,6,0,L|295:314,1,41.8599985947876,4|0,3:0|0:0,0:0:0:0:
229,163,24230,2,0,L|236:225,1,46.4100002832642,2|0,0:0|0:0,0:0:0:0:
144,81,24426,2,0,L|156:140,1,50.9600006220703,4|0,3:0|0:0,0:0:0:0:
70,208,24622,6,0,P|127:209|176:265,1,111.930001707916,2|0,0:0|0:0,0:0:0:0:
95,330,25014,2,0,L|90:289,1,37.3100005693054
71,208,25210,1,4,3:0:0:0:
64,171,25308,1,0,3:0:0:0:
52,135,25406,1,0,3:0:0:0:
36,102,25504,1,0,3:0:0:0:
16,75,25603,6,0,L|105:70,1,74.6200011386109,4|0,3:0|0:0,0:0:0:0:
168,143,25897,1,0,0:0:0:0:
168,143,25995,2,0,L|228:145,1,37.3100005693054,4|0,3:0|0:0,0:0:0:0:
271,85,26191,6,0,P|291:125|262:211,1,111.930001707916,2|0,0:0|0:0,0:0:0:0:
224,254,26583,2,0,P|265:272|272:274,1,37.3100005693054
314,204,26779,2,0,P|273:186|266:184,1,37.3100005693054,4|0,3:0|0:0,0:0:0:0:
175,259,26975,6,0,P|233:295|300:305,1,111.930001707916,2|0,0:0|0:0,0:0:0:0:
362,278,27367,2,0,L|366:321,1,37.3100005693054
459,340,27563,2,0,L|462:302,1,37.3100005693054,4|0,3:0|0:0,0:0:0:0:
424,222,27759,6,0,P|418:185|421:105,1,111.930001707916
481,46,28152,2,0,L|435:39,1,37.3100005693054
342,65,28348,1,4,3:0:0:0:
304,71,28446,1,0,0:0:0:0:
265,77,28544,2,0,L|220:74,1,37.3100005693054
166,20,28740,6,0,B|124:80|124:80|203:163,1,147.420003599121,12|0,0:0|0:0,0:0:0:0:
271,299,29328,2,0,L|275:347,1,37.3100005693054,0|0,1:0|0:0,0:0:0:0:
158,33,29524,6,0,B|116:93|116:93|195:176,1,147.420003599121,12|0,0:0|0:0,0:0:0:0:
340,245,30112,6,0,P|289:221|176:280,1,167.439994379151,4|0,1:0|0:0,0:0:0:0:
52,352,30701,6,0,B|44:311|44:311|54:274|54:274|52:199,1,111.019995426117,4|0,1:0|0:0,0:0:0:0:
72,358,31093,6,0,B|64:310|64:310|76:267|76:267|73:181,1,147.420003599121,4|0,1:0|0:0,0:0:0:0:
90,366,31485,6,0,B|85:306|85:306|99:256|99:256|96:189,1,174.720004265625,4|0,1:0|0:0,0:0:0:0:
150,50,31779,1,0,0:0:0:0:
136,88,31877,6,0,L|236:88,1,92.8200005665283,4|0,3:0|0:0,0:0:0:0:
306,121,32171,1,2,0:0:0:0:
242,176,32269,2,0,P|224:125|235:72,1,92.8200005665283,0|0,1:0|0:0,0:0:0:0:
294,34,32563,1,2,0:0:0:0:
377,47,32661,2,0,B|435:57|435:57|464:92,1,92.8200005665283,0|0,1:0|0:0,0:0:0:0:
496,157,32955,1,2,0:0:0:0:
471,236,33054,2,0,P|422:236|381:214,1,92.8200005665283,0|0,1:0|0:0,0:0:0:0:
298,256,33348,1,2,0:0:0:0:
298,256,33446,6,0,L|298:309,1,46.4100002832642,0|0,1:0|0:0,0:0:0:0:
179,320,33642,2,0,L|179:273,1,46.4100002832642,0|0,3:0|0:0,0:0:0:0:
313,240,33838,2,0,L|313:293,1,46.4100002832642,0|0,1:0|0:0,0:0:0:0:
155,341,34034,6,0,B|155:219|155:219|173:189,1,139.230000849792,2|2,0:0|0:0,0:0:0:0:
222,139,34426,2,0,L|222:84,1,46.4100002832642
152,34,34622,1,0,1:0:0:0:
196,22,34720,1,0,3:0:0:0:
243,21,34818,1,0,3:0:0:0:
288,32,34916,1,0,3:0:0:0:
322,52,35014,6,0,L|333:156,1,92.8200005665283,4|0,3:0|0:0,0:0:0:0:
411,99,35308,1,2,0:0:0:0:
411,99,35406,2,0,B|424:152|424:152|418:199,1,92.8200005665283,0|0,1:0|0:0,0:0:0:0:
252,149,35701,1,2,0:0:0:0:
252,149,35799,2,0,B|239:202|239:202|245:249,1,92.8200005665283,0|0,1:0|0:0,0:0:0:0:
423,265,36093,1,2,0:0:0:0:
423,265,36191,2,0,B|436:318|436:318|430:365,1,92.8200005665283,0|0,1:0|0:0,0:0:0:0:
352,319,36485,1,2,0:0:0:0:
352,319,36583,6,0,P|298:321|286:321,1,46.4100002832642,0|0,1:0|0:0,0:0:0:0:
243,239,36779,2,0,P|189:237|177:237,1,46.4100002832642,0|0,3:0|0:0,0:0:0:0:
362,338,36975,2,0,P|308:340|296:340,1,46.4100002832642,0|0,1:0|0:0,0:0:0:0:
231,219,37171,6,0,B|136:219|136:219|96:243,1,139.230000849792,4|2,3:0|0:0,0:0:0:0:
53,319,37563,2,0,P|20:282|18:278,1,46.4100002832642
16,196,37759,1,0,1:0:0:0:
36,154,37857,1,0,3:0:0:0:
70,123,37955,1,0,3:0:0:0:
113,107,38054,1,0,3:0:0:0:
157,105,38152,6,0,P|184:110|218:111,1,50.9600006220703,4|0,3:0|0:0,0:0:0:0:
330,39,38348,2,0,P|302:33|274:31,1,41.8599985947876,2|0,0:0|0:0,0:0:0:0:
137,133,38544,6,0,P|165:131|198:123,1,50.9600006220703,0|0,1:0|0:0,0:0:0:0:
287,25,38740,2,0,P|260:27|231:31,1,41.8599985947876,2|0,0:0|0:0,0:0:0:0:
126,166,38936,6,0,P|152:156|182:140,1,50.9600006220703,0|0,1:0|0:0,0:0:0:0:
243,22,39132,2,0,P|217:31|191:43,1,41.8599985947876,2|0,0:0|0:0,0:0:0:0:
124,200,39328,6,0,P|147:184|171:161,1,50.9600006220703,0|0,1:0|0:0,0:0:0:0:
200,31,39524,2,0,P|177:47|154:65,1,41.8599985947876,2|0,0:0|0:0,0:0:0:0:
131,234,39720,6,0,P|149:213|166:184,1,50.9600006220703,0|0,1:0|0:0,0:0:0:0:
160,51,39916,2,0,P|142:72|125:95,1,41.8599985947876,2|0,0:0|0:0,0:0:0:0:
146,265,40112,6,0,P|158:240|167:207,1,50.9600006220703,0|0,1:0|0:0,0:0:0:0:
127,80,40308,2,0,P|115:105|105:132,1,41.8599985947876,2|0,0:0|0:0,0:0:0:0:
168,291,40505,6,0,P|174:263|172:240,1,46.4100002832642,0|0,1:0|0:0,0:0:0:0:
44,162,40701,2,0,P|48:214|65:279,1,92.8200005665283,2|0,0:0|1:0,0:0:0:0:
88,341,40995,1,2,0:0:0:0:
88,341,41093,2,0,P|136:366|145:367,1,46.4100002832642,0|0,3:0|3:0,3:0:0:0:
306,285,41289,6,0,P|243:277|147:299,1,139.230000849792,0|2,1:0|0:0,0:0:0:0:
212,359,41681,2,0,L|310:374,1,92.8200005665283,0|0,1:0|0:0,0:0:0:0:
430,264,42073,2,0,L|332:279,1,92.8200005665283,0|0,1:0|1:0,0:0:0:0:
458,365,42465,1,8,3:0:0:0:
413,87,42661,6,0,B|393:132|393:132|436:286,1,185.640001133057,4|0,1:0|0:0,0:0:0:0:
477,132,43152,1,2,0:0:0:0:
477,132,43250,2,0,P|489:75|489:73,1,46.4100002832642,0|0,1:0|0:0,0:0:0:0:
413,17,43446,1,0,3:0:0:0:
380,13,43544,1,0,3:0:0:0:
349,19,43642,1,0,3:0:0:0:
312,40,43740,5,8,0:0:0:0:
266,47,43838,1,0,3:0:0:0:
220,44,43936,1,0,3:0:0:0:
175,31,44034,2,0,L|136:84,1,46.4100002832642,0|0,1:0|0:0,0:0:0:0:
54,193,44230,6,0,P|113:183|206:269,1,185.640001133057,6|2,3:0|3:0,0:0:0:0:
110,263,44818,1,8,0:0:0:0:
76,101,45014,1,2,3:0:0:0:
13,256,45210,5,0,1:0:0:0:
0,70,45406,1,2,3:0:0:0:
117,276,45603,1,8,0:0:0:0:
162,59,45799,1,2,3:0:0:0:
200,316,45995,5,0,1:0:0:0:
80,22,46191,1,2,3:0:0:0:
278,270,46387,5,8,0:0:0:0:
89,101,46583,1,2,3:0:0:0:
353,230,46779,5,0,1:0:0:0:
97,183,46975,1,2,3:0:0:0:
424,187,47171,1,8,0:0:0:0:
164,19,47367,6,0,B|177:113|177:113|171:157|171:157|189:215,1,185.640001133057,6|2,3:0|3:0,0:0:0:0:
249,45,47955,1,8,0:0:0:0:
15,130,48152,1,2,3:0:0:0:
252,153,48348,5,0,1:0:0:0:
89,101,48544,1,2,3:0:0:0:
187,239,48740,1,8,0:0:0:0:
164,19,48936,1,2,3:0:0:0:
140,302,49132,5,0,1:0:0:0:
180,96,49328,1,2,3:0:0:0:
218,367,49524,5,8,0:0:0:0:
140,163,49720,1,2,3:0:0:0:
89,370,49916,5,0,1:0:0:0:
258,144,50112,1,2,3:0:0:0:
334,368,50308,1,8,0:0:0:0:
74,258,50504,6,0,B|173:228|173:292|263:250,1,185.640001133057,6|2,3:0|3:0,0:0:0:0:
384,141,51093,1,8,0:0:0:0:
422,326,51289,1,2,3:0:0:0:
270,161,51485,5,0,1:0:0:0:
484,120,51681,1,2,3:0:0:0:
347,300,51877,1,8,0:0:0:0:
260,28,52073,6,0,B|327:24|327:24|377:46,1,92.8200005665283,2|0,3:0|1:0,0:0:0:0:
473,261,52465,1,2,3:0:0:0:
216,252,52661,1,8,0:0:0:0:
502,180,52857,6,0,P|456:181|390:198,1,92.8200005665283,2|0,3:0|1:0,0:0:0:0:
256,319,53250,1,2,3:0:0:0:
328,116,53446,1,8,0:0:0:0:
357,281,53642,1,2,3:0:0:0:
231,168,53838,5,0,1:0:0:0:
412,144,54034,1,2,3:0:0:0:
404,361,54230,1,8,0:0:0:0:
311,126,54426,1,2,3:0:0:0:
199,365,54622,5,0,1:0:0:0:
449,226,54818,1,2,3:0:0:0:
173,245,55014,1,8,0:0:0:0:
304,48,55210,1,2,3:0:0:0:
332,268,55406,5,0,1:0:0:0:
192,120,55603,1,2,3:0:0:0:
104,296,55799,1,8,0:0:0:0:
340,148,55995,1,2,3:0:0:0:
88,176,56191,5,0,1:0:0:0:
235,353,56387,1,2,3:0:0:0:
196,112,56583,1,8,0:0:0:0:
68,312,56779,1,0,1:0:0:0:
381,235,56975,6,0,B|335:226|335:226|217:261,1,138.319998311523,12|0,0:0|0:0,0:0:0:0:
141,355,57269,2,0,P|145:287|115:227,1,120.119999633423,0|0,1:0|0:0,0:0:0:0:
57,123,57563,2,0,L|52:185,1,50.9600006220703,0|0,1:0|0:0,0:0:0:0:
58,307,57759,6,0,B|129:278|129:278|213:289,1,147.420003599121,12|0,0:0|0:0,0:0:0:0:
404,321,58054,2,0,P|322:289|305:195,1,156.520002388306,0|0,1:0|0:0,0:0:0:0:
392,74,58348,2,0,P|389:147|386:157,1,64.609996746628,0|0,1:0|0:0,0:0:0:0:
195,126,58544,6,0,B|56:123|56:123|145:100,1,174.720004265625,12|0,0:0|0:0,0:0:0:0:
312,244,59132,6,0,L|313:264,2,20.9299992973938,4|0|0,0:0|0:0|0:0,0:0:0:0:
305,109,59328,2,0,L|308:169,1,41.8599985947876,4|0,0:0|0:0,0:0:0:0:
271,254,59524,6,0,L|311:243,1,41.8599985947876,8|0,0:0|0:0,0:0:0:0:
347,160,59720,2,0,L|294:146,1,41.8599985947876,8|0,0:0|0:0,0:0:0:0:
193,207,59916,1,4,0:0:0:0:
194,251,60014,1,0,0:0:0:0:
204,293,60112,6,0,P|265:295|377:258,1,166.529993139176,4|0,3:0|3:0,0:0:0:0:
238,227,60504,2,0,P|226:167|226:157,1,55.5099977130586,8|0,0:0|0:0,0:0:0:0:
313,120,60701,2,0,P|309:147|301:174,1,55.5099977130586,2|0,0:0|0:0,0:0:0:0:
246,48,60897,2,0,B|285:34|285:34|389:48,1,111.019995426117,0|0,1:0|0:0,0:0:0:0:
411,115,61191,1,0,3:0:0:0:
411,115,61289,2,0,L|419:202,1,55.5099977130586,8|0,0:0|0:0,0:0:0:0:
368,247,61485,2,0,L|362:302,1,55.5099977130586,2|0,0:0|0:0,0:0:0:0:
236,193,61681,6,0,B|160:174|160:226|47:192,1,166.529993139176,0|0,1:0|3:0,0:0:0:0:
119,130,62073,2,0,L|124:70,1,55.5099977130586,8|0,0:0|0:0,0:0:0:0:
190,19,62269,1,2,0:0:0:0:
224,24,62367,1,0,0:0:0:0:
253,30,62465,2,0,P|313:40|328:44,2,55.5099977130586,0|0|0,1:0|3:0|3:0,0:0:0:0:
257,218,62857,2,0,P|252:160|252:157,1,55.5099977130586,8|0,0:0|0:0,0:0:0:0:
352,165,63054,2,0,P|350:192|347:220,1,55.5099977130586,2|0,0:0|0:0,0:0:0:0:
236,267,63250,6,0,P|223:187|240:71,1,166.529993139176,0|0,1:0|3:0,0:0:0:0:
310,63,63642,2,0,L|376:68,1,55.5099977130586,8|0,0:0|0:0,0:0:0:0:
439,138,63838,2,0,L|373:143,1,55.5099977130586,2|0,0:0|0:0,0:0:0:0:
231,102,64034,2,0,P|137:94|80:108,1,111.019995426117,0|0,1:0|0:0,0:0:0:0:
91,302,64426,1,8,0:0:0:0:
175,176,64622,2,0,B|182:240|182:240|165:303,1,111.019995426117,2|0,0:0|1:0,0:0:0:0:
70,155,65014,1,2,0:0:0:0:
256,192,65210,2,0,L|377:184,1,111.019995426117,10|0,0:0|0:0,0:0:0:0:
497,267,65603,6,0,L|431:262,1,55.5099977130586,0|0,1:0|0:0,0:0:0:0:
306,110,65799,2,0,L|240:105,1,55.5099977130586,0|0,1:0|1:0,0:0:0:0:
149,216,65995,5,8,0:0:0:0:
204,217,66093,1,0,3:0:0:0:
259,212,66191,1,0,3:0:0:0:
314,201,66289,1,0,3:0:0:0:
366,184,66387,6,0,B|412:169|412:169|273:144,1,166.529993139176,4|0,3:0|3:0,0:0:0:0:
156,128,66779,2,0,L|226:125,1,55.5099977130586,8|0,0:0|0:0,0:0:0:0:
386,92,66975,2,0,L|307:77,1,55.5099977130586,2|0,0:0|0:0,0:0:0:0:
107,55,67171,2,0,B|76:108|76:108|85:172,1,111.019995426117,0|0,1:0|0:0,0:0:0:0:
110,243,67465,1,0,3:0:0:0:
110,243,67563,2,0,P|171:249|185:247,1,55.5099977130586,8|0,0:0|0:0,0:0:0:0:
255,204,67759,2,0,P|282:204|309:210,1,55.5099977130586,2|0,0:0|0:0,0:0:0:0:
386,265,67955,6,0,B|426:183|364:183|403:78,1,166.529993139176,0|0,1:0|3:0,0:0:0:0:
434,23,68348,2,0,P|370:16|361:19,1,55.5099977130586,8|0,0:0|0:0,0:0:0:0:
295,75,68544,1,2,0:0:0:0:
250,76,68642,1,0,0:0:0:0:
206,72,68740,2,0,P|143:55|133:51,2,55.5099977130586,0|0|0,1:0|3:0|3:0,0:0:0:0:
397,110,69132,2,0,L|403:174,1,55.5099977130586,8|0,0:0|0:0,0:0:0:0:
320,262,69328,2,0,L|325:206,1,55.5099977130586,2|0,0:0|3:0,3:0:0:0:
416,52,69524,6,0,L|430:244,1,166.529993139176,0|0,1:0|3:0,0:0:0:0:
408,301,69916,1,8,0:0:0:0:
324,103,70112,1,2,0:0:0:0:
503,161,70308,1,0,1:0:0:0:
254,227,70505,1,2,0:0:0:0:
388,160,70701,1,8,0:0:0:0:
310,295,70897,6,0,P|245:304|191:287,1,111.019995426117,2|0,0:0|1:0,0:0:0:0:
255,219,71289,1,2,0:0:0:0:
127,355,71485,2,0,L|118:235,1,111.019995426117,8|0,0:0|0:0,0:0:0:0:
53,166,71779,1,0,3:0:0:0:
53,166,71877,2,0,L|122:168,1,55.5099977130586,0|0,1:0|0:0,0:0:0:0:
244,127,72073,2,0,L|183:113,1,55.5099977130586,0|0,1:0|0:0,0:0:0:0:
50,55,72269,2,0,L|105:53,1,55.5099977130586,8|0,0:0|0:0,0:0:0:0:
306,43,72465,6,0,B|328:107|328:107|321:176|321:176|349:271,1,222.039990852234,4|2,1:0|0:0,0:0:0:0:
382,32,73054,2,0,B|405:95|405:95|398:152,1,111.019995426117,8|2,0:0|0:0,0:0:0:0:
268,266,73446,2,0,B|245:203|245:203|250:159,1,111.019995426117,0|2,1:0|0:0,0:0:0:0:
293,78,73740,1,0,3:0:0:0:
249,70,73838,1,8,0:0:0:0:
205,78,73936,1,0,3:0:0:0:
166,99,74034,2,0,P|149:171|149:181,1,55.5099977130586,0|0,3:0|3:0,0:0:0:0:
207,314,74230,6,0,B|241:266|241:266|253:123,1,166.529993139176,4|0,1:0|0:0,0:0:0:0:
156,249,74622,2,0,P|233:243|298:330,1,166.529993139176,8|0,0:0|0:0,0:0:0:0:
354,368,75014,2,0,B|368:314|368:314|360:240,1,120.119999633423,0|0,1:0|0:0,0:0:0:0:
315,180,75308,2,0,P|305:117|320:45,1,129.219993493256,0|0,1:0|0:0,0:0:0:0:
408,40,75603,6,0,B|340:24|340:24|254:41|254:41|179:30,1,222.039990852234,4|2,1:0|0:0,0:0:0:0:
408,124,76191,1,8,0:0:0:0:
116,128,76387,1,0,3:0:0:0:
160,123,76485,1,0,3:0:0:0:
204,119,76583,1,0,1:0:0:0:
24,192,76779,1,0,1:0:0:0:
316,192,76975,2,0,P|244:184|236:184,1,55.5099977130586,8|0,0:0|3:0,0:0:0:0:
80,260,77171,2,0,P|152:268|160:268,1,55.5099977130586,8|4,3:0|3:0,3:0:0:0:
368,304,77367,6,0,P|260:308|200:376,1,166.529993139176,4|0,1:0|0:0,0:0:0:0:
308,368,77759,2,0,B|288:316|288:316|296:256|296:256|280:180,1,166.529993139176,8|0,0:0|0:0,0:0:0:0:
224,144,78152,2,0,P|288:120|340:136,1,111.019995426117,0|0,1:0|0:0,0:0:0:0:
285,200,78446,1,0,1:0:0:0:
222,128,78544,2,0,P|287:104|337:118,1,111.019995426117,8|0,0:0|0:0,0:0:0:0:
300,300,78936,5,12,0:0:0:0:
262,35,79132,1,2,0:0:0:0:
216,267,79328,5,8,0:0:0:0:
409,149,79524,1,0,1:0:0:0:
409,149,79622,1,0,1:0:0:0:
409,149,79720,6,0,P|334:144|285:144,1,111.019995426117,8|2,0:0|0:0,0:0:0:0:
83,222,80112,1,8,0:0:0:0:
358,221,80308,6,0,P|377:286|383:349,1,111.019995426117,0|0,1:0|0:0,0:0:0:0:
171,272,80701,2,0,P|176:211|179:199,1,55.5099977130586,0|0,1:0|0:0,0:0:0:0:
207,67,80897,6,0,B|238:21|238:21|304:210,1,207.479997467285,4|0,1:0|0:0,0:0:0:0:
237,45,81289,6,0,B|254:15|254:15|292:126,1,141.959999133545,4|8,1:0|3:0,0:0:0:0:
302,258,81975,1,8,3:0:0:0:
302,258,82073,6,0,P|244:254|186:236,1,92.8200005665283,6|0,1:0|0:0,0:0:0:0:
119,119,82465,1,8,0:0:0:0:
130,308,82661,2,0,P|118:250|115:199,1,92.8200005665283,2|0,0:0|0:0,0:0:0:0:
187,53,83054,1,2,0:0:0:0:
205,258,83250,1,10,0:0:0:0:
30,183,83446,1,2,0:0:0:0:
272,195,83642,6,0,B|199:176|199:176|159:184,1,92.8200005665283,2|0,1:0|0:0,0:0:0:0:
47,340,84034,2,0,L|177:325,1,92.8200005665283,8|0,0:0|0:0,0:0:0:0:
249,116,84426,1,2,1:0:0:0:
314,342,84622,1,0,0:0:0:0:
207,256,84818,1,10,0:0:0:0:
407,297,85014,6,0,P|330:302|210:365,1,185.640001133057,4|2,1:0|0:0,0:0:0:0:
388,215,85603,2,0,P|403:151|404:115,1,92.8200005665283,8|0,0:0|0:0,0:0:0:0:
205,45,85995,1,2,1:0:0:0:
109,269,86191,1,2,0:0:0:0:
322,154,86387,1,10,0:0:0:0:
69,140,86583,5,6,1:0:0:0:
256,192,86681,12,0,87367,0:0:0:0:
