osu file format v14

[General]
AudioFilename: ore moechan no xinely.mp3
AudioLeadIn: 0
PreviewTime: 57661
Countdown: 0
SampleSet: Soft
StackLeniency: 0.3
Mode: 0
LetterboxInBreaks: 0
WidescreenStoryboard: 0

[Editor]
Bookmarks: 505,44426,86583
DistanceSpacing: 1.6
BeatDivisor: 8
GridSize: 4
TimelineZoom: 3.1

[Metadata]
Title:Alola!!
TitleUnicode:アローラ!!
Artist:Satoshi with Pikachu (CV:Matsumoto Rica/Otani Ikue)
ArtistUnicode:サトシwithピカチュウ (CV:松本梨香/大谷育江)
Creator:Xinely
Version:GeroNely's Insane
Source:ポケットモンスター サン&ムーン
Tags:Pokemon Pocket Monster Sun and Moon Sotarks Akitoshi Corinn Gero
BeatmapID:1179194
BeatmapSetID:547994

[Difficulty]
HPDrainRate:7
CircleSize:4
OverallDifficulty:7
ApproachRate:8.7
SliderMultiplier:1.6
SliderTickRate:2

[Events]
//Background and Video events
0,0,"liliewaifu.jpg",0,0
Video,0,"Lanturn moe.avi"
//Break Periods
//Storyboard Layer 0 (Background)
//Storyboard Layer 1 (Fail)
//Storyboard Layer 2 (Pass)
//Storyboard Layer 3 (Foreground)
//Storyboard Sound Samples
Sample,21681,0,"soft-hitclap69.wav",40
Sample,24818,0,"soft-hitclap69.wav",40
Sample,26387,0,"soft-hitclap69.wav",40
Sample,41289,0,"soft-hitclap69.wav",60

[TimingPoints]
505,392.156862745098,4,2,69,50,1,0
1093,-100,4,2,69,20,0,0
1289,-100,4,2,69,50,0,0
1877,-100,4,2,69,20,0,0
2073,-100,4,2,69,50,0,0
2661,-100,4,2,69,20,0,0
2857,-100,4,2,69,50,0,0
3446,-100,4,2,69,20,0,0
3642,-100,4,2,69,50,0,0
4230,-100,4,2,69,20,0,0
4426,-100,4,2,69,50,0,0
5014,-100,4,2,69,20,0,0
5210,-100,4,2,69,50,0,0
6779,-83.3333333333333,4,2,69,70,0,0
8642,-83.3333333333333,4,2,69,5,0,0
8740,-83.3333333333333,4,2,69,70,0,0
9034,-83.3333333333333,4,2,69,5,0,0
9132,-83.3333333333333,4,2,69,70,0,0
14916,-83.3333333333333,4,2,69,5,0,0
15014,-83.3333333333333,4,2,69,70,0,0
15308,-83.3333333333333,4,2,69,5,0,0
15406,-83.3333333333333,4,2,69,70,0,0
18740,-100,4,2,0,50,0,0
19328,-100,4,2,69,50,0,0
28642,-100,4,2,69,5,0,0
28740,-100,4,2,69,70,0,0
29426,-100,4,2,69,5,0,0
29524,-100,4,2,69,70,0,0
31877,-100,4,2,69,70,0,0
60112,-83.3333333333333,4,2,69,80,0,1
66387,-83.3333333333333,4,2,69,80,0,1
80896,-111.111111111111,4,2,69,80,0,1
82073,-83.3333333333333,4,2,69,70,0,0
86975,-100,4,2,69,40,0,0
87171,-100,4,2,69,20,0,0

[Colours]
Combo1 : 255,128,128
Combo2 : 0,128,255
Combo3 : 128,128,192
Combo4 : 255,255,62

[HitObjects]
113,372,505,6,0,P|151:383|189:372,1,80,2|0,0:0|0:0,0:0:0:0:
256,304,897,1,2,0:0:0:0:
323,372,1093,1,6,0:3:0:0:
323,372,1191,1,6,0:3:0:0:
323,372,1289,2,0,P|361:383|399:372,1,80,2|0,0:0|0:0,0:0:0:0:
466,304,1681,1,2,0:0:0:0:
398,236,1877,1,6,0:3:0:0:
398,236,1975,1,6,0:3:0:0:
398,236,2073,6,0,P|380:180|398:124,1,120,2|0,0:0|0:0,0:0:0:0:
456,81,2465,1,2,0:0:0:0:
375,13,2661,1,6,0:3:0:0:
375,13,2759,1,6,0:3:0:0:
375,13,2857,2,0,B|356:7|356:7|337:13,2,40,2|0|0,0:0|0:0|0:0,0:0:0:0:
256,81,3250,2,0,B|218:94|218:94|180:81,1,80,2|6,0:0|0:3,0:0:0:0:
120,45,3544,1,6,0:3:0:0:
120,45,3642,6,0,B|121:67|135:81|135:81|121:95|120:117,1,80,2|0,0:0|0:0,0:0:0:0:
56,192,4034,1,2,0:0:0:0:
120,267,4230,1,6,0:3:0:0:
120,267,4328,1,6,0:3:0:0:
120,267,4426,1,2,0:0:0:0:
56,192,4622,1,0,0:0:0:0:
120,117,4818,6,0,P|158:106|196:117,1,80,2|6,0:0|0:3,0:0:0:0:
256,160,5112,1,6,0:3:0:0:
256,160,5210,2,0,P|312:178|368:160,1,120,2|0,0:0|0:0,0:0:0:0:
428,116,5603,1,2,0:0:0:0:
484,192,5799,6,0,L|496:168,2,20,8|8|8,0:0|0:0|0:0,0:0:0:0:
428,244,5995,2,0,L|409:208,2,40,2|8|8,0:0|0:0|0:0,0:0:0:0:
312,288,6387,5,2,0:0:0:0:
285,274,6485,1,2,0:0:0:0:
256,268,6583,1,8,0:0:0:0:
226,274,6681,1,8,0:0:0:0:
200,288,6779,6,0,P|216:244|200:200,1,95.9999970703126,4|0,0:0|0:0,0:0:0:0:
256,120,7171,1,8,0:0:0:0:
312,199,7367,1,0,0:0:0:0:
312,199,7465,1,0,0:0:0:0:
312,199,7563,2,0,P|296:243|312:287,1,95.9999970703126,2|0,0:0|0:0,0:0:0:0:
256,368,7955,1,8,0:0:0:0:
200,288,8152,1,0,0:0:0:0:
200,288,8250,1,0,0:0:0:0:
200,288,8348,6,0,B|172:236|124:236|124:236|77:236,1,143.999995605469,2|0,0:0|0:0,0:0:0:0:
12,192,8740,2,0,B|58:192|58:192|106:192|134:140,1,143.999995605469,8|0,0:0|0:0,0:0:0:0:
200,96,9132,2,0,L|179:52,2,47.9999985351563,2|0|0,0:0|0:0|0:0,0:0:0:0:
256,172,9524,1,8,0:0:0:0:
312,96,9720,1,0,0:0:0:0:
312,96,9916,6,0,B|382:96|382:96|434:148,1,143.999995605469,2|0,0:0|0:0,0:0:0:0:
495,105,10308,1,8,0:0:0:0:
370,192,10505,1,0,0:0:0:0:
370,192,10603,1,0,0:0:0:0:
370,192,10701,1,2,0:0:0:0:
495,279,10897,1,0,0:0:0:0:
495,279,10995,1,0,0:0:0:0:
495,279,11093,2,0,P|511:323|495:367,1,95.9999970703126,8|0,0:0|0:0,0:0:0:0:
256,260,11485,6,0,B|232:192|232:192|256:124,1,143.999995605469,2|0,0:0|0:0,0:0:0:0:
312,72,11877,1,8,0:0:0:0:
410,136,12073,1,0,0:0:0:0:
410,136,12171,1,0,0:0:0:0:
410,136,12269,2,0,B|410:160|426:184|448:192|448:192|426:200|410:224|410:248,1,143.999995605469,2|0,0:0|0:0,0:0:0:0:
433,316,12661,2,0,B|410:323|410:323|387:316,2,47.9999985351563,8|8|8,0:0|0:0|0:0,0:0:0:0:
495,279,12955,1,8,0:0:0:0:
495,279,13054,6,0,B|458:248|458:248|410:248,1,95.9999970703126,4|0,0:0|0:0,0:0:0:0:
332,192,13446,1,8,0:0:0:0:
410,136,13642,1,0,0:0:0:0:
410,136,13740,1,0,0:0:0:0:
410,136,13838,2,0,B|458:136|458:136|495:105,1,95.9999970703126,2|0,0:0|0:0,0:0:0:0:
332,192,14230,1,8,0:0:0:0:
254,136,14426,1,0,0:0:0:0:
254,136,14524,1,0,0:0:0:0:
254,136,14622,6,0,B|222:160|222:160|222:224|222:224|254:248,1,143.999995605469,2|0,0:0|0:0,0:0:0:0:
310,304,15014,2,0,L|166:304,1,143.999995605469,8|0,0:0|0:0,0:0:0:0:
110,360,15406,1,2,0:0:0:0:
41,291,15603,1,0,0:0:0:0:
108,223,15799,2,0,P|126:180|108:137,1,95.9999970703126,8|0,0:0|0:0,0:0:0:0:
44,67,16191,6,0,P|108:39|172:67,2,143.999995605469,4|2|2,0:0|0:0|0:0,0:0:0:0:
256,276,16975,2,0,B|256:217|256:217|260:209|260:209|252:209|252:209|256:201|256:201|256:142,2,143.999995605469,4|2|2,0:0|0:0|0:0,0:0:0:0:
468,67,17759,2,0,P|404:39|340:67,2,143.999995605469,4|2|2,0:0|0:0|0:0,0:0:0:0:
208,192,18740,5,2,0:0:0:0:
256,276,18936,1,0,0:0:0:0:
304,192,19132,1,2,0:0:0:0:
256,108,19328,6,0,B|304:80|352:108|352:108|410:108,1,160,12|8,0:0|0:0,0:0:0:0:
455,24,19916,1,2,0:3:0:0:
410,108,20112,1,8,0:0:0:0:
456,192,20308,1,2,0:3:0:0:
456,192,20406,1,2,0:3:0:0:
456,192,20505,2,0,P|469:229|456:266,1,80,8|2,0:0|0:3,0:0:0:0:
388,333,20897,5,8,0:0:0:0:
320,265,21093,1,2,0:3:0:0:
372,348,21289,1,8,0:0:0:0:
304,280,21485,2,0,L|180:381,1,160,2|2,0:3|0:3,0:0:0:0:
112,313,22073,1,8,0:0:0:0:
179,245,22269,1,2,0:3:0:0:
179,245,22367,1,2,0:3:0:0:
179,245,22465,6,0,P|209:173|179:101,1,160,8|8,0:0|0:0,0:0:0:0:
256,44,23054,1,2,0:3:0:0:
332,101,23250,2,0,B|359:101|359:101|367:105|367:105|367:97|367:97|375:101|375:101|402:101,1,80,8|2,0:0|0:3,0:0:0:0:
256,158,23642,2,0,B|229:158|229:158|221:162|221:162|221:154|221:154|213:158|213:158|186:158,1,80,8|2,0:0|0:3,0:0:0:0:
332,215,24034,6,0,B|359:215|359:215|367:211|367:211|367:219|367:219|375:215|375:215|402:215,1,80,8|2,0:0|0:3,0:0:0:0:
402,215,24328,1,2,0:3:0:0:
402,215,24426,1,8,0:0:0:0:
469,146,24622,2,0,B|509:215|509:215|469:284,1,160,2|2,0:3|0:3,0:0:0:0:
401,353,25210,1,8,0:0:0:0:
334,284,25406,1,2,0:3:0:0:
334,284,25504,1,2,0:3:0:0:
334,284,25603,6,0,B|256:267|256:267|178:284,1,160,8|8,0:0|0:0,0:0:0:0:
196,192,26191,2,0,B|224:192|248:172|256:147|256:147|264:172|288:192|316:192,1,160,2|2,0:3|0:3,0:0:0:0:
256,268,26779,1,8,0:0:0:0:
220,76,26975,1,2,0:3:0:0:
220,76,27073,1,2,0:3:0:0:
220,76,27171,6,0,P|256:61|292:76,1,80,8|2,0:0|0:3,0:0:0:0:
196,192,27563,2,0,B|169:192|169:192|161:196|161:196|161:188|161:188|153:192|153:192|126:192,1,80,8|2,0:0|0:3,0:0:0:0:
316,192,27955,2,0,B|343:192|343:192|351:196|351:196|351:188|351:188|359:192|359:192|386:192,1,80,8|2,0:0|0:3,0:0:0:0:
386,192,28250,1,2,0:3:0:0:
386,192,28348,1,8,0:0:0:0:
256,268,28544,6,0,L|227:296,1,40,2|0,0:0|0:0,0:0:0:0:
300,328,28740,2,0,B|232:328|232:328|212:336|212:336|142:336,1,160,12|0,0:0|0:0,0:0:0:0:
256,116,29328,6,0,L|284:87,1,40,2|0,0:0|0:0,0:0:0:0:
212,56,29524,2,0,B|280:56|280:56|300:48|300:48|370:48,1,160,12|8,0:0|0:0,0:0:0:0:
256,268,30112,5,4,0:0:0:0:
256,268,30504,5,2,0:3:0:0:
256,116,30701,1,4,0:0:0:0:
228,297,30897,1,2,0:3:0:0:
284,87,31093,1,4,0:0:0:0:
284,87,31485,5,8,0:0:0:0:
228,297,31681,1,8,0:0:0:0:
228,297,31779,1,8,0:0:0:0:
228,297,31877,6,0,B|190:309|190:309|152:297,1,80,4|2,0:0|0:0,0:0:0:0:
86,335,32171,1,2,0:0:0:0:
86,335,32269,2,0,B|74:297|74:297|86:259,1,80,8|2,0:0|0:0,0:0:0:0:
284,87,32661,2,0,B|322:75|322:75|360:87,1,80,8|2,0:0|0:0,0:0:0:0:
426,49,32955,1,2,0:0:0:0:
426,49,33054,2,0,B|438:87|438:87|426:125,1,80,8|2,0:0|0:0,0:0:0:0:
151,164,33446,6,0,B|139:126|139:126|151:88,1,80,8|2,0:0|0:0,0:0:0:0:
113,22,33740,1,2,0:0:0:0:
113,22,33838,2,0,B|151:10|151:10|189:22,1,80,8|2,0:0|0:0,0:0:0:0:
361,220,34230,2,0,B|373:258|373:258|361:296,1,80,8|2,0:0|0:0,0:0:0:0:
399,362,34524,1,2,0:0:0:0:
399,362,34622,2,0,B|361:374|361:374|323:362,1,80,8|2,0:0|0:0,0:0:0:0:
37,266,35014,6,0,P|24:229|37:192,1,80,8|2,0:0|0:0,0:0:0:0:
110,155,35308,1,2,0:0:0:0:
110,155,35406,6,0,P|97:192|110:229,1,80,8|2,0:0|0:0,0:0:0:0:
183,266,35701,1,2,0:0:0:0:
183,266,35799,6,0,P|170:229|183:192,1,80,8|2,0:0|0:0,0:0:0:0:
256,155,36093,1,2,0:0:0:0:
256,155,36191,6,0,P|243:192|256:229,1,80,8|2,0:0|0:0,0:0:0:0:
329,266,36485,1,2,0:0:0:0:
329,266,36583,6,0,P|316:229|329:192,1,80,8|2,0:0|0:0,0:0:0:0:
402,155,36877,1,2,0:0:0:0:
402,155,36975,6,0,P|389:192|402:229,1,80,8|2,0:0|0:0,0:0:0:0:
475,266,37269,1,2,0:0:0:0:
475,266,37367,5,8,0:0:0:0:
329,266,37563,1,2,0:0:0:0:
329,118,37759,1,8,0:0:0:0:
475,118,37955,1,2,0:0:0:0:
475,118,38054,1,2,0:0:0:0:
475,118,38152,6,0,P|488:155|475:192,1,80,8|2,0:0|0:0,0:0:0:0:
402,229,38446,1,2,0:0:0:0:
402,229,38544,6,0,P|415:192|402:155,1,80,8|2,0:0|0:0,0:0:0:0:
329,118,38838,1,2,0:0:0:0:
329,118,38936,6,0,P|342:155|329:192,1,80,8|2,0:0|0:0,0:0:0:0:
256,229,39230,1,2,0:0:0:0:
256,229,39328,6,0,P|269:192|256:155,1,80,8|2,0:0|0:0,0:0:0:0:
183,118,39622,1,2,0:0:0:0:
183,118,39720,6,0,P|196:155|183:192,1,80,8|2,0:0|0:0,0:0:0:0:
110,229,40014,1,2,0:0:0:0:
110,229,40112,6,0,P|123:192|110:155,1,80,8|2,0:0|0:0,0:0:0:0:
37,118,40406,1,2,0:0:0:0:
37,118,40505,6,0,P|50:155|37:192,1,80,8|2,0:0|0:0,0:0:0:0:
37,266,40799,1,2,0:0:0:0:
37,266,40897,5,8,0:0:0:0:
183,192,41093,2,0,P|256:163|329:192,1,160,2|2,0:0|0:0,0:0:0:0:
475,266,41681,1,8,0:0:0:0:
329,340,41877,1,2,0:0:0:0:
329,340,41975,1,2,0:0:0:0:
329,340,42073,1,8,0:0:0:0:
400,156,42269,2,0,B|418:192|418:192|400:228,1,80,2|8,0:0|0:0,0:0:0:0:
332,120,42661,6,0,L|471:43,1,160,12|12,0:0|0:0,0:0:0:0:
256,56,43250,2,0,L|326:18,1,80,12|12,0:0|0:0,0:0:0:0:
180,120,43642,5,8,0:0:0:0:
180,120,43740,1,8,0:0:0:0:
180,120,43838,1,8,0:0:0:0:
256,184,44034,5,8,0:0:0:0:
256,184,44132,1,8,0:0:0:0:
256,184,44230,1,8,0:0:0:0:
332,120,44426,6,0,P|351:154|356:194,1,80,6|0,0:0|0:0,0:0:0:0:
304,284,44818,1,8,0:0:0:0:
204,284,45014,1,0,0:0:0:0:
256,184,45210,1,2,0:0:0:0:
304,284,45406,1,0,0:0:0:0:
155,194,45603,2,0,P|160:154|179:120,1,80,8|0,0:0|0:0,0:0:0:0:
332,119,45995,6,0,P|352:154|357:194,2,80,2|0|8,0:0|0:0|0:0,0:0:0:0:
256,48,46583,2,0,L|76:40,1,160,0|8,0:0|0:0,0:0:0:0:
252,132,47171,2,0,L|150:126,1,80,8|0,0:0|0:0,0:0:0:0:
88,204,47563,6,0,L|248:212,1,160,2|8,0:0|0:0,0:0:0:0:
172,352,48152,1,0,0:0:0:0:
172,352,48250,1,0,0:0:0:0:
172,352,48348,1,2,0:0:0:0:
320,344,48544,1,0,0:0:0:0:
392,216,48740,1,8,0:0:0:0:
392,216,48838,1,0,0:0:0:0:
392,216,48936,1,0,0:0:0:0:
248,212,49132,6,0,P|208:213|169:223,1,80,2|0,0:0|0:0,0:0:0:0:
88,288,49524,1,8,0:0:0:0:
172,352,49720,2,0,P|244:356|332:324,1,160,0|8,0:0|0:0,0:0:0:0:
392,216,50308,1,8,0:0:0:0:
436,336,50504,1,0,0:0:0:0:
392,216,50701,6,0,L|308:220,1,80,4|0,0:0|0:0,0:0:0:0:
212,216,51093,1,8,0:0:0:0:
212,328,51289,1,0,0:0:0:0:
312,324,51485,1,2,0:0:0:0:
212,216,51681,2,0,L|204:116,1,80,0|8,0:0|0:0,0:0:0:0:
398,136,52073,6,0,L|390:232,1,80,4|0,0:0|0:0,0:0:0:0:
488,232,52465,1,0,0:0:0:0:
496,112,52661,1,8,0:0:0:0:
304,128,52857,2,0,L|296:212,1,80,0|2,0:0|0:0,0:0:0:0:
398,136,53250,1,8,0:0:0:0:
216,116,53446,1,8,0:0:0:0:
296,260,53642,1,0,0:0:0:0:
304,128,53838,6,0,P|304:79|296:40,1,80,2|0,0:0|0:0,0:0:0:0:
136,108,54230,1,8,0:0:0:0:
219,40,54426,2,0,P|258:39|307:52,1,80,0|2,0:0|0:0,0:0:0:0:
212,196,54818,2,0,P|172:196|124:184,1,80,0|8,0:0|0:0,0:0:0:0:
297,48,55210,6,0,P|337:48|381:56,1,80
460,116,55603,1,0,0:0:0:0:
376,176,55799,1,8,0:0:0:0:
460,240,55995,2,0,L|464:336,1,80,0|2,0:0|0:0,0:0:0:0:
264,288,56387,1,8,0:0:0:0:
460,240,56583,1,8,0:0:0:0:
376,320,56779,1,0,0:0:0:0:
376,176,56975,6,0,B|336:164|336:164|288:180,1,80,6|0,0:0|0:0,0:0:0:0:
256,208,57269,2,0,B|268:168|268:168|252:120,1,80,4|0,3:3|0:0,0:0:0:0:
224,92,57563,1,4,0:3:0:0:
0,176,57759,6,0,B|40:164|40:164|88:180,1,80,6|0,0:0|0:0,0:0:0:0:
120,208,58053,2,0,B|108:168|108:168|124:120,1,80,4|0,3:3|0:0,0:0:0:0:
152,92,58347,1,4,0:3:0:0:
300,144,58544,1,6,0:0:0:0:
296,128,59132,6,0,L|292:100,2,20,0|8|8,0:0|0:0|0:0,0:0:0:0:
400,100,59426,2,0,L|408:152,1,40,8|8,0:0|0:0,0:0:0:0:
428,240,59720,1,8,0:0:0:0:
368,328,59916,1,0,0:0:0:0:
368,328,60014,1,0,0:0:0:0:
368,328,60112,6,0,P|320:312|256:328,1,95.9999970703126,12|0,0:0|0:0,0:0:0:0:
96,276,60504,2,0,P|144:292|208:276,1,95.9999970703126,8|0,0:0|0:0,0:0:0:0:
196,148,60897,2,0,P|148:132|84:148,1,95.9999970703126,2|0,0:0|0:0,0:0:0:0:
188,285,61289,1,8,0:0:0:0:
288,160,61485,1,0,0:0:0:0:
288,160,61583,1,0,0:0:0:0:
288,160,61681,6,0,L|302:254,1,95.9999970703126,2|0,0:0|0:0,0:0:0:0:
464,156,62073,2,0,L|456:264,1,95.9999970703126,8|0,0:0|0:0,0:0:0:0:
455,268,62367,1,0,0:0:0:0:
454,285,62465,1,2,0:0:0:0:
368,216,62661,1,0,0:0:0:0:
372,344,62857,1,8,0:0:0:0:
228,212,63054,1,0,0:0:0:0:
228,344,63250,6,0,P|180:356|116:344,1,95.9999970703126,2|0,0:0|0:0,0:0:0:0:
134,218,63642,2,0,P|180:206|228:212,1,95.9999970703126,8|0,0:0|0:0,0:0:0:0:
72,264,64034,2,0,P|56:212|76:156,1,95.9999970703126
227,211,64426,1,8,0:0:0:0:
65,172,64622,6,0,P|113:84|205:55,1,191.999994140625,4|0,0:0|0:0,0:0:0:0:
227,211,65210,1,8,0:0:0:0:
296,60,65406,1,0,0:0:0:0:
336,212,65603,1,2,0:0:0:0:
400,72,65799,1,2,0:0:0:0:
400,72,65897,1,2,0:0:0:0:
400,72,65995,1,8,0:0:0:0:
440,216,66191,1,0,3:0:0:0:
440,216,66289,1,0,3:0:0:0:
440,216,66387,6,0,L|432:344,1,95.9999970703126,6|0,0:0|0:0,0:0:0:0:
280,208,66779,2,0,L|285:303,1,95.9999970703126,8|0,0:0|0:0,0:0:0:0:
333,140,67171,2,0,P|289:124|229:136,1,95.9999970703126,2|0,0:0|0:0,0:0:0:0:
104,144,67563,1,8,0:0:0:0:
241,130,67759,1,0,0:0:0:0:
118,238,67955,6,0,L|104:144,1,95.9999970703126,2|0,0:0|0:0,0:0:0:0:
255,224,68348,2,0,L|240:129,1,95.9999970703126,8|0,0:0|0:0,0:0:0:0:
236,112,68642,1,0,0:0:0:0:
232,94,68740,1,2,0:0:0:0:
356,112,68936,1,0,0:0:0:0:
472,132,69132,1,8,0:0:0:0:
424,20,69328,1,0,0:0:0:0:
356,112,69524,6,0,B|344:164|344:164|368:212,1,95.9999970703126,2|0,0:0|0:0,0:0:0:0:
464,328,69916,2,0,B|483:289|483:289|471:237,1,95.9999970703126,8|0,0:0|0:0,0:0:0:0:
363,202,70308,2,0,B|316:192|316:192|264:216,1,95.9999970703126,2|0,0:0|0:0,0:0:0:0:
328,304,70701,1,8,0:0:0:0:
400,132,70897,6,0,B|304:108|304:108|212:160,1,191.999994140625
200,168,71387,1,0,0:0:0:0:
176,176,71485,2,0,B|156:132|156:132|176:64,1,95.9999970703126,8|0,0:0|0:0,0:0:0:0:
272,212,71877,1,2,0:0:0:0:
320,68,72073,1,0,0:0:0:0:
408,204,72269,1,8,0:0:0:0:
212,76,72465,6,0,L|4:52,1,191.999994140625,4|0,0:0|0:0,0:0:0:0:
204,160,73054,2,0,L|88:144,1,95.9999970703126,8|0,0:0|0:0,0:0:0:0:
304,160,73446,2,0,L|420:144,1,95.9999970703126,10|0,0:0|0:0,0:0:0:0:
468,252,73838,1,8,0:0:0:0:
464,268,73936,1,0,0:0:0:0:
460,284,74034,1,8,0:0:0:0:
456,300,74132,1,8,0:0:0:0:
452,316,74230,6,0,B|400:292|400:292|296:324,1,143.999995605469,6|0,0:0|0:0,0:0:0:0:
280,336,74622,2,0,L|280:224,1,95.9999970703126,8|0,0:0|0:0,0:0:0:0:
452,172,75014,2,0,L|452:316,2,143.999995605469,2|2|6,0:0|0:0|0:0,0:0:0:0:
452,172,76191,5,12,0:0:0:0:
344,100,76387,2,0,L|236:100,2,95.9999970703126
332,224,76975,1,8,0:0:0:0:
332,240,77073,1,0,0:0:0:0:
332,256,77171,1,0,0:0:0:0:
332,272,77269,1,0,0:0:0:0:
332,288,77367,6,0,P|400:264|468:312,1,143.999995605469,6|0,0:0|0:0,0:0:0:0:
390,361,77759,2,0,P|354:330|326:265,1,95.9999970703126,8|0,0:0|0:0,0:0:0:0:
332,148,78152,1,2,0:0:0:0:
461,148,78348,1,0,0:0:0:0:
461,172,78446,1,0,0:0:0:0:
461,196,78544,2,0,L|461:312,1,95.9999970703126,8|0,0:0|0:0,0:0:0:0:
332,148,78936,6,0,P|284:136|228:156,1,95.9999970703126,4|0,0:0|0:0,0:0:0:0:
168,248,79328,1,12,0:0:0:0:
228,356,79524,1,2,0:0:0:0:
228,356,79622,1,2,0:0:0:0:
228,356,79720,6,0,P|276:368|332:348,1,95.9999970703126,12|0,0:0|0:0,0:0:0:0:
408,160,80112,1,8,0:0:0:0:
412,336,80308,1,6,0:0:0:0:
412,336,80701,5,0,0:0:0:0:
412,336,80897,2,0,P|384:292|448:316,1,143.999995605469,12|12,0:0|0:0,0:0:0:0:
408,160,81681,1,0,0:0:0:0:
404,152,81779,1,0,0:0:0:0:
400,144,81877,1,2,0:0:0:0:
396,136,81975,1,2,0:0:0:0:
391,125,82073,6,0,L|279:125,1,95.9999970703126,6|0,0:0|0:0,0:0:0:0:
344,28,82465,1,8,0:0:0:0:
448,208,82661,2,0,L|228:208,1,191.999994140625
300,296,83250,2,0,L|396:296,1,95.9999970703126,8|0,0:0|0:0,0:0:0:0:
256,208,83642,6,0,B|214:195|214:195|162:203,1,95.9999970703126,2|0,0:0|0:0,0:0:0:0:
76,296,84034,2,0,B|117:308|117:308|169:300,1,95.9999970703126,8|0,0:0|0:0,0:0:0:0:
256,208,84426,2,0,B|271:163|271:163|252:100,2,95.9999970703126,2|0|8,0:0|0:0|0:0,0:0:0:0:
344,260,85014,6,0,B|380:172|380:172|344:72,1,191.999994140625,4|0,0:0|0:0,0:0:0:0:
168,80,85603,2,0,B|148:128|148:128|165:170,1,95.9999970703126,8|0,0:0|0:0,0:0:0:0:
344,260,85995,1,2,0:0:0:0:
272,56,86191,1,0,0:0:0:0:
256,208,86387,1,8,0:0:0:0:
448,152,86583,1,6,0:0:0:0:
