osu file format v14

[General]
AudioFilename: ore moechan no xinely.mp3
AudioLeadIn: 0
PreviewTime: 57661
Countdown: 0
SampleSet: Soft
StackLeniency: 0.5
Mode: 0
LetterboxInBreaks: 0
WidescreenStoryboard: 0

[Editor]
Bookmarks: 6784,19333,31882,44431,60117,74235,87176
DistanceSpacing: 1.3
BeatDivisor: 4
GridSize: 8
TimelineZoom: 1

[Metadata]
Title:Alola!!
TitleUnicode:アローラ!!
Artist:Satoshi with Pikachu (CV:Matsumoto Rica/Otani Ikue)
ArtistUnicode:サトシwithピカチュウ (CV:松本梨香/大谷育江)
Creator:Xinely
Version:Corinn's Hard
Source:ポケットモンスター サン&ムーン
Tags:Pokemon Pocket Monster Sun and Moon Sotarks Akitoshi Corinn Gero
BeatmapID:1165246
BeatmapSetID:547994

[Difficulty]
HPDrainRate:5
CircleSize:3.7
OverallDifficulty:6
ApproachRate:7.5
SliderMultiplier:1.3
SliderTickRate:1

[Events]
//Background and Video events
0,0,"liliewaifu.jpg",0,0
Video,0,"Lanturn moe.avi"
//Break Periods
//Storyboard Layer 0 (Background)
//Storyboard Layer 1 (Fail)
//Storyboard Layer 2 (Pass)
//Storyboard Layer 3 (Foreground)
//Storyboard Sound Samples

[TimingPoints]
505,392.156862745098,4,2,69,50,1,0
6779,-90.9090909090909,4,2,69,70,0,0
16093,-90.9090909090909,4,2,69,20,0,0
16191,-90.9090909090909,4,2,69,70,0,0
19328,-100,4,2,69,50,0,0
28740,-100,4,2,69,70,0,0
31877,-90.9090909090909,4,2,69,70,0,0
60112,-83.3333333333333,4,2,69,80,0,1
66387,-83.3333333333333,4,2,69,80,0,1
82073,-90.9090909090909,4,2,69,70,0,0
86975,-90.9090909090909,4,2,69,40,0,0
87367,-90.9090909090909,4,2,69,5,0,0

[Colours]
Combo1 : 255,128,128
Combo2 : 0,128,255
Combo3 : 128,128,192
Combo4 : 255,255,62

[HitObjects]
327,78,505,6,0,P|371:60|464:70,2,130,2|2|2,0:0|0:0|0:0,0:0:0:0:
211,201,1681,1,2,0:0:0:0:
46,162,2073,2,0,L|57:25,1,130,2|2,0:0|0:0,0:0:0:0:
222,71,2857,2,0,L|211:208,1,130,2|2,0:0|0:0,0:0:0:0:
278,354,3642,6,0,P|343:353|404:331,2,130,2|2|2,0:0|0:0|0:0,0:0:0:0:
110,337,4818,1,2,0:0:0:0:
18,194,5210,2,0,L|30:34,1,130,2|2,0:0|0:0,0:0:0:0:
108,38,5799,1,8,0:0:0:0:
187,67,5995,2,0,P|251:85|313:77,1,130,2|2,0:0|0:0,0:0:0:0:
389,39,6583,1,8,0:0:0:0:
457,121,6779,6,0,P|468:154|465:216,1,71.5000021820069,6|0,0:0|0:0,0:0:0:0:
443,279,7171,1,8,0:0:0:0:
378,211,7367,2,0,B|311:196|307:240|223:218,1,143.000004364014
149,190,7955,1,8,0:0:0:0:
220,129,8152,1,0,0:0:0:0:
237,221,8348,6,0,L|239:308,1,71.5000021820069,2|0,0:0|0:0,0:0:0:0:
150,261,8740,2,0,L|148:174,1,71.5000021820069,8|0,0:0|0:0,0:0:0:0:
149,96,9132,1,2,0:0:0:0:
225,42,9328,1,0,0:0:0:0:
308,82,9524,1,8,0:0:0:0:
351,164,9720,6,0,B|359:213|359:213|348:254|348:254|362:317,1,143.000004364014,0|0,3:0|0:0,0:0:0:0:
429,364,10308,2,0,P|460:365|504:344,1,71.5000021820069,8|0,0:0|0:0,0:0:0:0:
446,272,10701,2,0,B|457:215|457:215|448:152,2,107.25000327301,2|0|0,0:0|0:0|0:0,0:0:0:0:
359,303,11485,6,0,P|315:310|232:258,1,143.000004364014,2|8,0:0|0:0,0:0:0:0:
185,182,12073,1,0,0:0:0:0:
168,90,12269,2,0,B|127:85|127:85|40:97,2,107.25000327301,2|0|0,0:0|0:0|0:0,0:0:0:0:
273,109,13054,6,0,L|353:102,1,71.5000021820069,6|0,0:0|0:0,0:0:0:0:
436,93,13446,1,8,0:0:0:0:
494,165,13642,2,0,P|501:238|460:302,1,143.000004364014
401,361,14230,1,8,0:0:0:0:
308,361,14426,1,0,0:0:0:0:
242,295,14622,6,0,L|153:299,1,71.5000021820069,2|0,0:0|0:0,0:0:0:0:
156,206,15014,2,0,L|245:202,1,71.5000021820069,8|0,0:0|0:0,0:0:0:0:
320,195,15406,1,2,0:0:0:0:
380,123,15603,1,0,0:0:0:0:
341,38,15799,2,0,P|287:23|229:36,1,107.25000327301,8|0,0:0|0:0,0:0:0:0:
199,59,16191,6,0,L|87:54,2,107.25000327301,6|2|2,0:0|0:0|0:0,0:0:0:0:
199,151,16975,2,0,L|87:146,2,107.25000327301,2|2|2,0:0|0:0|0:0,0:0:0:0:
199,243,17759,2,0,L|87:238,2,107.25000327301,6|2|2,0:0|0:0|0:0,0:0:0:0:
384,254,18740,5,0,0:0:0:0:
465,210,18936,1,0,0:0:0:0:
485,119,19132,1,0,0:0:0:0:
413,53,19328,6,0,B|346:35|346:82|273:55,1,130,6|2,0:0|0:0,0:0:0:0:
207,27,19916,1,0,0:0:0:0:
135,72,20112,2,0,L|138:149,1,65,2|0,0:0|0:0,0:0:0:0:
205,187,20505,2,0,L|202:264,1,65,2|0,0:0|0:0,0:0:0:0:
193,335,20897,5,2,0:0:0:0:
115,369,21093,1,0,0:0:0:0:
32,349,21289,1,2,0:0:0:0:
4,269,21485,2,0,B|4:180|4:180|19:141,1,130
68,73,22073,2,0,P|101:68|145:77,1,65,2|0,0:0|0:0,0:0:0:0:
210,140,22465,6,0,B|246:151|276:151|276:151|306:129|350:118,1,130,2|2,0:0|0:0,0:0:0:0:
415,110,23054,1,0,0:0:0:0:
499,114,23250,2,0,P|503:83|493:39,1,65,2|0,0:0|0:0,0:0:0:0:
413,45,23642,2,0,P|409:76|419:120,1,65,2|0,0:0|0:0,0:0:0:0:
452,184,24034,5,2,0:0:0:0:
474,265,24230,1,0,0:0:0:0:
429,336,24426,1,2,0:0:0:0:
346,352,24622,2,0,P|279:361|222:314,1,130
194,250,25210,1,2,0:0:0:0:
244,159,25406,6,0,L|378:149,1,130
458,141,25995,1,2,0:0:0:0:
438,58,26191,2,0,P|378:38|303:62,1,130
234,80,26779,1,2,0:0:0:0:
308,154,26975,6,0,B|329:195|329:195|317:301,1,130
299,360,27563,1,2,0:0:0:0:
230,311,27759,2,0,P|171:294|95:321,1,130
28,346,28348,2,0,P|22:310|31:269,1,65,2|0,0:0|0:0,0:0:0:0:
65,185,28740,5,6,0:0:0:0:
65,185,29328,1,2,0:0:0:0:
166,206,29524,2,0,P|199:211|251:199,1,65,6|0,0:0|0:0,0:0:0:0:
308,174,29916,1,0,3:0:0:0:
410,155,30112,6,0,P|443:216|434:291,1,130,6|0,0:0|0:0,0:0:0:0:
385,339,30701,2,0,L|296:334,1,65,6|0,0:0|0:0,0:0:0:0:
242,301,31093,2,0,L|153:296,1,65,6|0,0:0|0:0,0:0:0:0:
90,239,31485,1,6,0:0:0:0:
165,167,31681,1,8,0:0:0:0:
165,167,31779,1,8,0:0:0:0:
165,167,31877,6,0,B|171:126|171:126|161:76|161:76|175:24,1,143.000004364014,6|8,0:0|0:0,0:0:0:0:
266,16,32465,1,0,0:0:0:0:
340,71,32661,2,0,L|424:68,1,71.5000021820069,2|0,0:0|0:0,0:0:0:0:
434,159,33054,2,0,L|350:162,1,71.5000021820069,8|0,0:0|0:0,0:0:0:0:
270,176,33446,5,2,0:0:0:0:
225,257,33642,1,0,0:0:0:0:
276,334,33838,1,8,0:0:0:0:
320,253,34034,2,0,B|373:252|373:252|409:277|409:277|476:275,1,143.000004364014
510,205,34622,1,8,0:0:0:0:
482,116,34818,6,0,P|428:87|343:96,1,143.000004364014
257,113,35406,2,0,L|166:107,1,71.5000021820069,8|0,0:0|0:0,0:0:0:0:
170,200,35799,2,0,L|261:206,1,71.5000021820069,2|0,0:0|0:0,0:0:0:0:
320,253,36191,2,0,P|331:290|326:335,1,71.5000021820069,8|0,0:0|0:0,0:0:0:0:
250,372,36583,6,0,P|212:363|175:336,1,71.5000021820069,2|0,0:0|0:0,0:0:0:0:
120,278,36975,1,8,0:0:0:0:
170,200,37171,2,0,B|180:151|180:151|172:52,1,143.000004364014
256,18,37759,1,8,0:0:0:0:
324,100,37955,6,0,B|366:102|400:89|400:89|434:90|470:101,1,143.000004364014
507,182,38544,2,0,L|505:254,1,71.5000021820069,8|0,0:0|0:0,0:0:0:0:
421,294,38936,2,0,L|419:222,1,71.5000021820069,2|0,0:0|0:0,0:0:0:0:
337,178,39328,2,0,L|335:250,1,71.5000021820069,8|0,0:0|0:0,0:0:0:0:
328,346,39720,5,2,0:0:0:0:
328,346,39916,1,0,0:0:0:0:
241,374,40112,1,8,0:0:0:0:
241,374,40308,1,0,0:0:0:0:
162,323,40505,2,0,L|76:331,2,71.5000021820069,2|0|8,0:0|0:0|0:0,0:0:0:0:
228,239,41093,6,0,B|247:172|204:155|235:94,1,143.000004364014,0|0,3:0|0:0,0:0:0:0:
298,33,41681,2,0,P|336:25|384:32,1,71.5000021820069,8|0,0:0|0:0,0:0:0:0:
448,74,42073,2,0,P|456:112|449:160,1,71.5000021820069,2|0,0:0|0:0,0:0:0:0:
414,228,42465,1,8,0:0:0:0:
319,177,42661,6,0,B|267:172|267:172|223:185|223:185|157:180,1,143.000004364014,6|8,0:0|0:0,0:0:0:0:
70,171,43250,2,0,P|61:213|66:253,1,71.5000021820069,8|0,0:0|0:0,0:0:0:0:
171,251,43642,2,0,P|180:209|175:169,1,71.5000021820069,2|0,0:0|0:0,0:0:0:0:
139,80,44034,1,8,0:0:0:0:
218,7,44230,1,0,0:0:0:0:
296,80,44426,6,0,L|447:72,1,143.000004364014,6|8,0:0|0:0,0:0:0:0:
504,138,45014,1,0,0:0:0:0:
476,226,45210,2,0,L|482:302,1,71.5000021820069,2|0,0:0|0:0,0:0:0:0:
395,333,45603,2,0,L|389:257,1,71.5000021820069,8|0,0:0|0:0,0:0:0:0:
333,187,45995,5,2,0:0:0:0:
246,153,46191,1,0,0:0:0:0:
163,195,46387,1,8,0:0:0:0:
127,280,46583,2,0,P|57:279|6:231,1,143.000004364014,0|8,0:0|0:0,0:0:0:0:
0,138,47171,1,8,0:0:0:0:
92,189,47367,6,0,B|188:191|188:191|248:186,1,143.000004364014
327,188,47955,2,0,P|328:226|327:262,1,71.5000021820069,8|0,0:0|0:0,0:0:0:0:
420,260,48348,2,0,P|419:222|420:186,1,71.5000021820069,2|0,0:0|0:0,0:0:0:0:
512,184,48740,2,0,P|513:222|512:258,1,71.5000021820069,8|0,0:0|0:0,0:0:0:0:
488,345,49132,5,2,0:0:0:0:
402,382,49328,1,0,0:0:0:0:
311,359,49524,1,8,0:0:0:0:
256,284,49720,2,0,P|205:267|108:277,1,143.000004364014,0|8,0:0|0:0,0:0:0:0:
37,321,50308,1,8,0:0:0:0:
6,217,50504,6,0,L|10:75,1,143.000004364014,0|0,0:0|3:0,0:0:0:0:
92,31,51093,2,0,P|128:26|170:35,1,71.5000021820069,8|0,0:0|0:0,0:0:0:0:
238,84,51485,1,2,0:0:0:0:
270,171,51681,2,0,L|366:164,1,71.5000021820069,0|8,0:0|0:0,0:0:0:0:
448,168,52073,6,0,P|382:186|368:256,1,143.000004364014,0|0,3:0|0:0,0:0:0:0:
396,340,52661,1,8,0:0:0:0:
304,323,52857,2,0,B|239:307|228:352|153:327,1,143.000004364014,0|8,0:0|0:0,0:0:0:0:
107,255,53446,1,8,0:0:0:0:
195,225,53642,6,0,B|201:176|201:176|190:136|190:136|198:83,1,143.000004364014
274,32,54230,2,0,P|313:28|354:41,1,71.5000021820069,8|0,0:0|0:0,0:0:0:0:
415,94,54622,1,2,0:0:0:0:
438,183,54818,2,0,L|511:179,1,71.5000021820069,0|8,0:0|0:0,0:0:0:0:
466,277,55210,6,0,B|389:282|389:282|360:262|318:265,1,143.000004364014
330,372,55799,1,8,0:0:0:0:
233,325,55995,2,0,P|216:278|250:185,1,143.000004364014,0|8,0:0|0:0,0:0:0:0:
321,142,56583,2,0,L|308:66,1,71.5000021820069,8|0,0:0|0:0,0:0:0:0:
209,32,56975,6,0,B|133:27|133:27|84:34,2,107.25000327301,6|2|2,0:0|0:0|0:0,0:0:0:0:
309,72,57759,2,0,B|385:77|385:77|434:70,2,107.25000327301,6|2|2,0:0|0:0|0:0,0:0:0:0:
224,138,58544,5,6,0:0:0:0:
224,138,60112,6,0,L|131:135,1,77.999997619629,12|0,0:0|0:0,0:0:0:0:
137,236,60504,2,0,L|230:239,1,77.999997619629,8|0,0:0|0:0,0:0:0:0:
316,246,60897,2,0,P|320:292|314:327,2,77.999997619629,2|0|8,0:0|0:0|0:0,0:0:0:0:
309,144,61485,6,0,P|346:115|459:119,1,155.999995239258
503,201,62073,2,0,L|499:282,1,77.999997619629,8|0,0:0|0:0,0:0:0:0:
453,369,62465,2,0,P|406:375|310:315,1,155.999995239258,2|8,0:0|0:0,0:0:0:0:
244,249,63054,6,0,B|168:225|160:279|78:250,1,155.999995239258
22,179,63642,2,0,L|36:95,1,77.999997619629,8|0,0:0|0:0,0:0:0:0:
116,42,64034,2,0,L|130:126,2,77.999997619629,2|0|8,0:0|0:0|0:0,0:0:0:0:
229,69,64622,6,0,P|298:78|378:34,1,155.999995239258,4|0,0:0|0:0,0:0:0:0:
472,59,65210,2,0,B|479:98|479:98|476:140,1,77.999997619629,8|0,0:0|0:0,0:0:0:0:
449,234,65603,1,2,0:0:0:0:
376,305,65799,2,0,L|375:355,2,38.9999988098145,2|2|8,0:0|0:0|0:0,0:0:0:0:
189,222,66387,6,0,L|88:216,1,77.999997619629,6|0,0:0|0:0,0:0:0:0:
128,118,66779,2,0,L|212:123,1,77.999997619629,8|0,0:0|0:0,0:0:0:0:
298,80,67171,2,0,P|297:43|295:2,2,77.999997619629,2|0|8,0:0|0:0|0:0,0:0:0:0:
318,179,67759,6,0,B|356:187|396:168|396:168|433:165|475:187,1,155.999995239258
469,285,68348,2,0,P|429:299|387:297,1,77.999997619629,8|0,0:0|0:0,0:0:0:0:
295,274,68740,2,0,B|219:256|219:318|133:288,1,155.999995239258,2|8,0:0|0:0,0:0:0:0:
83,209,69328,6,0,B|117:186|154:190|154:190|138:152|158:106,1,155.999995239258
231,43,69916,2,0,B|269:38|269:38|316:44,1,77.999997619629,8|0,0:0|0:0,0:0:0:0:
403,77,70308,1,2,0:0:0:0:
325,143,70505,1,0,0:0:0:0:
420,177,70701,1,8,0:0:0:0:
343,243,70897,6,0,B|293:245|293:245|248:236|248:236|186:239,1,155.999995239258
103,295,71485,2,0,L|103:394,1,77.999997619629,8|0,0:0|0:0,0:0:0:0:
11,329,71877,2,0,L|11:230,1,77.999997619629,2|8,0:0|0:0,0:0:0:0:
86,183,72269,1,8,0:0:0:0:
188,238,72465,6,0,P|265:234|326:164,1,155.999995239258,4|0,0:0|0:0,0:0:0:0:
393,111,73054,2,0,L|486:105,1,77.999997619629,8|0,0:0|0:0,0:0:0:0:
432,12,73446,2,0,L|339:18,1,77.999997619629,2|0,0:0|0:0,0:0:0:0:
296,100,73838,1,8,0:0:0:0:
249,189,74034,1,8,0:0:0:0:
249,189,74132,1,8,0:0:0:0:
249,189,74230,6,0,L|151:184,1,77.999997619629,6|0,0:0|0:0,0:0:0:0:
156,285,74622,2,0,L|254:290,1,77.999997619629,8|0,0:0|0:0,0:0:0:0:
335,286,75014,2,0,B|394:271|394:271|480:279,1,116.999996429443,2|2,0:0|0:0,0:0:0:0:
511,136,75603,6,0,B|452:151|452:151|344:138,1,155.999995239258,6|0,0:0|0:0,0:0:0:0:
256,131,76191,1,4,0:0:0:0:
177,195,76387,2,0,P|171:272|216:342,1,155.999995239258
311,347,76975,2,0,P|351:336|395:341,1,77.999997619629,8|0,0:0|0:0,0:0:0:0:
466,274,77367,6,0,B|471:171|471:171|449:117,1,155.999995239258,6|8,0:0|0:0,0:0:0:0:
382,47,77955,1,0,0:0:0:0:
301,109,78152,2,0,L|170:103,1,116.999996429443,2|0,0:0|0:0,0:0:0:0:
133,100,78544,2,0,P|122:139|122:187,1,77.999997619629,8|0,0:0|0:0,0:0:0:0:
169,282,78936,6,0,P|208:293|256:293,1,77.999997619629,12|0,0:0|0:0,0:0:0:0:
344,275,79328,1,12,0:0:0:0:
396,191,79524,1,2,0:0:0:0:
396,191,79622,1,2,0:0:0:0:
396,191,79720,2,0,L|386:101,2,77.999997619629,12|0|8,0:0|0:0|0:0,0:0:0:0:
424,288,80308,6,0,P|460:269|493:215,1,77.999997619629,6|0,0:0|0:0,0:0:0:0:
483,138,80701,1,2,0:0:0:0:
396,191,80897,2,0,L|293:182,1,77.999997619629,12|0,0:0|0:0,0:0:0:0:
248,110,81289,2,0,L|77:124,1,155.999995239258,12|0,0:0|0:0,0:0:0:0:
14,188,81877,1,2,0:0:0:0:
14,188,81975,1,2,0:0:0:0:
14,188,82073,6,0,P|9:227|20:274,1,71.5000021820069,6|0,0:0|0:0,0:0:0:0:
88,313,82465,1,8,0:0:0:0:
115,224,82661,2,0,B|185:205|189:257|268:225,1,143.000004364014
313,157,83250,1,8,0:0:0:0:
221,141,83446,1,0,0:0:0:0:
254,229,83642,6,0,P|255:260|260:312,1,71.5000021820069,2|0,0:0|0:0,0:0:0:0:
351,314,84034,2,0,P|349:278|345:231,1,71.5000021820069,8|0,0:0|0:0,0:0:0:0:
385,158,84426,1,2,0:0:0:0:
437,234,84622,1,0,0:0:0:0:
477,150,84818,1,8,0:0:0:0:
385,158,85014,6,0,B|329:158|329:158|298:142|298:142|224:142,1,143.000004364014,4|0,0:0|0:0,0:0:0:0:
153,130,85603,2,0,P|146:83|143:50,1,71.5000021820069,8|0,0:0|0:0,0:0:0:0:
51,72,85995,2,0,P|58:119|61:152,1,71.5000021820069,2|0,0:0|0:0,0:0:0:0:
61,235,86387,1,8,0:0:0:0:
155,285,86583,6,0,B|218:271|218:271|291:301|291:301|356:254|435:275,1,286.000008728028,6|0,0:0|0:0,0:0:0:0:
