osu file format v14

[General]
AudioFilename: ore moechan no xinely.mp3
AudioLeadIn: 0
PreviewTime: 57661
Countdown: 0
SampleSet: Soft
StackLeniency: 0.7
Mode: 0
LetterboxInBreaks: 0
WidescreenStoryboard: 0

[Editor]
Bookmarks: 6784,19333,31882,44431,60117,74235
DistanceSpacing: 1
BeatDivisor: 4
GridSize: 4
TimelineZoom: 1

[Metadata]
Title:Alola!!
TitleUnicode:アローラ!!
Artist:Satoshi with Pikachu (CV:Matsumoto Rica/Otani Ikue)
ArtistUnicode:サトシwithピカチュウ (CV:松本梨香/大谷育江)
Creator:Xinely
Version:Normal
Source:ポケットモンスター サン&ムーン
Tags:Pokemon Pocket Monster Sun and Moon Sotarks Akitoshi Corinn Gero
BeatmapID:1165247
BeatmapSetID:547994

[Difficulty]
HPDrainRate:4
CircleSize:3
OverallDifficulty:4
ApproachRate:5
SliderMultiplier:1.1
SliderTickRate:1

[Events]
//Background and Video events
0,0,"liliewaifu.jpg",0,0
Video,0,"Lanturn moe.avi"
//Break Periods
//Storyboard Layer 0 (Background)
//Storyboard Layer 1 (Fail)
//Storyboard Layer 2 (Pass)
//Storyboard Layer 3 (Foreground)
//Storyboard Sound Samples

[TimingPoints]
505,392.156862745098,4,2,69,50,1,0
6779,-100,4,2,69,70,0,0
18936,-100,4,2,0,50,0,0
19328,-100,4,2,69,50,0,0
28740,-100,4,2,69,70,0,0
31877,-100,4,2,69,70,0,0
60112,-100,4,2,69,80,0,1
80701,-100,4,2,69,60,0,1
82073,-100,4,2,69,70,0,0

[Colours]
Combo1 : 255,128,128
Combo2 : 0,128,255
Combo3 : 128,128,192
Combo4 : 255,255,62

[HitObjects]
108,144,505,6,0,L|96:80,2,55,2|0|2,0:0|0:0|0:0,0:0:0:0:
168,236,1289,2,0,L|240:232,1,55,2|0,0:0|0:0,0:0:0:0:
276,232,1681,1,2,0:0:0:0:
372,180,2073,2,0,P|396:176|436:176,2,55,2|0|2,0:0|0:0|0:0,0:0:0:0:
292,100,2857,1,2,0:0:0:0:
184,124,3250,2,0,L|152:184,1,55,2|0,0:0|0:0,0:0:0:0:
132,220,3642,6,0,P|116:276|128:352,1,110,2|2,0:0|0:0,0:0:0:0:
228,356,4426,1,2,0:0:0:0:
332,316,4818,1,2,0:0:0:0:
412,240,5210,2,0,P|420:180|408:128,1,110,2|2,0:0|0:0,0:0:0:0:
388,84,5799,2,0,P|296:76|236:144,1,165,8|2,0:0|0:0,0:0:0:0:
160,188,6779,6,0,P|124:188|48:160,1,110,6|8,0:0|0:0,0:0:0:0:
12,128,7367,2,0,P|20:192|20:248,1,110,0|0,0:0|0:0,0:0:0:0:
24,292,7955,1,8,0:0:0:0:
112,356,8348,2,0,P|208:340|224:340,1,110,2|8,0:0|0:0,0:0:0:0:
328,328,9132,2,0,L|320:388,2,55,2|0|8,0:0|0:0|0:0,0:0:0:0:
332,272,9720,6,0,P|328:200|284:108,1,165,4|8,0:0|0:0,0:0:0:0:
204,48,10701,1,2,0:0:0:0:
124,124,11093,1,8,0:0:0:0:
176,220,11485,2,0,P|216:244|296:240,1,110,2|8,0:0|0:0,0:0:0:0:
384,268,12269,2,0,L|376:352,2,82.5,2|0|8,0:0|0:0|0:0,0:0:0:0:
384,212,13054,6,0,L|376:92,1,110,6|8,0:0|0:0,0:0:0:0:
388,48,13642,2,0,P|348:80|280:88,1,110
236,80,14230,1,8,0:0:0:0:
136,32,14622,2,0,L|120:148,1,110,2|8,0:0|0:0,0:0:0:0:
228,172,15406,1,2,0:0:0:0:
228,172,15603,2,0,L|236:248,1,55,0|8,0:0|0:0,0:0:0:0:
308,308,16191,6,0,L|404:320,2,82.5,6|4|4,0:0|0:3|0:3,0:0:0:0:
320,256,16975,2,0,L|388:192,2,82.5,2|4|4,0:0|0:3|0:3,0:0:0:0:
280,220,17759,2,0,L|272:112,2,82.5,6|4|6,0:0|0:3|0:0,0:0:0:0:
16,296,19328,6,0,L|16:172,1,110,6|2,0:0|0:0,0:0:0:0:
52,80,20112,1,2,0:0:0:0:
148,24,20505,1,2,0:0:0:0:
252,56,20897,2,0,L|324:40,2,55,2|0|2,0:0|0:0|0:0,0:0:0:0:
232,108,21485,2,0,P|220:160|220:180,1,55,0|2,0:0|0:0,0:0:0:0:
276,256,22073,1,2,0:0:0:0:
360,184,22465,6,0,P|412:168|476:180,1,110,2|2,0:0|0:0,0:0:0:0:
472,284,23250,2,0,P|420:300|356:288,1,110,2|2,0:0|0:0,0:0:0:0:
256,300,24034,2,0,L|244:364,2,55,2|0|2,0:0|0:0|0:0,0:0:0:0:
256,244,24622,2,0,L|240:168,1,55,0|2,0:0|0:0,0:0:0:0:
192,92,25210,1,2,0:0:0:0:
128,184,25603,6,0,B|92:208|92:208|20:200,1,110,2|2,0:0|0:0,0:0:0:0:
0,96,26387,2,0,B|36:72|36:72|108:80,1,110,2|2,0:0|0:0,0:0:0:0:
208,112,27171,1,2,0:0:0:0:
292,44,27563,1,2,0:0:0:0:
356,136,27955,1,2,0:0:0:0:
440,64,28348,1,2,0:0:0:0:
440,64,28544,6,0,L|452:132,1,55,0|6,0:0|0:0,0:0:0:0:
444,284,29328,2,0,L|436:348,1,55,2|6,0:0|0:0,0:0:0:0:
276,316,30112,2,0,P|192:304|160:312,1,110,6|0,0:0|0:0,0:0:0:0:
116,328,30701,2,0,L|100:256,1,55,6|0,0:0|0:0,0:0:0:0:
92,220,31093,1,6,0:0:0:0:
160,132,31485,2,0,L|184:200,1,55,6|8,0:0|0:0,0:0:0:0:
228,208,31877,6,0,P|280:220|352:200,1,110,6|8,0:0|0:0,0:0:0:0:
444,180,32661,2,0,L|436:256,1,55,2|0,0:0|0:0,0:0:0:0:
424,288,33054,1,8,0:0:0:0:
316,304,33446,2,0,L|300:251,2,55,2|0|8,0:0|0:0|0:0,0:0:0:0:
272,336,34034,2,0,P|232:332|200:332,1,55,0|2,0:0|0:0,0:0:0:0:
108,332,34622,1,8,0:0:0:0:
32,252,35014,6,0,P|24:188|36:136,1,110,2|8,0:0|0:0,0:0:0:0:
100,56,35799,2,0,L|168:52,1,55,2|0,0:0|0:0,0:0:0:0:
208,52,36191,1,8,0:0:0:0:
300,112,36583,2,0,L|316:180,2,55,2|0|8,0:0|0:0|0:0,0:0:0:0:
328,64,37171,2,0,P|356:56|396:60,1,55,0|2,0:0|0:0,0:0:0:0:
464,132,37759,1,8,0:0:0:0:
392,216,38152,6,0,P|388:268|404:340,1,110,2|8,0:0|0:0,0:0:0:0:
344,340,38740,1,0,0:0:0:0:
288,344,38936,2,0,P|236:336|160:348,1,110,2|8,0:0|0:0,0:0:0:0:
72,328,39720,1,2,0:0:0:0:
28,228,40112,1,8,0:0:0:0:
88,136,40505,1,2,0:0:0:0:
88,136,40701,6,0,P|136:144|208:124,1,110,0|0,0:0|0:0,0:0:0:0:
300,96,41485,1,0,0:0:0:0:
300,96,41681,2,0,P|284:140|300:224,1,110,8|2,0:0|0:0,0:0:0:0:
340,300,42465,1,8,0:0:0:0:
340,300,42661,6,0,P|276:292|220:308,1,110,6|8,0:0|0:0,0:0:0:0:
180,312,43250,2,0,L|184:232,1,55,8|8,0:0|0:0,0:0:0:0:
184,204,43642,1,2,0:0:0:0:
224,100,44034,1,8,0:0:0:0:
312,168,44426,6,0,P|364:176|428:144,1,110,6|8,0:0|0:0,0:0:0:0:
460,124,45014,1,0,0:0:0:0:
460,124,45210,2,0,P|460:176|484:232,1,110,2|8,0:0|0:0,0:0:0:0:
424,324,45995,2,0,L|452:384,2,55,2|0|8,0:0|0:0|0:0,0:0:0:0:
380,288,46583,1,0,0:0:0:0:
288,348,46975,1,8,0:0:0:0:
288,348,47171,1,8,0:0:0:0:
220,260,47563,6,0,P|168:252|104:284,1,110,2|8,0:0|0:0,0:0:0:0:
72,304,48152,1,0,0:0:0:0:
72,304,48348,2,0,P|72:252|48:196,1,110,2|8,0:0|0:0,0:0:0:0:
24,92,49132,2,0,L|8:24,2,55,2|0|8,0:0|0:0|0:0,0:0:0:0:
76,108,49720,1,0,0:0:0:0:
180,68,50112,1,8,0:0:0:0:
180,68,50308,1,8,0:0:0:0:
276,124,50701,6,0,P|264:196|276:244,1,110,4|8,0:0|0:0,0:0:0:0:
300,336,51485,1,2,0:0:0:0:
300,336,51681,2,0,L|372:332,1,55,0|8,0:0|0:0,0:0:0:0:
408,320,52073,2,0,P|424:264|400:192,1,110,4|0,0:0|0:0,0:0:0:0:
384,168,52661,2,0,L|392:96,1,55,8|0,0:0|0:0,0:0:0:0:
308,40,53250,1,8,0:0:0:0:
308,40,53446,1,8,0:0:0:0:
220,108,53838,6,0,P|176:120|100:104,1,110,2|8,0:0|0:0,0:0:0:0:
24,176,54622,1,2,0:0:0:0:
24,176,54818,2,0,L|32:256,1,55,0|8,0:0|0:0,0:0:0:0:
52,280,55210,2,0,P|128:276|176:296,1,110,0|0,0:0|0:0,0:0:0:0:
208,312,55799,2,0,L|260:264,1,55,8|0,0:0|0:0,0:0:0:0:
316,188,56387,1,8,0:0:0:0:
316,188,56583,1,8,0:0:0:0:
408,244,56975,6,0,L|424:332,2,82.5,6|4|4,0:0|0:3|0:3,0:0:0:0:
412,188,57759,2,0,P|448:172|496:172,2,82.5,6|4|4,0:0|0:3|0:3,0:0:0:0:
360,168,58544,1,6,0:0:0:0:
232,272,59132,6,0,L|228:340,1,55
92,232,59916,1,0,0:0:0:0:
92,232,60112,6,0,B|84:184|84:184|96:116,1,110,12|8,0:0|0:0,0:0:0:0:
192,72,60897,2,0,L|308:56,1,110,2|8,0:0|0:0,0:0:0:0:
356,44,61485,2,0,P|344:108|368:172,1,110,0|0,0:0|0:0,0:0:0:0:
368,204,62073,2,0,L|312:244,1,55,8|0,0:0|0:0,0:0:0:0:
276,264,62465,1,2,0:0:0:0:
168,268,62857,1,8,0:0:0:0:
124,168,63250,6,0,P|112:116|132:44,1,110,2|8,0:0|0:0,0:0:0:0:
164,24,63838,1,0,0:0:0:0:
164,24,64034,2,0,L|280:28,1,110,2|8,0:0|0:0,0:0:0:0:
312,68,64622,2,0,B|296:144|296:144|328:188,1,110,4|0,0:0|0:0,0:0:0:0:
352,208,65210,1,8,0:0:0:0:
460,188,65603,1,2,0:0:0:0:
480,296,65995,1,12,0:0:0:0:
372,316,66387,6,0,L|244:340,1,110,6|8,0:0|0:0,0:0:0:0:
156,316,67171,2,0,P|140:264|152:204,1,110,2|8,0:0|0:0,0:0:0:0:
196,180,67759,2,0,P|208:116|184:52,1,110
168,24,68348,2,0,L|224:20,1,55,8|0,0:0|0:0,0:0:0:0:
276,20,68740,1,2,0:0:0:0:
384,48,69132,1,8,0:0:0:0:
416,152,69524,6,0,P|428:204|408:276,1,110,2|8,0:0|0:0,0:0:0:0:
396,308,70112,1,0,0:0:0:0:
396,308,70308,2,0,P|341:293|280:304,1,110,2|8,0:0|0:0,0:0:0:0:
236,296,70897,2,0,B|228:256|252:220|252:220|220:176,1,110,2|0,0:0|0:0,0:0:0:0:
200,152,71485,1,8,0:0:0:0:
92,160,71877,2,0,L|88:104,1,55,2|8,0:0|0:0,0:0:0:0:
80,52,72269,1,8,0:0:0:0:
80,52,72465,6,0,L|196:48,1,110,4|8,0:0|0:0,0:0:0:0:
236,80,73054,2,0,P|248:108|252:156,1,55,8|8,0:0|0:0,0:0:0:0:
220,176,73446,1,10,0:0:0:0:
136,248,73838,1,8,0:0:0:0:
224,316,74230,5,6,0:0:0:0:
308,244,74622,1,8,0:0:0:0:
372,336,75014,2,0,L|456:320,2,82.5,2|2|6,0:0|0:0|0:0,0:0:0:0:
208,308,76191,1,12,0:0:0:0:
208,308,76387,2,0,P|192:248|212:184,1,110
224,152,76975,1,8,0:0:0:0:
320,208,77367,5,6,0:0:0:0:
392,124,77759,1,8,0:0:0:0:
320,40,78152,1,2,0:0:0:0:
212,36,78544,1,8,0:0:0:0:
156,132,78936,2,0,P|148:172|152:208,1,55,12|0,0:0|0:0,0:0:0:0:
188,224,79328,2,0,P|196:268|192:300,1,55,12|2,0:0|0:0,0:0:0:0:
148,304,79720,2,0,P|184:308|256:328,1,110,12|8,0:0|0:0,0:0:0:0:
304,352,80308,1,6,0:0:0:0:
392,288,80701,5,2,0:0:0:0:
392,288,80897,2,0,L|396:232,1,55,12|0,0:0|0:0,0:0:0:0:
408,180,81289,1,12,0:0:0:0:
364,80,81681,2,0,L|288:80,1,55,0|2,0:0|0:0,0:0:0:0:
256,96,82073,6,0,P|220:96|144:68,1,110,6|8,0:0|0:0,0:0:0:0:
104,48,82661,2,0,P|120:144|120:176,1,110,0|0,0:0|0:0,0:0:0:0:
120,212,83250,2,0,L|108:288,1,55,8|0,0:0|0:0,0:0:0:0:
100,320,83642,1,2,0:0:0:0:
208,316,84034,1,8,0:0:0:0:
316,316,84426,2,0,L|308:376,2,55,2|0|8,0:0|0:0|0:0,0:0:0:0:
324,264,85014,6,0,P|320:192|304:132,1,110,4|0,0:0|0:0,0:0:0:0:
292,104,85603,2,0,L|272:40,1,55,8|0,0:0|0:0,0:0:0:0:
220,40,85995,2,0,L|140:52,1,55,2|0,0:0|0:0,0:0:0:0:
112,64,86387,1,8,0:0:0:0:
72,104,86583,1,6,0:0:0:0:
