osu file format v14

[General]
AudioFilename: ore moechan no xinely.mp3
AudioLeadIn: 0
PreviewTime: 57661
Countdown: 0
SampleSet: Soft
StackLeniency: 0.7
Mode: 0
LetterboxInBreaks: 0
WidescreenStoryboard: 0

[Editor]
Bookmarks: 6784,19333,31882,44431,60117,74235
DistanceSpacing: 1.1
BeatDivisor: 4
GridSize: 4
TimelineZoom: 1

[Metadata]
Title:Alola!!
TitleUnicode:アローラ!!
Artist:Satoshi with Pikachu (CV:Matsumoto Rica/Otani Ikue)
ArtistUnicode:サトシwithピカチュウ (CV:松本梨香/大谷育江)
Creator:Xinely
Version:Easy
Source:ポケットモンスター サン&ムーン
Tags:Pokemon Pocket Monster Sun and Moon Sotarks Akitoshi Corinn Gero
BeatmapID:1160578
BeatmapSetID:547994

[Difficulty]
HPDrainRate:2
CircleSize:2.5
OverallDifficulty:2
ApproachRate:3
SliderMultiplier:0.9
SliderTickRate:1

[Events]
//Background and Video events
0,0,"liliewaifu.jpg",0,0
Video,0,"Lanturn moe.avi"
//Break Periods
//Storyboard Layer 0 (Background)
//Storyboard Layer 1 (Fail)
//Storyboard Layer 2 (Pass)
//Storyboard Layer 3 (Foreground)
//Storyboard Sound Samples

[TimingPoints]
505,392.156862745098,4,2,69,50,1,0
6779,-100,4,2,69,70,0,0
19328,-100,4,2,69,50,0,0
28740,-100,4,2,69,70,0,0
31877,-100,4,2,69,70,0,0
60112,-100,4,2,69,80,0,1
80897,-100,4,2,69,60,0,1
82073,-100,4,2,69,70,0,0
86977,-100,4,2,69,40,0,0
87173,-100,4,2,69,20,0,0

[Colours]
Combo1 : 255,128,128
Combo2 : 0,128,255
Combo3 : 128,128,192
Combo4 : 255,255,62

[HitObjects]
176,304,505,6,0,P|220:297|272:304,1,90,2|2,0:0|0:0,0:0:0:0:
360,328,1289,2,0,L|368:232,1,90,2|2,0:0|0:0,0:0:0:0:
424,160,2073,2,0,P|360:208|256:192,1,180,2|2,0:0|0:0,0:0:0:0:
172,164,3250,1,2,0:0:0:0:
96,224,3642,6,0,P|88:272|96:328,1,90,2|2,0:0|0:0,0:0:0:0:
184,352,4426,2,0,L|280:344,1,90,2|2,0:0|0:0,0:0:0:0:
372,324,5210,2,0,B|380:284|380:284|372:220,1,90,2|2,0:0|0:0,0:0:0:0:
336,144,5995,1,2,0:0:0:0:
240,128,6387,1,2,0:0:0:0:
168,192,6779,6,0,B|128:280|128:280|152:312,2,135,6|0|8,0:0|0:0|0:0,0:0:0:0:
240,128,8348,2,0,L|232:32,1,90,2|8,0:0|0:0,0:0:0:0:
328,32,9132,2,0,P|396:22|480:24,2,135,2|4|8,0:0|0:0|0:0,0:0:0:0:
320,128,10701,5,2,0:0:0:0:
312,224,11093,1,8,0:0:0:0:
304,320,11485,2,0,L|200:304,1,90,2|8,0:0|0:0,0:0:0:0:
120,276,12269,2,0,P|115:222|104:188,1,90,2|8,0:0|0:0,0:0:0:0:
68,96,13054,6,0,L|200:64,2,135,6|0|8,0:0|0:0|0:0,0:0:0:0:
88,192,14622,2,0,L|184:168,1,90,2|0,0:0|1:0,0:0:0:0:
204,264,15406,2,0,L|108:288,1,90,2|0,0:0|1:0,0:0:0:0:
20,272,16191,6,0,B|-4:328|12:376|12:376|52:364|100:380,1,180,6|8,0:0|0:0,0:0:0:0:
284,364,17759,2,0,L|292:208,1,135,6|4,0:0|0:3,0:0:0:0:
440,32,19328,6,0,P|484:108|444:188,1,180,6|2,0:0|0:0,0:0:0:0:
384,112,20505,1,2,0:0:0:0:
312,180,20897,2,0,P|284:124|304:52,2,135,2|0|2,0:0|0:0|0:0,0:0:0:0:
324,280,22465,6,0,L|132:272,1,180,2|2,0:0|0:0,0:0:0:0:
48,260,23642,1,2,0:0:0:0:
116,188,24034,2,0,B|123:151|123:151|107:55,2,135,2|0|2,0:0|0:0|0:0,0:0:0:0:
216,164,25603,6,0,L|200:64,1,90,2|2,0:0|0:0,0:0:0:0:
280,16,26387,1,2,0:0:0:0:
364,68,26779,1,2,0:0:0:0:
436,136,27171,2,0,P|470:219|429:309,1,180,2|2,0:0|0:0,0:0:0:0:
360,360,28348,1,2,0:0:0:0:
268,324,28740,5,4,0:0:0:0:
72,316,29524,1,6,0:0:0:0:
192,232,30112,2,0,P|204:180|188:92,1,135,6|6,0:0|0:0,0:0:0:0:
112,40,31093,1,6,0:0:0:0:
44,224,31877,6,0,P|20:272|20:316,1,90,6|8,0:0|0:0,0:0:0:0:
116,292,32661,2,0,L|212:316,1,90,2|8,0:0|0:0,0:0:0:0:
300,296,33446,2,0,B|320:248|320:248|304:148,2,135,2|0|8,0:0|0:0|0:0,0:0:0:0:
388,344,35014,5,2,0:0:0:0:
468,284,35406,2,0,P|476:252|460:188,2,90,8|2|8,0:0|0:0|0:0,0:0:0:0:
376,244,36583,2,0,L|241:251,2,135,2|0|8,0:0|0:0|0:0,0:0:0:0:
360,148,38152,6,0,P|360:108|376:60,1,90,2|8,0:0|0:0,0:0:0:0:
284,24,38936,2,0,L|194:24,1,90,2|8,0:0|0:0,0:0:0:0:
96,32,39720,1,2,0:0:0:0:
36,108,40112,2,0,L|44:248,1,135,8|0,0:0|0:0,0:0:0:0:
120,304,41093,1,0,0:0:0:0:
180,228,41485,6,0,P|260:208|360:244,1,180,0|2,0:0|0:0,0:0:0:0:
448,244,42661,2,0,P|440:188|420:93,1,135,6|8,0:0|0:0,0:0:0:0:
336,68,43642,1,2,0:0:0:0:
144,120,44426,6,0,L|144:48|144:24,2,90,6|8|2,0:0|0:0|0:0,0:0:0:0:
196,204,45603,1,8,0:0:0:0:
136,280,45995,2,0,L|-16:280,2,135,2|0|8,0:0|0:0|0:0,0:0:0:0:
236,280,47563,6,0,P|240:236|236:184,2,90,2|8|2,0:0|0:0|0:0,0:0:0:0:
312,344,48740,1,8,0:0:0:0:
404,304,49132,2,0,L|412:168,2,135,2|0|8,0:0|0:0|0:0,0:0:0:0:
500,276,50701,6,0,L|504:176,1,90,4|8,0:0|0:0,0:0:0:0:
484,88,51485,2,0,P|424:64|348:80,1,135,2|4,0:0|0:0,0:0:0:0:
260,88,52465,1,0,0:0:0:0:
292,180,52857,2,0,P|284:240|212:288,1,135,0|8,0:0|0:0,0:0:0:0:
132,268,53838,6,0,P|92:256|32:252,1,90,2|8,0:0|0:0,0:0:0:0:
64,348,54622,2,0,P|132:360|208:364,1,135,2|4,0:0|0:0,0:0:0:0:
280,308,55603,1,0,0:0:0:0:
360,368,55995,2,0,P|380:312|356:244,1,135,0|8,0:0|0:0,0:0:0:0:
292,168,56975,5,6,0:0:0:0:
132,44,57759,1,6,0:0:0:0:
64,232,58544,1,6,0:0:0:0:
452,316,60112,6,0,P|448:272|456:212,1,90,12|8,0:0|0:0,0:0:0:0:
416,136,60897,2,0,P|368:116|284:144,2,135,2|0|8,0:0|0:0|0:0,0:0:0:0:
352,212,62465,2,0,L|336:320,1,90,2|8,0:0|0:0,0:0:0:0:
256,352,63250,5,2,0:0:0:0:
160,328,63642,1,8,0:0:0:0:
88,260,64034,2,0,B|72:204|72:204|88:116,2,135,2|4|8,0:0|0:0|0:0,0:0:0:0:
184,228,65603,1,2,0:0:0:0:
284,232,65995,1,12,0:0:0:0:
380,252,66387,6,0,L|472:228,1,90,6|8,0:0|0:0,0:0:0:0:
484,132,67171,2,0,P|444:100|424:16,2,135,2|0|8,0:0|0:0|0:0,0:0:0:0:
396,176,68740,2,0,P|344:168|292:168,1,90,2|8,0:0|0:0,0:0:0:0:
216,204,69524,6,0,P|184:216|112:220,1,90,2|8,0:0|0:0,0:0:0:0:
48,164,70308,2,0,L|52:28,2,135,2|2|8,0:0|0:0|0:0,0:0:0:0:
100,248,71877,5,2,0:0:0:0:
212,148,72465,2,0,P|284:148|344:176,1,135,4|10,0:0|0:0,0:0:0:0:
380,264,73446,1,4,0:0:0:0:
460,320,73838,1,8,0:0:0:0:
492,228,74230,6,0,P|496:188|484:124,1,90,6|8,0:0|0:0,0:0:0:0:
428,60,75014,2,0,P|368:40|284:40,1,135,2|6,0:0|0:0,0:0:0:0:
164,108,76191,2,0,P|124:192|160:276,1,180,8|8,0:0|0:0,0:0:0:0:
216,344,77367,5,6,0:0:0:0:
260,256,77759,1,8,0:0:0:0:
320,336,78152,2,0,P|364:340|412:328,1,90,2|8,0:0|0:0,0:0:0:0:
452,240,78936,2,0,L|444:132,1,90,12|12,0:0|0:0,0:0:0:0:
364,92,79720,2,0,P|292:96|228:140,2,135,12|6|12,0:0|0:0|0:0,0:0:0:0:
376,192,81289,1,12,0:0:0:0:
220,316,82073,6,0,B|176:296|176:296|140:324|88:320,2,135,6|0|8,0:0|0:0|0:0,0:0:0:0:
320,320,83642,2,0,L|412:316,1,90,2|8,0:0|0:0,0:0:0:0:
476,240,84426,6,0,P|464:180|480:88,2,135,2|4|8,0:0|0:0|0:0,0:0:0:0:
380,212,85995,2,0,L|232:204,1,135,2|6,0:0|0:0,0:0:0:0:
