osu file format v14

[General]
AudioFilename: XYZ.mp3
AudioLeadIn: 0
PreviewTime: 44591
Countdown: 0
SampleSet: Soft
StackLeniency: 0.3
Mode: 0
LetterboxInBreaks: 0
WidescreenStoryboard: 0

[Editor]
Bookmarks: 26462,33548,68037
DistanceSpacing: 1
BeatDivisor: 2
GridSize: 8
TimelineZoom: 1.5

[Metadata]
Title:XY&Z
TitleUnicode:XY&Z
Artist:Satoshi (CV:Rica Matsumoto)
ArtistUnicode:サトシ(CV:松本 梨香)
Creator:Nostalgic
Version:ADVANCED!!
Source:ポケットモンスター XY&Z
Tags:rika 佐香智久 xyz プニちゃん pokemon pocket monsters ジガルデ kwk - Squishi Hey lululu
BeatmapID:1240151
BeatmapSetID:585367

[Difficulty]
HPDrainRate:3
CircleSize:4
OverallDifficulty:5
ApproachRate:7
SliderMultiplier:1.1
SliderTickRate:1

[Events]
//Background and Video events
0,0,"xyz.jpg",0,0
Video,0,"XYZ.avi"
//Break Periods
//Storyboard Layer 0 (Background)
//Storyboard Layer 1 (Fail)
//Storyboard Layer 2 (Pass)
//Storyboard Layer 3 (Foreground)
//Storyboard Sound Samples

[TimingPoints]
5,236.220472440945,4,2,0,40,1,0
3784,-100,4,2,0,60,0,0
11343,-100,4,2,0,50,0,0
11816,-100,4,2,0,35,0,0
15123,-100,4,2,0,35,0,0
18902,-100,4,2,0,45,0,0
22682,-100,4,2,0,45,0,0
26462,-100,4,2,0,25,0,0
33548,-100,4,2,0,35,0,0
34021,-100,4,2,0,45,0,0
41580,-100,4,2,0,55,0,0
44769,-100,4,2,0,55,0,0
45359,-100,4,2,0,70,0,1
77603,-100,4,2,0,60,0,1
83155,-100,4,2,0,55,0,1
86698,-100,4,2,0,55,0,0
87407,-100,4,2,0,10,0,0

[Colours]
Combo1 : 0,255,64
Combo2 : 0,128,255
Combo3 : 255,128,0

[HitObjects]
230,302,477,6,0,L|43:276,2,165,8|4|4,0:2|0:0|1:1,0:0:0:0:
242,196,1422,2,0,L|78:172,2,165,8|8|8,0:2|0:2|0:2,0:0:0:0:
230,302,2367,2,0,P|351:185|266:91,1,330,4|4,1:1|1:1,0:0:0:0:
242,196,3312,1,12,1:1:0:0:
406,48,3785,6,0,L|511:14,2,110,4|8|8,0:0|0:0|0:2,0:0:0:0:
264,118,4611,2,0,P|344:101|418:26,1,165,4|8,0:0|0:0,0:0:0:0:
493,113,5202,1,8,0:2:0:0:
308,233,5674,2,0,L|413:265,2,110,4|8|8,0:0|0:0|0:2,0:0:0:0:
146,238,6501,2,0,P|222:249|313:230,1,165,4|8,0:0|0:0,0:0:0:0:
381,149,7092,1,8,0:2:0:0:
165,130,7565,6,0,B|82:139|82:139|28:206,2,165,4|0|8,0:0|0:0|0:0,0:0:0:0:
146,238,8508,2,0,B|229:229|229:229|283:162,2,165,4|0|8,0:0|0:0|0:0,0:0:0:0:
165,130,9454,2,0,P|100:124|15:184,2,165,4|4|4,0:0|0:0|0:0,0:0:0:0:
277,144,10399,1,8,0:0:0:0:
277,144,10635,2,0,P|259:240|242:289,2,110,0|4|8,0:0|0:0|0:0,0:0:0:0:
165,130,11344,6,0,P|204:49|344:50,1,220,4|8,0:0|0:2,0:0:0:0:
386,126,12052,6,0,P|437:89|479:52,2,110,0|8|0,1:0|0:2|0:0,0:0:0:0:
306,198,12761,2,0,P|244:209|188:212,1,110,0|0,0:0|1:0,0:0:0:0:
120,290,13233,2,0,P|39:244|180:143,1,330,0|0,0:0|1:0,0:0:0:0:
227,233,14178,2,0,P|146:187|287:86,1,330,8|0,0:2|1:0,0:0:0:0:
385,67,15123,1,12,0:0:0:0:
385,67,15359,6,0,L|501:113,2,110,0|8|0,1:0|0:2|1:0,0:0:0:0:
272,72,16067,2,0,B|189:108|189:46|93:82,2,165,8|0|0,0:2|0:2|1:0,0:0:0:0:
373,266,17249,2,0,L|500:305,2,110,0|8|0,1:0|0:2|1:0,0:0:0:0:
306,178,17958,2,0,P|253:203|179:217,1,110,8|0,0:2|1:0,0:0:0:0:
99,168,18430,1,8,0:0:0:0:
241,336,18902,6,0,B|360:337|360:337|455:273,1,220,4|8,0:0|0:2,0:0:0:0:
415,174,19611,2,0,B|296:173|296:173|201:237,1,220,0|0,1:0|0:0,0:0:0:0:
118,288,20320,1,0,0:0:0:0:
118,288,20556,1,0,1:0:0:0:
79,185,20792,6,0,B|167:152|199:81|199:81|276:115|366:80,1,330,8|0,0:2|1:0,0:0:0:0:
319,185,21737,2,0,B|231:152|199:81|199:81|122:115|32:80,1,330,8|0,0:2|1:0,0:0:0:0:
79,185,22683,6,0,L|210:221,1,110,12|0,0:0|0:0,0:0:0:0:
177,323,23155,2,0,B|231:342|231:342|304:334,1,110,8|0,0:2|1:0,0:0:0:0:
376,276,23628,2,0,B|393:210|329:179|367:78,2,165,8|0|0,0:2|0:0|1:0,0:0:0:0:
183,162,24808,2,0,P|104:170|61:201,2,110,0|8|8,1:0|0:2|0:0,0:0:0:0:
249,69,25517,2,0,L|369:32,2,110,8|8|0,0:2|0:3|0:0,0:0:0:0:
466,100,26461,6,0,L|238:67,1,220,4|8,0:0|0:2,0:0:0:0:
47,157,27407,2,0,L|275:190,1,220,0|8,0:0|0:2,0:0:0:0:
452,304,28352,6,0,B|336:311|336:311|213:280,1,220,8|8,0:2|0:2,0:0:0:0:
121,97,29296,2,0,B|237:90|237:90|360:121,1,220,8|8,0:2|0:2,0:0:0:0:
452,304,30241,6,0,B|459:251|459:251|442:215|442:215|455:170|455:170|439:134|439:134|448:88,1,220,4|8,0:0|0:2,0:0:0:0:
232,42,31186,2,0,B|229:95|229:95|245:129|245:129|231:176|231:176|247:212|247:212|239:257,1,220,0|8,0:0|0:2,0:0:0:0:
26,187,32131,2,0,B|22:146|53:107|53:107|32:73|40:16,2,165,4|4|4,0:0|0:0|0:0,0:0:0:0:
322,332,33549,6,0,P|356:331|440:321,1,110,8|0,0:2|1:0,0:0:0:0:
322,332,34020,2,0,P|359:234|345:191,1,110,12|0,0:0|1:0,0:0:0:0:
251,247,34493,1,8,0:2:0:0:
185,36,34966,22,0,P|148:134|162:177,1,110,8|0,0:2|1:0,0:0:0:0:
256,121,35437,1,8,0:2:0:0:
462,199,35911,22,0,P|499:297|485:340,1,110,12|0,1:0|1:0,0:0:0:0:
391,284,36382,1,8,0:2:0:0:
180,349,36855,2,0,B|112:349|112:349|67:324,2,110,8|0|8,0:2|1:0|0:2,0:0:0:0:
376,251,37800,6,0,B|127:39|127:39|127:265|127:265|369:30|369:30,1,880,12|4,0:0|0:0,0:0:0:0:
255,356,40399,6,0,P|327:346|367:352,2,110,0|0|0,1:0|0:0|1:0,0:0:0:0:
149,324,41107,1,8,0:0:0:0:
302,166,41580,5,4,0:0:0:0:
85,148,42052,1,0,0:0:0:0:
85,148,42289,22,0,B|85:31|85:31|302:31|302:31|86:309|86:309|302:309|302:309|302:161,1,1045,4|0,0:0|0:0,0:0:0:0:
85,147,45359,6,0,B|176:147|176:147|237:166|237:166|324:166,1,220,12|8,0:0|0:2,0:0:0:0:
369,81,46068,2,0,P|418:50|489:50,2,110,0|8|0,1:0|0:2|1:0,0:0:0:0:
454,156,46777,1,8,0:2:0:0:
454,156,47013,1,0,1:0:0:0:
454,265,47249,2,0,B|380:273|304:300|304:300|304:255|344:177,1,275,8|0,0:2|0:0,0:0:0:0:
369,81,48076,1,0,0:0:0:0:
213,135,48430,6,0,L|213:248,2,110,0|8|0,1:0|0:2|1:0,0:0:0:0:
102,136,49139,2,0,B|102:89|102:89|110:69|110:69|110:-15,1,110,12|8,0:0|0:0,0:0:0:0:
5,60,49611,6,0,B|-2:117|-2:117|4:174,1,110,8|0,0:2|1:0,0:0:0:0:
45,271,50084,2,0,B|102:278|102:278|159:272,1,110,8|0,0:2|0:0,0:0:0:0:
255,229,50556,2,0,B|262:172|262:172|256:115,1,110,8|0,0:2|1:0,0:0:0:0:
337,45,51029,5,4,0:0:0:0:
501,59,51383,1,4,0:0:0:0:
406,194,51737,1,4,1:0:0:0:
226,321,52210,6,0,B|212:299|182:281|182:281|176:245|157:196,1,110,0|8,1:0|0:0,0:0:0:0:
349,132,52918,2,0,L|239:132,1,110,12|0,0:0|0:0,0:0:0:0:
34,49,53627,6,0,P|91:54|136:90,2,110,0|8|0,1:0|0:2|1:0,0:0:0:0:
51,157,54336,2,0,P|63:219|99:257,1,110,8|0,0:2|0:0,0:0:0:0:
158,168,54808,2,0,L|275:168,1,110,8|0,0:2|1:0,0:0:0:0:
228,271,55281,2,0,L|345:271,1,110,8|0,0:2|1:0,0:0:0:0:
302,374,55753,2,0,L|419:374,1,110,8|0,0:2|1:0,0:0:0:0:
460,159,56462,5,0,1:0:0:0:
460,159,56698,2,0,B|327:159|327:159|239:109,1,220,4|0,0:0|0:0,0:0:0:0:
336,46,57407,1,0,1:0:0:0:
336,46,57643,2,0,L|456:46,1,110,0|0,0:0|1:0,0:0:0:0:
460,159,58115,2,0,L|348:159,1,110,0|0,0:0|1:0,0:0:0:0:
285,248,58588,1,4,0:0:0:0:
127,199,58942,1,4,0:0:0:0:
248,86,59296,1,4,0:0:0:0:
460,159,59769,6,0,B|459:87|459:87|473:39,2,110,8|8|8,0:0|3:3|3:3,0:0:0:0:
435,266,60478,2,0,B|371:287|322:337|322:337|196:337,1,220,12|8,0:0|0:2,0:0:0:0:
169,250,61186,6,0,L|57:250,2,110,0|8|0,1:0|0:2|1:0,0:0:0:0:
239,165,61895,2,0,L|354:165,1,110,8|0,0:2|1:0,0:0:0:0:
322,58,62367,2,0,L|434:58,1,110,8|0,0:2|1:0,0:0:0:0:
481,156,62840,1,8,0:2:0:0:
481,156,63076,2,0,L|481:273,1,110,0|0,1:0|0:0,0:0:0:0:
382,315,63548,6,0,P|314:339|248:314,2,110,0|8|8,1:0|0:2|0:0,0:0:0:0:
313,232,64257,2,0,P|315:166|291:120,1,110,12|0,0:0|0:0,0:0:0:0:
207,194,64729,2,0,P|147:211|76:193,1,110,8|0,0:2|1:0,0:0:0:0:
143,102,65202,2,0,P|83:85|12:103,1,110,8|8,0:2|0:0,0:0:0:0:
20,200,65674,2,0,P|1:261|17:330,1,110,8|8,0:2|0:0,0:0:0:0:
113,268,66147,1,4,0:0:0:0:
143,102,66501,1,0,0:0:0:0:
271,211,66855,1,0,0:0:0:0:
426,53,68037,6,0,B|357:53|357:53|308:85|308:85|209:85,1,220,4|8,0:0|0:2,0:0:0:0:
140,165,68745,2,0,B|191:182|191:182|255:182,2,110,0|8|0,1:0|0:2|1:0,0:0:0:0:
68,80,69454,2,0,B|40:122|40:122|40:191,1,110,8|8,1:2|0:0,0:0:0:0:
40,291,69926,2,0,L|154:291,1,110,4|8,0:0|1:0,0:0:0:0:
240,227,70399,2,0,L|240:113,1,110,8|8,0:2|1:0,0:0:0:0:
335,62,70871,2,0,L|449:62,1,110,4|0,0:0|1:0,0:0:0:0:
230,12,71580,6,0,L|175:12,2,55,0|0|4,1:0|0:0|0:0,0:0:0:0:
175,108,72052,2,0,L|242:108,1,55,0|0,1:0|0:0,0:0:0:0:
230,218,72407,2,0,L|230:328,1,110,0|0,0:0|0:0,0:0:0:0:
109,215,72997,1,8,0:0:0:0:
14,159,73233,1,8,0:2:0:0:
14,270,73470,1,8,0:0:0:0:
109,327,73706,6,0,B|329:327|329:327|108:77|108:77|324:77,1,770,8|0,0:0|1:0,0:0:0:0:
304,185,75596,6,0,B|495:185|495:185|303:377|303:377|500:377,1,660,4|8,0:0|0:0,0:0:0:0:
310,266,77485,6,0,B|277:257|277:257|256:241|212:240|212:240|181:220|135:220|135:220|79:201,1,220,4|8,0:0|0:2,0:0:0:0:
85,98,78194,2,0,L|204:98,1,110,8|4,0:0|0:0,0:0:0:0:
300,128,78666,2,0,B|358:125|405:97|405:97|474:100|515:167,1,220,8|8,0:0|0:0,0:0:0:0:
431,232,79375,6,0,P|419:293|357:338,1,110,0|8,0:0|0:0,0:0:0:0:
320,238,79848,2,0,P|259:233|198:173,1,110,8|8,0:0|0:0,0:0:0:0:
300,128,80320,2,0,P|306:68|357:6,1,110,8|8,0:0|0:0,0:0:0:0:
411,106,80792,1,8,0:0:0:0:
195,53,81265,6,0,B|165:89|165:89|158:130|158:130|135:168|135:168|133:210|133:210|106:252,1,220,4|8,0:0|0:2,0:0:0:0:
216,272,81974,2,0,B|247:251|286:250|286:250|338:230,2,110,8|4|8,0:0|0:0|0:0,0:0:0:0:
289,354,82682,2,0,B|348:353|348:353|409:334,1,110,0|8,0:0|0:0,0:0:0:0:
469,253,83155,6,0,P|453:106|283:112,1,330,0|8,3:0|0:0,0:0:0:0:
191,66,84100,2,0,P|119:61|74:83,2,110,0|8|8,0:0|0:0|0:2,0:0:0:0:
146,167,84808,6,0,P|162:314|334:194,1,440,4|8,0:0|0:0,0:0:0:0:
394,104,85989,2,0,P|455:134|509:122,2,110,8|8|8,0:0|0:0|0:0,0:0:0:0:
467,21,86697,1,0,0:0:0:0:
