osu file format v14

[General]
AudioFilename: XYZ.mp3
AudioLeadIn: 0
PreviewTime: 44592
Countdown: 1
SampleSet: Normal
StackLeniency: 0.7
Mode: 0
LetterboxInBreaks: 0
WidescreenStoryboard: 1

[Editor]
DistanceSpacing: 1.3
BeatDivisor: 4
GridSize: 4
TimelineZoom: 1.7

[Metadata]
Title:XY&Z
TitleUnicode:XY&Z
Artist:Satoshi (CV:Rica Matsumoto)
ArtistUnicode:サトシ(CV:松本 梨香)
Creator:Lanturn
Version:50% Forme
Source:ポケットモンスター XY & Z
Tags:Rika 佐香智久 XYZ Tomohisa Sako Saku Zygarde Puni-chan プニちゃん Squishy Ash Ketchum Pokemon Pokémon Pocket Monsters ジガルデ
BeatmapID:815559
BeatmapSetID:372386

[Difficulty]
HPDrainRate:7
CircleSize:4
OverallDifficulty:8
ApproachRate:9
SliderMultiplier:1.4
SliderTickRate:1

[Events]
//Background and Video events
Video,-90,"XYZ.avi"
0,0,"vlcsnap-00001.png",0,0
//Break Periods
//Storyboard Layer 0 (Background)
//Storyboard Layer 1 (Fail)
//Storyboard Layer 2 (Pass)
//Storyboard Layer 3 (Foreground)
//Storyboard Sound Samples

[TimingPoints]
478,236.220472440945,4,1,1,70,1,0
3785,236.220472440945,4,1,1,70,1,0
11344,-100,4,1,1,60,0,0
18903,-100,4,1,1,70,0,0
26462,-100,4,1,1,60,0,0
43706,-100,4,1,1,70,0,0
43942,-100,4,1,1,50,0,0
44178,-100,4,1,1,40,0,0
44651,-149.253731343284,4,1,1,30,0,0
45359,-100,4,1,1,70,0,1
60477,-100,4,1,1,70,0,0
66147,-149.253731343284,4,1,1,50,0,0
68036,-100,4,1,1,70,0,1
77485,-100,4,1,1,70,0,0

[Colours]
Combo1 : 126,207,23
Combo2 : 13,173,226
Combo3 : 207,0,19

[HitObjects]
160,316,478,6,0,L|104:172,1,140,4|8,0:0|0:0,0:0:0:0:
149,85,832,2,0,L|199:215,1,140,8|8,0:2|0:0,0:0:0:0:
313,215,1186,2,0,L|363:84,1,140,8|8,0:2|0:0,0:0:0:0:
400,184,1540,2,0,L|350:315,1,140,8|8,0:2|0:0,0:0:0:0:
256,268,1895,1,0,0:0:0:0:
252,104,2131,1,8,0:0:0:0:
252,104,2249,1,8,0:0:0:0:
252,104,2367,6,0,P|168:120|100:96,1,140,8|8,0:0|0:0,0:0:0:0:
252,104,2722,2,0,P|336:88|404:112,1,140,8|8,0:0|0:0,0:0:0:0:
256,192,3076,1,8,0:2:0:0:
189,299,3194,1,8,0:0:0:0:
323,299,3312,1,8,0:0:0:0:
377,339,3785,6,0,P|397:245|368:181,1,140,4|8,0:0|0:0,0:0:0:0:
219,114,4257,1,8,0:2:0:0:
260,40,4375,1,8,0:2:0:0:
316,102,4493,1,8,0:0:0:0:
278,177,4611,2,0,P|262:256|200:288,1,140,4|0,0:0|0:0,0:0:0:0:
93,111,4966,2,0,L|198:203,1,140,8|8,0:0|0:2,0:0:0:0:
278,177,5320,1,8,0:2:0:0:
219,114,5438,1,8,0:0:0:0:
56,192,5674,6,0,L|161:284,1,140,4|8,0:0|0:0,0:0:0:0:
407,217,6147,2,0,L|470:152,2,70,8|8|8,0:2|0:2|0:0,0:0:0:0:
323,273,6501,2,0,B|256:295|256:255|178:281,1,140,4|0,0:0|0:0,0:0:0:0:
114,339,6855,1,8,0:0:0:0:
114,339,7092,1,8,0:2:0:0:
27,309,7210,1,8,0:2:0:0:
43,201,7328,2,0,P|81:217|123:210,1,70,8|0,0:0|0:0,0:0:0:0:
210,188,7564,6,0,P|255:117|245:54,1,140,4|8,0:0|0:0,0:0:0:0:
32,47,8036,2,0,B|78:98|78:98|167:98,1,140,8|8,0:2|0:0,0:0:0:0:
249,64,8391,2,0,B|324:32|388:71,1,140,4|8,0:0|0:2,0:0:0:0:
464,134,8745,1,8,0:0:0:0:
368,272,8981,1,8,0:2:0:0:
368,272,9099,1,8,0:2:0:0:
368,272,9218,2,0,L|369:180,1,70,8|0,0:0|0:0,0:0:0:0:
254,73,9454,6,0,B|231:133|280:148|255:211,1,140,4|8,0:0|0:0,0:0:0:0:
145,280,9808,2,0,P|122:208|157:134,1,140,4|8,0:0|0:0,0:0:0:0:
369,149,10162,2,0,P|390:215|367:280,1,140,4|8,0:0|0:0,0:0:0:0:
256,352,10517,2,0,L|256:200,1,140,4|8,0:0|0:0,0:0:0:0:
177,153,10871,1,8,0:0:0:0:
206,60,10989,1,8,0:0:0:0:
305,60,11107,1,8,0:0:0:0:
335,153,11225,1,8,0:0:0:0:
256,212,11344,6,0,P|211:263|136:272,1,140,8|8,0:2|0:0,0:0:0:0:
36,126,11816,1,8,0:2:0:0:
40,307,12052,2,0,P|84:360|175:373,1,140,8|8,0:0|0:2,0:0:0:0:
291,267,12525,2,0,L|366:281,1,70,8|0,0:0|0:0,0:0:0:0:
367,368,12761,2,0,P|405:354|437:323,2,70,8|0|8,0:2|0:0|0:0,0:0:0:0:
230,194,13233,6,0,P|292:169|356:200,1,140,8|8,0:2|0:0,0:0:0:0:
291,267,13588,1,0,0:0:0:0:
202,286,13706,2,0,B|139:266|139:310|63:285,1,140,8|8,0:2|0:0,0:0:0:0:
310,98,14178,2,0,B|373:118|373:74|449:99,1,140,8|8,0:2|0:0,0:0:0:0:
388,292,14651,1,8,0:2:0:0:
312,124,14887,1,8,0:0:0:0:
404,92,15005,1,8,0:0:0:0:
483,148,15123,6,0,L|482:304,1,140,12|8,0:0|0:0,0:0:0:0:
286,276,15596,2,0,L|287:120,1,140,8|8,0:2|0:0,0:0:0:0:
122,54,16068,2,0,P|149:117|121:210,1,140,8|8,0:2|0:0,0:0:0:0:
48,196,16422,1,0,0:0:0:0:
48,196,16540,2,0,P|21:133|49:40,1,140,8|8,0:2|0:0,0:0:0:0:
208,244,17013,6,0,P|277:256|340:229,1,140,8|8,0:2|0:0,0:0:0:0:
432,75,17485,2,0,L|348:64,1,70,8|0,0:2|0:0,0:0:0:0:
499,34,17722,2,0,P|507:96|496:122,1,70,8|0,0:0|0:0,0:0:0:0:
414,192,17958,2,0,B|376:228|384:328|448:304|412:252,1,140,8|8,0:2|0:0,0:0:0:0:
254,95,18430,1,8,0:0:0:0:
265,192,18548,1,8,0:0:0:0:
168,180,18666,1,8,0:0:0:0:
179,277,18785,1,8,0:0:0:0:
82,265,18903,6,0,P|48:196|64:120,2,140,4|8|8,0:0|0:0|0:2,0:0:0:0:
179,277,19493,1,8,0:2:0:0:
244,340,19611,1,8,0:0:0:0:
320,288,19729,2,0,L|408:164,1,140,8|8,0:2|0:2,0:0:0:0:
432,88,20084,2,0,P|376:120|296:123,1,140,8|8,0:0|0:2,0:0:0:0:
217,123,20438,1,8,0:2:0:0:
128,104,20556,1,8,0:0:0:0:
128,104,20792,6,0,P|88:120|32:120,1,70,8|0,0:2|0:0,0:0:0:0:
90,202,21029,2,0,P|130:186|186:186,1,70,8|0,0:0|0:0,0:0:0:0:
183,262,21265,2,0,P|143:278|87:278,1,70,8|8,0:2|0:2,0:0:0:0:
149,358,21501,1,8,0:0:0:0:
149,358,21619,2,0,P|189:342|245:342,1,70,8|0,0:2|0:0,0:0:0:0:
280,282,21855,1,8,0:2:0:0:
280,282,21973,2,0,P|354:322|406:299,1,140,8|8,0:0|0:2,0:0:0:0:
492,304,22328,1,8,0:2:0:0:
492,304,22446,2,0,L|464:384,1,70,8|0,0:0|0:0,0:0:0:0:
454,234,22682,6,0,L|482:154,1,70,4|0,0:0|0:0,0:0:0:0:
404,116,22918,2,0,P|336:160|268:132,1,140,8|8,0:0|0:2,0:0:0:0:
198,80,23273,1,8,0:2:0:0:
287,48,23391,1,8,0:0:0:0:
283,145,23509,2,0,L|235:285,1,140,8|8,0:2|0:2,0:0:0:0:
114,308,23863,2,0,L|162:168,1,140,8|8,0:0|0:2,0:0:0:0:
159,175,24218,1,8,0:2:0:0:
48,208,24336,1,8,0:0:0:0:
48,208,24572,6,0,P|40:148|96:76,1,140,8|8,0:2|0:0,0:0:0:0:
430,83,25044,2,0,P|470:139|464:208,1,140,8|8,0:2|0:0,0:0:0:0:
386,241,25399,2,0,P|349:221|324:177,1,70,8|0,0:2|0:0,0:0:0:0:
332,115,25635,2,0,L|280:94,2,35,8|8|8,0:3|0:3|0:3,0:0:0:0:
400,165,25871,1,8,0:3:0:0:
423,259,25989,1,8,0:2:0:0:
350,324,26107,1,8,0:2:0:0:
252,321,26225,1,8,0:2:0:0:
176,257,26344,1,8,0:2:0:0:
159,160,26462,6,0,P|164:83|202:28,1,140,4|8,0:0|0:2,0:0:0:0:
288,29,26816,1,0,0:0:0:0:
353,91,26934,2,0,P|350:160|314:219,1,140,8|8,0:0|0:2,0:0:0:0:
223,209,27288,2,0,P|236:273|318:310,1,140,8|8,0:0|0:2,0:0:0:0:
239,123,27643,2,0,P|175:136|138:218,1,140,8|8,0:0|0:0,0:0:0:0:
408,171,28115,1,8,0:2:0:0:
408,171,28233,1,8,0:2:0:0:
408,171,28351,6,0,B|386:238|438:238|402:310,1,140,4|8,0:0|0:2,0:0:0:0:
326,106,28824,2,0,B|348:173|296:173|332:245,1,140,8|8,0:0|0:2,0:0:0:0:
283,319,29178,2,0,P|211:336|131:325,1,140,8|8,0:0|0:0,0:0:0:0:
44,246,29533,2,0,P|92:218|132:222,1,70,8|0,0:2|0:0,0:0:0:0:
266,219,29769,2,0,P|239:239|197:252,1,70,8|8,0:0|0:2,0:0:0:0:
294,137,30005,2,0,P|342:109|382:113,1,70,8|0,0:2|0:0,0:0:0:0:
484,124,30241,6,0,P|421:180|339:186,1,140,4|8,0:0|0:2,0:0:0:0:
294,137,30596,1,0,0:0:0:0:
214,93,30714,2,0,L|136:93,1,70,8|8,0:0|0:2,0:0:0:0:
67,142,30950,1,8,0:2:0:0:
67,142,31068,2,0,P|64:212|141:260,1,140,8|8,0:0|0:0,0:0:0:0:
196,244,31422,2,0,P|284:240|340:268,1,140,8|8,0:2|0:0,0:0:0:0:
468,356,31895,1,8,0:2:0:0:
424,284,32013,1,8,0:2:0:0:
464,212,32131,6,0,L|488:64,1,140,4|0,0:0|0:0,0:0:0:0:
380,212,32485,2,8,L|404:64,1,140,12|8,0:0|0:0,0:0:0:0:
292,212,32840,2,0,L|308:116,1,70,4|0,0:0|0:0,0:0:0:0:
276,64,33076,1,8,0:0:0:0:
200,32,33194,1,8,0:0:0:0:
116,40,33312,1,8,0:0:0:0:
56,100,33430,1,8,0:0:0:0:
24,180,33548,2,0,P|16:216|24:256,1,70,8|8,0:3|0:3,0:0:0:0:
96,288,33785,2,0,P|104:252|96:212,1,70,8|8,0:3|0:3,0:0:0:0:
160,164,34021,6,0,P|228:116|300:96,1,140,4|8,0:0|0:0,0:0:0:0:
368,116,34375,1,0,0:0:0:0:
427,181,34493,2,0,P|359:229|287:249,1,140,8|8,0:2|0:0,0:0:0:0:
220,228,34847,1,0,0:0:0:0:
160,164,34966,2,0,L|124:28,1,140,8|8,0:2|0:0,0:0:0:0:
44,72,35320,1,0,0:0:0:0:
20,160,35438,2,0,L|37:227,1,70,8|0,0:2|0:0,0:0:0:0:
135,323,35674,2,0,L|116:256,1,70,8|0,0:0|0:0,0:0:0:0:
104,172,35910,6,0,B|180:132|180:132|236:132,1,140,8|8,0:2|0:0,0:0:0:0:
323,147,36265,1,0,0:0:0:0:
380,215,36383,2,0,B|304:255|304:255|248:255,1,140,8|8,0:2|0:0,0:0:0:0:
164,236,36737,1,0,0:0:0:0:
104,172,36855,2,0,P|112:96|168:44,1,140,8|8,0:2|0:0,0:0:0:0:
240,30,37210,1,0,0:0:0:0:
314,77,37328,2,0,L|414:73,1,70,8|0,0:2|0:0,0:0:0:0:
275,159,37564,2,0,L|175:163,1,70,8|8,0:0|0:0,0:0:0:0:
326,234,37800,6,0,L|465:227,1,140,4|8,0:0|0:0,0:0:0:0:
396,315,38155,2,0,L|257:322,1,140,4|8,0:0|0:2,0:0:0:0:
178,367,38509,2,0,P|204:271|174:216,1,140,12|0,0:0|0:0,0:0:0:0:
145,161,38863,1,8,0:2:0:0:
63,141,38981,2,0,P|147:137|213:91,1,140,4|8,0:0|0:2,0:0:0:0:
248,27,39336,1,8,0:2:0:0:
248,27,39454,1,4,0:0:0:0:
352,158,39690,6,0,B|323:246|358:285|398:262|375:219,1,140,4|8,0:0|0:0,0:0:0:0:
440,144,40044,2,0,B|469:56|434:17|394:40|417:83,1,140,4|8,0:0|0:2,0:0:0:0:
352,158,40399,1,8,0:0:0:0:
352,158,40517,2,0,P|272:212|216:208,1,140,8|8,0:2|0:2,0:0:0:0:
140,205,40871,2,0,P|144:235|173:274,1,70,8|0,0:0|0:0,0:0:0:0:
80,136,41107,2,0,P|49:74|56:52,2,70,8|8|8,0:2|0:2|0:0,0:0:0:0:
132,68,41462,1,8,0:0:0:0:
176,140,41580,6,0,L|148:220,2,70,4|0|0,0:0|0:0|0:0,0:0:0:0:
273,160,41934,2,0,L|245:240,2,70,4|0|0,0:0|0:0|0:0,0:0:0:0:
370,180,42288,2,0,L|342:260,1,70,4|0,0:0|0:0,0:0:0:0:
412,344,42525,2,0,L|440:264,1,70,0|8,0:0|0:0,0:0:0:0:
480,212,42761,2,0,P|408:244|332:244,1,140,8|8,2:0|0:0,0:0:0:0:
268,228,43115,1,8,0:2:0:0:
227,155,43233,1,8,0:2:0:0:
312,156,43351,1,8,0:2:0:0:
268,228,43470,6,0,L|228:272,3,35,8|8|8|8,0:0|0:0|0:0|0:0,0:0:0:0:
174,250,43706,2,0,L|134:294,3,35,8|8|8|8,0:3|0:3|0:3|0:3,0:0:0:0:
80,277,43942,2,0,L|40:233,3,35,8|8|8|8,0:3|0:3|0:3|0:3,0:0:0:0:
76,184,44178,2,0,L|36:140,3,35,8|8|8|8,0:2|0:2|0:2|0:2,0:0:0:0:
66,89,44414,1,4,0:0:0:0:
194,31,44651,5,2,0:0:0:0:
320,92,44887,2,0,P|332:160|272:248,1,164.149992235337,2|0,0:0|0:0,0:0:0:0:
240,264,45359,6,0,P|336:236|396:264,1,140,4|8,0:0|0:0,0:0:0:0:
307,343,45714,1,0,0:0:0:0:
180,336,45832,2,0,P|144:288|144:256,1,70,8|8,0:2|0:2,0:0:0:0:
176,196,46068,1,8,0:0:0:0:
176,196,46186,2,0,P|112:236|40:224,1,140,8|8,0:2|0:2,0:0:0:0:
80,84,46540,2,0,L|100:156,1,70,8|0,0:0|0:0,0:0:0:0:
194,263,46777,2,0,L|174:191,1,70,8|8,0:2|0:2,0:0:0:0:
217,99,47013,1,8,0:0:0:0:
396,32,47249,6,0,B|428:88|384:112|436:192,1,140,4|8,0:0|0:0,0:0:0:0:
496,216,47603,1,0,0:0:0:0:
496,216,47722,2,0,P|460:248|408:256,1,70,8|8,0:2|0:2,0:0:0:0:
355,219,47958,1,8,0:0:0:0:
340,132,48076,2,0,P|400:80|480:96,1,140,8|8,0:2|0:2,0:0:0:0:
355,219,48430,2,0,P|307:227|266:202,1,70,8|0,0:0|0:0,0:0:0:0:
237,144,48666,1,8,0:2:0:0:
146,129,48785,1,8,0:2:0:0:
74,189,48903,1,8,0:0:0:0:
74,189,49139,6,0,B|103:226|103:226|68:256|68:256|108:309,1,140,4|8,0:0|0:0,0:0:0:0:
182,229,49493,1,0,0:0:0:0:
271,249,49611,2,0,L|346:268,1,70,8|8,0:2|0:2,0:0:0:0:
243,332,49847,2,0,L|168:313,1,70,8|8,0:0|0:2,0:0:0:0:
115,212,50084,2,0,L|190:231,1,70,0|8,0:0|0:2,0:0:0:0:
84,293,50320,2,0,L|9:274,1,70,8|0,0:0|0:0,0:0:0:0:
32,188,50556,1,8,0:2:0:0:
108,136,50674,1,8,0:2:0:0:
180,192,50792,1,8,0:0:0:0:
256,136,50910,1,8,0:2:0:0:
256,136,51029,6,0,B|351:136|351:136|392:156,1,140,12|0,0:0|0:0,0:0:0:0:
472,296,51383,2,0,B|377:296|377:296|337:277,1,140,12|0,0:0|0:0,0:0:0:0:
256,136,51737,2,0,B|256:41|256:41|275:0,1,140,12|0,0:0|0:0,0:0:0:0:
360,32,52092,1,8,0:2:0:0:
396,116,52210,2,0,B|396:211|396:211|374:256,1,140,8|8,0:2|0:2,0:0:0:0:
292,284,52564,2,0,L|242:284,5,35,8|8|8|8|0|0,0:3|0:3|0:2|0:2|0:0|0:0,0:0:0:0:
188,304,52918,6,0,P|148:228|164:160,1,140,4|8,0:0|0:0,0:0:0:0:
204,100,53273,1,0,0:0:0:0:
284,52,53391,2,0,L|358:52,2,70,8|8|8,0:2|0:2|0:0,0:0:0:0:
332,132,53745,2,0,L|414:134,1,70,8|0,0:2|0:0,0:0:0:0:
477,185,53981,1,8,0:2:0:0:
412,248,54099,2,0,P|368:280|282:279,1,140,8|8,0:0|0:2,0:0:0:0:
200,244,54454,1,8,0:2:0:0:
111,256,54572,1,8,0:0:0:0:
111,256,54808,6,0,B|76:196|76:196|76:108,1,140,4|8,0:0|0:0,0:0:0:0:
128,48,55162,1,0,0:0:0:0:
220,24,55281,2,0,L|220:112,1,70,8|0,0:2|0:0,0:0:0:0:
295,207,55517,1,8,0:0:0:0:
295,207,55635,2,0,B|295:123|295:123|343:71,1,140,8|8,0:2|0:2,0:0:0:0:
408,32,55989,1,8,0:0:0:0:
428,284,56225,1,8,0:2:0:0:
344,336,56344,1,8,0:2:0:0:
230,261,56462,2,0,P|266:255|300:261,1,70,8|0,0:0|0:0,0:0:0:0:
184,344,56698,6,0,P|112:320|92:264,1,140,4|8,0:0|0:0,0:0:0:0:
144,188,57052,1,0,0:0:0:0:
144,188,57170,2,0,L|104:44,1,140,8|8,0:2|0:0,0:0:0:0:
61,133,57525,2,0,P|165:125|205:89,1,140,8|8,0:2|0:2,0:0:0:0:
263,51,57879,2,0,L|322:120,1,70,8|0,0:0|0:0,0:0:0:0:
327,234,58115,2,0,L|268:165,1,70,8|8,0:2|0:2,0:0:0:0:
405,176,58351,1,8,0:0:0:0:
385,313,58470,1,8,0:2:0:0:
241,335,58588,6,0,L|166:351,2,70,4|0|8,0:0|0:0|0:2,0:0:0:0:
183,246,58942,2,0,L|108:262,2,70,4|0|8,0:0|0:0|0:2,0:0:0:0:
131,158,59296,2,0,L|56:174,1,70,4|0,0:0|0:0,0:0:0:0:
71,70,59533,2,0,L|16:9,2,70,8|0|8,0:2|0:2|0:2,0:0:0:0:
144,18,59887,1,8,0:2:0:0:
219,69,60005,2,0,L|264:65,3,35,8|8|8|8,0:3|0:3|0:3|0:3,0:0:0:0:
315,117,60241,2,0,L|360:113,3,35,8|8|8|8,0:2|0:2|0:2|0:2,0:0:0:0:
407,169,60477,6,0,B|384:210|384:210|422:237|422:237|389:288,1,140,4|8,0:0|0:2,0:0:0:0:
317,322,60832,1,8,0:2:0:0:
231,290,60950,2,0,P|170:276|97:308,1,140,8|8,0:0|0:2,0:0:0:0:
98,213,61304,2,0,L|165:156,2,70,8|0|8,0:0|0:0|0:0,0:0:0:0:
23,159,61659,2,0,P|74:106|73:40,1,140,8|8,0:2|0:0,0:0:0:0:
180,35,62013,1,0,0:0:0:0:
180,35,62131,2,0,P|185:82|213:127,1,70,8|8,0:2|0:0,0:0:0:0:
246,198,62367,6,0,L|336:313,1,140,8|0,0:2|0:0,0:0:0:0:
423,292,62722,1,8,0:2:0:0:
423,292,62840,2,0,L|370:224,1,70,8|0,0:0|0:0,0:0:0:0:
405,149,63076,1,8,0:2:0:0:
405,149,63194,2,0,B|351:90|371:27|413:40|390:86,1,140,8|8,0:0|0:0,0:0:0:0:
301,149,63548,2,0,P|264:156|223:149,1,70,8|0,0:2|0:0,0:0:0:0:
152,37,63785,2,0,P|189:30|230:37,1,70,8|0,0:0|0:0,0:0:0:0:
152,148,64021,1,8,0:2:0:0:
62,162,64139,1,8,0:0:0:0:
89,249,64257,6,0,B|125:312|125:312|182:347,1,140,4|0,0:0|0:0,0:0:0:0:
256,292,64611,1,8,0:2:0:0:
329,347,64729,2,0,B|386:312|386:312|423:249,1,140,8|8,0:0|0:2,0:0:0:0:
352,192,65084,2,0,L|268:192,2,70,8|0|8,0:0|0:0|0:0,0:0:0:0:
420,132,65438,2,0,L|490:132,1,70,8|0,0:2|0:0,0:0:0:0:
352,76,65674,2,0,L|272:76,1,70,8|0,0:0|0:0,0:0:0:0:
200,40,65910,1,8,0:2:0:0:
119,83,66029,1,8,0:2:0:0:
48,148,66147,6,0,L|76:256,1,93.7999955630495,2|0,0:0|0:0,0:0:0:0:
144,192,66501,2,0,L|172:300,1,93.7999955630495,2|0,0:0|0:0,0:0:0:0:
240,224,66855,2,0,L|268:332,1,93.7999955630495,2|0,0:0|0:0,0:0:0:0:
382,209,67328,1,8,0:2:0:0:
360,56,67564,1,8,0:0:0:0:
298,89,67682,1,8,0:0:0:0:
228,99,67800,1,8,0:0:0:0:
158,88,67918,1,8,0:0:0:0:
92,64,68036,6,0,P|80:156|20:224,1,140,4|8,0:0|0:0,0:0:0:0:
2,269,68391,1,0,0:0:0:0:
2,269,68509,2,0,P|9:313|33:344,1,70,8|8,0:2|0:2,0:0:0:0:
204,350,68745,1,8,0:0:0:0:
204,350,68863,2,0,P|117:319|92:270,1,140,8|8,0:2|0:2,0:0:0:0:
211,197,69218,2,0,P|203:236|176:272,1,70,8|0,0:0|0:0,0:0:0:0:
126,198,69454,2,0,P|115:155|124:115,2,70,8|8|8,0:2|0:2|0:0,0:0:0:0:
170,338,69926,6,0,B|224:302|252:352|304:315,1,140,4|8,0:0|0:0,0:0:0:0:
392,224,70281,1,0,0:0:0:0:
392,224,70399,2,0,B|340:261|312:211|258:247,1,140,4|8,0:0|0:0,0:0:0:0:
349,151,70753,1,8,0:2:0:0:
349,151,70871,2,0,B|403:115|431:165|483:128,1,140,4|8,0:0|0:0,0:0:0:0:
481,29,71225,1,0,0:0:0:0:
384,12,71344,2,0,P|341:16|296:44,1,70,8|8,0:2|0:2,0:0:0:0:
261,108,71580,1,8,0:0:0:0:
349,151,71698,1,8,0:0:0:0:
349,151,71816,6,0,P|300:197|202:189,1,140,4|0,0:0|0:0,0:0:0:0:
143,100,72170,1,0,0:0:0:0:
143,100,72288,2,0,P|112:133|95:171,1,70,8|8,0:2|0:2,0:0:0:0:
110,240,72525,1,8,0:0:0:0:
29,282,72643,2,0,P|79:327|148:324,1,140,8|8,0:2|0:2,0:0:0:0:
158,189,72997,2,0,L|109:239,1,70,8|0,0:0|0:0,0:0:0:0:
219,256,73233,2,0,L|267:205,1,70,8|8,0:2|0:2,0:0:0:0:
268,82,73470,2,0,L|219:132,1,70,8|0,0:0|0:0,0:0:0:0:
349,274,73706,6,0,P|385:279|415:298,2,70,4|0|8,0:0|0:0|0:2,0:0:0:0:
351,187,74060,2,0,P|384:173|420:174,2,70,4|0|8,0:0|0:0|0:2,0:0:0:0:
304,121,74414,2,0,P|326:92|357:75,2,70,4|0|8,0:0|0:0|0:2,0:0:0:0:
267,205,74769,1,8,0:2:0:0:
209,275,74887,2,0,P|139:266|119:202,1,140,4|8,0:0|0:2,0:0:0:0:
191,152,75241,2,0,L|192:64,2,70,8|8|8,0:2|0:0|0:0,0:0:0:0:
267,205,75596,6,0,P|327:243|405:243,1,140,4|8,0:0|0:2,0:0:0:0:
353,149,75950,2,0,P|391:89|391:11,1,140,4|8,0:0|0:2,0:0:0:0:
299,61,76304,2,0,P|239:23|161:23,1,140,4|8,0:0|0:2,0:0:0:0:
100,88,76659,1,8,0:2:0:0:
80,183,76777,2,0,P|94:229|128:259,1,70,8|0,0:0|0:2,0:0:0:0:
194,291,77013,1,8,0:0:0:0:
284,252,77131,1,8,0:0:0:0:
381,253,77249,1,8,0:0:0:0:
471,214,77367,1,8,0:0:0:0:
493,111,77485,6,0,P|397:122|331:79,1,140,4|8,0:0|0:0,0:0:0:0:
291,44,77840,1,0,0:0:0:0:
201,64,77958,2,0,L|106:64,1,70,8|8,0:2|0:2,0:0:0:0:
29,154,78194,2,0,L|132:155,1,70,8|8,0:0|0:2,0:0:0:0:
213,200,78430,2,0,P|197:280|142:318,1,140,4|0,0:0|0:0,0:0:0:0:
125,227,78785,2,0,L|265:294,1,140,0|8,0:0|0:2,0:0:0:0:
330,242,79139,1,8,0:0:0:0:
330,242,79257,6,0,P|268:164|318:69,1,210,4|8,0:0|0:0,0:0:0:0:
489,117,79847,2,0,B|438:152|438:152|359:152,1,140,8|8,0:2|0:0,0:0:0:0:
132,70,80320,2,0,B|94:156|94:156|136:239|136:239|89:347,1,280,8|8,0:2|0:2,0:0:0:0:
183,357,80910,2,0,L|227:357,5,35,8|8|8|8|8|8,0:2|0:3|0:3|0:2|0:2|0:2,0:0:0:0:
294,310,81265,6,0,P|318:246|302:178,1,140,4|8,0:0|0:0,0:0:0:0:
257,99,81619,1,0,0:0:0:0:
184,44,81737,1,8,0:2:0:0:
125,113,81855,1,8,0:2:0:0:
188,180,81973,2,0,P|144:248|128:256,1,70,8|8,0:0|0:2,0:0:0:0:
80,292,82210,2,0,P|144:284|216:336,1,140,4|8,0:0|0:0,0:0:0:0:
128,368,82564,1,0,0:0:0:0:
80,292,82682,2,0,L|52:220,2,70,8|8|8,0:2|0:2|0:3,0:0:0:0:
136,220,83036,6,0,P|128:152|160:72,1,140,4|0,0:0|0:0,0:0:0:0:
236,124,83391,2,0,P|224:184|240:220,1,70,8|0,0:2|0:0,0:0:0:0:
316,208,83627,2,0,P|328:148|312:112,1,70,8|0,0:0|0:0,0:0:0:0:
412,116,83863,1,8,0:2:0:0:
412,116,83981,2,0,P|419:184|397:250,1,140,4|8,0:0|0:0,0:0:0:0:
316,328,84336,2,0,P|232:296|172:320,1,140,8|8,0:2|0:0,0:0:0:0:
104,344,84690,1,8,0:0:0:0:
104,344,84808,6,0,L|64:208,1,140,4|0,0:0|0:0,0:0:0:0:
148,47,85281,1,8,0:2:0:0:
254,191,85517,2,0,L|230:279,1,70,8|0,0:0|0:0,0:0:0:0:
151,208,85753,2,0,L|175:120,1,70,8|4,0:2|0:0,0:0:0:0:
256,92,85989,1,8,0:0:0:0:
344,52,86107,1,8,0:0:0:0:
428,92,86225,1,8,0:3:0:0:
426,191,86344,1,8,0:3:0:0:
340,234,86462,1,8,0:2:0:0:
254,191,86580,1,8,0:2:0:0:
340,144,86698,1,12,0:0:0:0:
