osu file format v14

[General]
AudioFilename: garasu no sora.mp3
AudioLeadIn: 0
PreviewTime: 75859
Countdown: 0
SampleSet: Soft
StackLeniency: 0.7
Mode: 3
LetterboxInBreaks: 0
SpecialStyle: 0
WidescreenStoryboard: 0

[Editor]
Bookmarks: 64430,107287
DistanceSpacing: 0.8
BeatDivisor: 4
GridSize: 4
TimelineZoom: 1.1

[Metadata]
Title:Hari no Sora
TitleUnicode:玻璃の空
Artist:Satori-san
ArtistUnicode:サトリさん
Creator:[ A v a l o n ]
Version:Lv.7
Source:
Tags:Japan Waruwaru Alliance 小清水 亜美 Koshimizu Ami C74 Comiket Garasu Sound Online Yatoki Tsukasa 矢鴇つかさ Bungaku Shoujo
BeatmapID:703897
BeatmapSetID:315793

[Difficulty]
HPDrainRate:7
CircleSize:4
OverallDifficulty:7
ApproachRate:5
SliderMultiplier:1.4
SliderTickRate:1

[Events]
//Background and Video events
0,0,"Bungaku-Shoujo (1).jpg",0,0
//Break Periods
//Storyboard Layer 0 (Background)
//Storyboard Layer 1 (Fail)
//Storyboard Layer 2 (Pass)
//Storyboard Layer 3 (Foreground)
//Storyboard Sound Samples

[TimingPoints]
621,476.190476190476,4,2,1,60,1,0
38716,-100,4,2,1,27,0,0
46335,-100,4,2,1,25,0,0
61573,-100,4,2,1,30,0,0
76811,-100,4,2,1,35,0,1
107287,-100,4,2,1,30,0,0
130144,-100,4,2,1,60,0,0

[HitObjects]
64,192,621,5,0,0:0:0:0:
192,192,859,1,0,0:0:0:0:
320,192,1097,1,0,0:0:0:0:
192,192,1335,1,0,0:0:0:0:
320,192,1573,1,0,0:0:0:0:
448,192,1811,1,0,0:0:0:0:
192,192,2049,1,0,0:0:0:0:
320,192,2287,1,0,0:0:0:0:
64,192,2525,1,0,0:0:0:0:
448,192,2763,1,0,0:0:0:0:
320,192,3001,1,0,0:0:0:0:
192,192,3240,1,0,0:0:0:0:
320,192,3478,1,0,0:0:0:0:
192,192,3716,1,0,0:0:0:0:
64,192,3954,1,0,0:0:0:0:
320,192,4430,1,0,0:0:0:0:
192,192,4668,1,0,0:0:0:0:
448,192,4906,1,0,0:0:0:0:
64,192,5144,1,0,0:0:0:0:
192,192,5382,1,0,0:0:0:0:
320,192,5620,1,0,0:0:0:0:
192,192,5859,1,0,0:0:0:0:
320,192,6097,1,0,0:0:0:0:
448,192,6335,1,0,0:0:0:0:
192,192,6573,1,0,0:0:0:0:
320,192,6811,1,0,0:0:0:0:
64,192,7049,1,0,0:0:0:0:
448,192,7287,1,0,0:0:0:0:
320,192,7525,1,0,0:0:0:0:
192,192,7763,1,0,0:0:0:0:
64,192,8001,1,0,0:0:0:0:
192,192,8240,1,0,0:0:0:0:
320,192,8478,1,0,0:0:0:0:
448,192,8716,1,0,0:0:0:0:
64,192,8954,1,0,0:0:0:0:
192,192,9192,1,0,0:0:0:0:
320,192,9430,1,0,0:0:0:0:
192,192,9668,1,0,0:0:0:0:
320,192,9906,1,0,0:0:0:0:
448,192,10144,1,0,0:0:0:0:
192,192,10382,1,0,0:0:0:0:
320,192,10620,1,0,0:0:0:0:
64,192,10859,1,0,0:0:0:0:
448,192,11097,1,0,0:0:0:0:
192,192,11335,1,0,0:0:0:0:
320,192,11573,1,0,0:0:0:0:
448,192,12049,1,0,0:0:0:0:
320,192,12287,1,0,0:0:0:0:
192,192,12525,1,0,0:0:0:0:
320,192,12763,1,0,0:0:0:0:
192,192,13001,1,0,0:0:0:0:
64,192,13240,1,0,0:0:0:0:
192,192,13478,1,0,0:0:0:0:
320,192,13716,1,0,0:0:0:0:
64,192,13954,1,0,0:0:0:0:
448,192,13954,128,0,15859:0:0:0:0:
64,192,15859,1,0,0:0:0:30:soft-hitfinish.wav
192,192,15859,1,0,0:0:0:30:soft-hitwhistle.wav
320,192,16335,1,0,0:0:0:0:
64,192,16811,1,0,0:0:0:0:
448,192,17287,1,0,0:0:0:0:
320,192,17763,1,0,0:0:0:0:
192,192,18240,1,0,0:0:0:0:
448,192,18716,1,0,0:0:0:0:
320,192,19192,1,0,0:0:0:0:
64,192,19668,1,0,0:0:0:0:
192,192,20144,1,0,0:0:0:0:
448,192,20620,1,0,0:0:0:0:
320,192,21097,1,0,0:0:0:0:
192,192,21573,1,0,0:0:0:0:
64,192,21811,128,0,22049:0:0:0:0:
320,192,22049,128,0,22287:0:0:0:0:
448,192,22287,128,0,22525:0:0:0:0:
192,192,22525,128,0,22882:0:0:0:0:
448,192,22882,128,0,23478:0:0:0:0:
64,192,23240,128,0,23478:0:0:0:0:
320,192,23478,1,0,0:0:0:0:
192,192,23716,1,0,0:0:0:0:
448,192,23954,1,0,0:0:0:0:
64,192,24430,1,0,0:0:0:0:
448,192,24906,1,0,0:0:0:0:
192,192,25144,1,0,0:0:0:0:
320,192,25382,1,0,0:0:0:0:
64,192,25620,1,0,0:0:0:0:
192,192,25859,1,0,0:0:0:0:
320,192,26335,1,0,0:0:0:0:
64,192,26811,1,0,0:0:0:0:
448,192,27049,1,0,0:0:0:0:
320,192,27287,1,0,0:0:0:0:
64,192,27525,1,0,0:0:0:0:
448,192,27763,1,0,0:0:0:0:
320,192,28240,1,0,0:0:0:0:
192,192,28716,1,0,0:0:0:0:
448,192,28954,1,0,0:0:0:0:
64,192,29192,1,0,0:0:0:0:
192,192,29430,128,0,29668:0:0:0:0:
320,192,29668,128,0,29906:0:0:0:0:
64,192,29906,128,0,30144:0:0:0:0:
448,192,30144,128,0,31097:0:0:0:0:
64,192,30620,1,0,0:0:0:0:
320,192,30859,1,0,0:0:0:0:
192,192,31097,1,0,0:0:0:30:soft-hitwhistle.wav
64,192,31097,1,0,0:0:0:0:
320,192,31335,1,0,0:0:0:0:
64,192,31573,1,0,0:0:0:0:
448,192,31811,1,0,0:0:0:0:
192,192,32049,1,0,0:0:0:0:
448,192,32287,1,0,0:0:0:0:
64,192,32525,1,0,0:0:0:0:
192,192,32763,1,0,0:0:0:0:
320,192,33001,1,0,0:0:0:0:
64,192,33240,1,0,0:0:0:0:
448,192,33478,1,0,0:0:0:0:
192,192,33716,1,0,0:0:0:0:
320,192,33954,1,0,0:0:0:0:
64,192,34192,1,0,0:0:0:0:
448,192,34430,1,0,0:0:0:0:
320,192,34668,1,0,0:0:0:0:
192,192,34906,1,0,0:0:0:0:
448,192,35144,1,0,0:0:0:0:
64,192,35382,1,0,0:0:0:0:
320,192,35620,1,0,0:0:0:0:
192,192,35859,1,0,0:0:0:0:
448,192,36097,1,0,0:0:0:0:
64,192,36335,1,0,0:0:0:0:
320,192,36573,1,0,0:0:0:0:
448,192,36811,1,0,0:0:0:0:
64,192,37049,1,0,0:0:0:0:
192,192,37287,1,0,0:0:0:0:
448,192,37525,1,0,0:0:0:0:
192,192,37644,1,0,0:0:0:0:
64,192,38001,1,0,0:0:0:0:
192,192,38240,1,0,0:0:0:0:
320,192,38478,1,0,0:0:0:0:
64,192,38716,1,4,0:0:0:0:
448,192,38716,1,2,0:0:0:0:
192,192,38954,1,2,0:0:0:0:
320,192,39192,1,2,0:0:0:0:
64,192,39430,1,2,0:0:0:0:
448,192,39668,1,2,0:0:0:0:
192,192,39906,1,2,0:0:0:0:
320,192,40144,1,2,0:0:0:0:
64,192,40382,1,2,0:0:0:0:
448,192,40620,1,4,0:0:0:0:
320,192,40620,1,2,0:0:0:0:
192,192,40859,1,2,0:0:0:0:
448,192,41097,1,2,0:0:0:0:
64,192,41335,1,2,0:0:0:0:
320,192,41573,1,2,0:0:0:0:
192,192,41811,1,2,0:0:0:0:
448,192,42049,1,2,0:0:0:0:
320,192,42287,1,2,0:0:0:0:
64,192,42525,1,4,0:0:0:0:
192,192,42525,1,2,0:0:0:0:
320,192,42763,1,2,0:0:0:0:
448,192,43001,1,2,0:0:0:0:
320,192,43240,1,2,0:0:0:0:
64,192,43478,1,2,0:0:0:0:
192,192,43478,1,4,0:0:0:0:
448,192,43716,1,2,0:0:0:0:
320,192,43954,1,2,0:0:0:0:
192,192,44192,1,2,0:0:0:0:
448,192,44430,128,0,44906:0:0:0:0:
64,192,44430,1,2,0:0:0:0:
320,192,44906,128,2,45382:0:0:0:0:
192,192,45382,128,2,45859:0:0:0:0:
64,192,45859,128,0,46335:0:0:0:0:
448,192,45859,1,2,0:0:0:0:
320,192,46097,1,2,0:0:0:0:
192,192,46335,1,2,0:0:0:0:
448,192,46335,1,4,0:0:0:0:
448,192,47049,128,0,47525:0:0:0:0:
64,192,47525,128,0,48001:0:0:0:0:
320,192,48001,1,0,0:0:0:0:
192,192,48240,1,0,0:0:0:0:
64,192,48954,128,0,49430:0:0:0:0:
448,192,49430,128,0,49906:0:0:0:0:
192,192,49906,1,2,0:0:0:0:
64,192,49906,1,0,0:0:0:0:
320,192,50144,1,2,0:0:0:0:
448,192,50144,1,0,0:0:0:0:
448,192,50859,128,0,51335:0:0:0:0:
64,192,51335,128,0,51811:0:0:0:0:
320,192,51811,1,0,0:0:0:0:
192,192,52049,1,0,0:0:0:0:
448,192,52287,1,0,0:0:0:0:
320,192,52525,1,0,0:0:0:0:
64,192,52763,1,0,0:0:0:0:
320,192,53001,1,2,0:0:0:0:
448,192,53001,1,0,0:0:0:0:
448,192,53359,1,0,0:0:0:0:
320,192,53359,1,2,0:0:0:0:
64,192,53716,1,0,0:0:0:0:
192,192,53716,1,2,0:0:0:0:
320,192,53954,1,2,0:0:0:0:
448,192,53954,1,0,0:0:0:0:
64,192,54668,128,0,55144:0:0:0:0:
448,192,55144,128,0,55620:0:0:0:0:
192,192,55620,1,0,0:0:0:0:
320,192,55859,1,0,0:0:0:0:
448,192,56573,128,0,57049:0:0:0:0:
64,192,57049,128,0,57525:0:0:0:0:
320,192,57525,1,0,0:0:0:0:
448,192,57525,1,2,0:0:0:0:
64,192,57763,1,2,0:0:0:0:
192,192,57763,1,0,0:0:0:0:
320,192,58240,1,0,0:0:0:0:
192,192,58478,1,0,0:0:0:0:
448,192,58716,1,0,0:0:0:0:
320,192,58954,1,0,0:0:0:0:
192,192,59430,1,0,0:0:0:0:
64,192,59668,1,2,0:0:0:0:
448,192,59668,1,0,0:0:0:0:
192,192,59906,1,0,0:0:0:0:
320,192,59906,1,2,0:0:0:0:
64,192,60144,1,8,0:0:0:0:
320,192,60263,1,2,0:0:0:0:
64,192,60620,1,0,0:0:0:0:
448,192,60620,1,2,0:0:0:0:
192,192,60859,1,8,0:0:0:0:
448,192,60978,1,2,0:0:0:0:
64,192,60978,1,8,0:0:0:0:
320,192,61097,1,0,0:0:0:0:
192,192,61216,1,2,0:0:0:0:
320,192,61335,1,2,0:0:0:0:
448,192,61335,1,0,0:0:0:0:
448,192,61573,1,2,0:0:0:0:
64,192,61573,1,4,0:0:0:0:
192,192,61811,1,0,0:0:0:0:
448,192,62049,1,8,0:0:0:0:
64,192,62049,1,0,0:0:0:0:
320,192,62406,1,2,0:0:0:0:
192,192,62763,1,2,0:0:0:0:
448,192,63001,1,0,0:0:0:0:
64,192,63001,1,8,0:0:0:0:
320,192,63478,1,2,0:0:0:0:
448,192,63954,1,8,0:0:0:0:
64,192,63954,1,0,0:0:0:0:
192,192,64311,1,2,0:0:0:0:
320,192,64668,1,2,0:0:0:0:
64,192,64906,1,0,0:0:0:0:
448,192,64906,1,8,0:0:0:0:
192,192,65144,1,2,0:0:0:0:
320,192,65382,1,2,0:0:0:0:
448,192,65859,1,8,0:0:0:0:
64,192,65859,1,0,0:0:0:0:
192,192,66216,1,2,0:0:0:0:
320,192,66573,1,2,0:0:0:0:
64,192,66811,1,0,0:0:0:0:
448,192,66811,1,8,0:0:0:0:
192,192,67287,1,2,0:0:0:0:
64,192,67763,1,8,0:0:0:0:
448,192,67763,1,0,0:0:0:0:
320,192,68120,1,2,0:0:0:0:
192,192,68478,1,2,0:0:0:0:
64,192,68716,1,0,0:0:0:0:
448,192,68716,1,8,0:0:0:0:
320,192,68835,1,2,0:0:0:0:
192,192,68954,1,8,0:0:0:0:
320,192,69073,1,2,0:0:0:0:
448,192,69192,1,4,0:0:0:0:
64,192,69192,1,2,0:0:0:0:
192,192,69430,1,0,0:0:0:0:
320,192,69668,1,0,0:0:0:0:
64,192,69906,1,0,0:0:0:0:
448,192,70025,1,0,0:0:0:0:
192,192,70263,1,0,0:0:0:0:
320,192,70382,1,0,0:0:0:0:
64,192,70620,1,0,0:0:0:0:
448,192,70859,1,2,0:0:0:0:
320,192,70859,1,0,0:0:0:0:
64,192,71097,1,4,0:0:0:0:
192,192,71097,1,2,0:0:0:0:
448,192,71335,1,0,0:0:0:0:
64,192,71573,1,0,0:0:0:0:
320,192,71811,1,0,0:0:0:0:
192,192,71930,1,0,0:0:0:0:
448,192,72168,1,0,0:0:0:0:
64,192,72287,1,0,0:0:0:0:
448,192,72525,1,0,0:0:0:0:
320,192,72644,1,0,0:0:0:0:
192,192,72763,1,2,0:0:0:0:
64,192,72763,1,0,0:0:0:0:
448,192,73001,1,2,0:0:0:0:
320,192,73001,1,4,0:0:0:0:
192,192,73240,1,0,0:0:0:0:
64,192,73478,1,2,0:0:0:0:
320,192,73478,1,0,0:0:0:0:
448,192,73716,1,0,0:0:0:0:
192,192,73954,1,2,0:0:0:0:
64,192,73954,1,4,0:0:0:0:
320,192,74192,1,0,0:0:0:0:
448,192,74430,1,2,0:0:0:0:
192,192,74430,1,0,0:0:0:0:
64,192,74668,1,0,0:0:0:0:
320,192,74906,1,4,0:0:0:0:
448,192,74906,1,2,0:0:0:0:
192,192,75144,1,2,0:0:0:0:
448,192,75382,1,2,0:0:0:0:
64,192,75382,1,0,0:0:0:0:
320,192,75620,1,2,0:0:0:0:
64,192,75859,128,0,76811:0:0:0:0:
192,192,75859,1,2,0:0:0:0:
192,192,76335,128,2,76811:0:0:0:0:
320,192,76811,1,4,0:0:0:0:
448,192,76811,1,2,0:0:0:0:
192,192,77049,1,0,0:0:0:0:
448,192,77287,1,8,0:0:0:0:
320,192,77287,1,0,0:0:0:0:
64,192,77525,1,0,0:0:0:0:
192,192,77763,1,2,0:0:0:0:
448,192,77763,1,0,0:0:0:0:
320,192,78001,1,0,0:0:0:0:
64,192,78240,1,8,0:0:0:0:
192,192,78240,1,0,0:0:0:0:
448,192,78478,1,0,0:0:0:0:
320,192,78716,1,2,0:0:0:0:
64,192,78716,1,0,0:0:0:0:
192,192,78954,1,0,0:0:0:0:
64,192,79192,1,0,0:0:0:0:
320,192,79192,1,8,0:0:0:0:
448,192,79430,1,0,0:0:0:0:
64,192,79668,1,2,0:0:0:0:
192,192,79668,1,0,0:0:0:0:
320,192,79906,1,0,0:0:0:0:
192,192,80144,1,0,0:0:0:0:
448,192,80144,1,8,0:0:0:0:
64,192,80382,1,2,0:0:0:0:
448,192,80620,1,2,0:0:0:0:
320,192,80620,1,0,0:0:0:0:
192,192,80859,1,0,0:0:0:0:
64,192,81097,1,0,0:0:0:0:
320,192,81097,1,8,0:0:0:0:
448,192,81335,1,0,0:0:0:0:
192,192,81573,1,2,0:0:0:0:
320,192,81573,1,0,0:0:0:0:
64,192,81811,1,0,0:0:0:0:
320,192,82049,1,0,0:0:0:0:
448,192,82049,1,8,0:0:0:0:
192,192,82287,1,0,0:0:0:0:
64,192,82525,1,2,0:0:0:0:
448,192,82525,1,0,0:0:0:0:
320,192,82763,1,0,0:0:0:0:
192,192,83001,1,0,0:0:0:0:
448,192,83001,1,8,0:0:0:0:
64,192,83240,1,0,0:0:0:0:
320,192,83478,1,2,0:0:0:0:
448,192,83478,1,0,0:0:0:0:
192,192,83716,1,0,0:0:0:0:
64,192,83954,1,0,0:0:0:0:
448,192,83954,1,8,0:0:0:0:
320,192,84192,1,2,0:0:0:0:
192,192,84430,1,2,0:0:0:0:
64,192,84430,1,0,0:0:0:0:
320,192,84668,1,0,0:0:0:0:
192,192,84906,1,0,0:0:0:0:
448,192,84906,1,8,0:0:0:0:
64,192,85144,1,0,0:0:0:0:
320,192,85382,1,2,0:0:0:0:
448,192,85382,1,0,0:0:0:0:
192,192,85620,1,0,0:0:0:0:
64,192,85859,1,8,0:0:0:0:
448,192,85859,1,0,0:0:0:0:
320,192,86097,1,0,0:0:0:0:
448,192,86335,1,2,0:0:0:0:
192,192,86335,1,0,0:0:0:0:
64,192,86573,1,0,0:0:0:0:
320,192,86811,1,0,0:0:0:0:
192,192,86811,1,8,0:0:0:0:
448,192,87049,1,0,0:0:0:0:
192,192,87287,1,2,0:0:0:0:
64,192,87287,1,0,0:0:0:0:
320,192,87525,1,0,0:0:0:0:
192,192,87763,1,0,0:0:0:0:
448,192,87763,1,8,0:0:0:0:
64,192,88001,1,2,0:0:0:0:
320,192,88240,1,2,0:0:0:0:
448,192,88240,1,0,0:0:0:0:
192,192,88478,1,0,0:0:0:0:
448,192,88716,1,8,0:0:0:0:
64,192,88716,1,0,0:0:0:0:
320,192,88954,1,0,0:0:0:0:
192,192,89192,1,2,0:0:0:0:
64,192,89192,1,0,0:0:0:0:
448,192,89430,1,0,0:0:0:0:
320,192,89668,1,0,0:0:0:0:
192,192,89668,1,8,0:0:0:0:
64,192,89906,1,0,0:0:0:0:
320,192,90144,1,2,0:0:0:0:
448,192,90144,1,0,0:0:0:0:
192,192,90382,1,0,0:0:0:0:
64,192,90620,1,0,0:0:0:0:
448,192,90620,1,8,0:0:0:0:
320,192,90859,1,0,0:0:0:0:
64,192,91097,128,0,92049:0:0:0:0:
192,192,91097,1,2,0:0:0:0:
448,192,91454,1,2,0:0:0:0:
192,192,91573,1,8,0:0:0:0:
320,192,91811,1,2,0:0:0:0:
192,192,92049,1,4,0:0:0:0:
448,192,92049,1,2,0:0:0:0:
64,192,92287,1,0,0:0:0:0:
448,192,92525,1,0,0:0:0:0:
192,192,92525,1,8,0:0:0:0:
320,192,92763,1,0,0:0:0:0:
192,192,93001,1,2,0:0:0:0:
64,192,93001,1,0,0:0:0:0:
448,192,93240,1,0,0:0:0:0:
320,192,93478,1,0,0:0:0:0:
192,192,93478,1,8,0:0:0:0:
64,192,93716,1,0,0:0:0:0:
320,192,93954,1,2,0:0:0:0:
448,192,93954,1,0,0:0:0:0:
192,192,94192,1,0,0:0:0:0:
320,192,94430,1,0,0:0:0:0:
64,192,94430,1,8,0:0:0:0:
448,192,94668,1,0,0:0:0:0:
192,192,94906,1,2,0:0:0:0:
64,192,94906,1,0,0:0:0:0:
320,192,95144,1,0,0:0:0:0:
448,192,95382,1,8,0:0:0:0:
192,192,95382,1,0,0:0:0:0:
64,192,95620,1,2,0:0:0:0:
448,192,95859,1,2,0:0:0:0:
320,192,95859,1,0,0:0:0:0:
192,192,96097,1,0,0:0:0:0:
448,192,96335,1,8,0:0:0:0:
64,192,96335,1,0,0:0:0:0:
320,192,96573,1,0,0:0:0:0:
64,192,96811,1,2,0:0:0:0:
192,192,96811,1,0,0:0:0:0:
320,192,97049,1,0,0:0:0:0:
64,192,97287,1,0,0:0:0:0:
448,192,97287,1,8,0:0:0:0:
192,192,97525,1,0,0:0:0:0:
448,192,97763,1,2,0:0:0:0:
64,192,97763,1,0,0:0:0:0:
320,192,98001,1,0,0:0:0:0:
192,192,98240,1,0,0:0:0:0:
448,192,98240,1,8,0:0:0:0:
64,192,98478,1,0,0:0:0:0:
320,192,98716,1,2,0:0:0:0:
448,192,98716,1,0,0:0:0:0:
192,192,98954,1,0,0:0:0:0:
448,192,99192,1,8,0:0:0:0:
64,192,99192,1,0,0:0:0:0:
320,192,99430,1,2,0:0:0:0:
192,192,99668,1,2,0:0:0:0:
448,192,99668,1,0,0:0:0:0:
64,192,99906,1,0,0:0:0:0:
320,192,100144,1,8,0:0:0:0:
448,192,100144,1,0,0:0:0:0:
192,192,100382,1,0,0:0:0:0:
320,192,100620,1,2,0:0:0:0:
64,192,100620,1,0,0:0:0:0:
192,192,100859,1,0,0:0:0:0:
448,192,101097,1,8,0:0:0:0:
64,192,101097,1,0,0:0:0:0:
320,192,101335,1,0,0:0:0:0:
192,192,101573,1,2,0:0:0:0:
448,192,101573,1,0,0:0:0:0:
320,192,101811,1,0,0:0:0:0:
192,192,102049,1,0,0:0:0:0:
64,192,102049,1,8,0:0:0:0:
448,192,102287,1,0,0:0:0:0:
192,192,102525,1,2,0:0:0:0:
320,192,102525,1,0,0:0:0:0:
64,192,102763,1,0,0:0:0:0:
192,192,103001,1,0,0:0:0:0:
448,192,103001,1,8,0:0:0:0:
64,192,103240,1,0,0:0:0:0:
448,192,103478,1,2,0:0:0:0:
320,192,103478,1,0,0:0:0:0:
192,192,103716,1,2,0:0:0:0:
320,192,103954,1,8,0:0:0:0:
448,192,103954,1,2,0:0:0:0:
64,192,104192,1,2,0:0:0:0:
448,192,104430,1,2,0:0:0:0:
320,192,104430,1,0,0:0:0:0:
192,192,104668,1,2,0:0:0:0:
448,192,104906,1,2,0:0:0:0:
320,192,104906,1,8,0:0:0:0:
64,192,105144,1,2,0:0:0:0:
192,192,105144,1,0,0:0:0:0:
448,192,105382,128,0,105859:0:0:0:35:soft-hitfinish.wav
320,192,105382,1,0,0:0:0:35:soft-hitwhistle.wav
320,192,105859,128,0,106335:0:0:0:0:
192,192,106335,128,0,106811:0:0:0:0:
64,192,106811,128,0,107287:0:0:0:0:
448,192,107287,1,4,0:0:0:0:
320,192,107287,1,2,0:0:0:0:
192,192,107644,1,0,0:0:0:0:
320,192,107763,1,0,0:0:0:0:
448,192,107763,1,8,0:0:0:0:
64,192,108001,1,0,0:0:0:0:
320,192,108240,1,2,0:0:0:0:
192,192,108240,1,0,0:0:0:0:
448,192,108716,1,8,0:0:0:0:
64,192,108716,1,0,0:0:0:0:
320,192,108954,1,2,0:0:0:0:
448,192,109192,1,2,0:0:0:0:
64,192,109192,1,0,0:0:0:0:
320,192,109668,1,0,0:0:0:0:
192,192,109668,1,8,0:0:0:0:
64,192,109906,1,0,0:0:0:0:
448,192,110144,1,2,0:0:0:0:
320,192,110144,1,0,0:0:0:0:
192,192,110620,1,8,0:0:0:0:
64,192,110620,1,0,0:0:0:0:
320,192,110859,1,2,0:0:0:0:
448,192,111097,1,2,0:0:0:0:
64,192,111097,1,0,0:0:0:0:
192,192,111454,1,0,0:0:0:0:
320,192,111573,1,0,0:0:0:0:
448,192,111573,1,8,0:0:0:0:
64,192,111811,1,0,0:0:0:0:
448,192,112049,1,0,0:0:0:0:
320,192,112049,1,2,0:0:0:0:
192,192,112287,1,0,0:0:0:0:
448,192,112525,1,8,0:0:0:0:
64,192,112525,1,0,0:0:0:0:
320,192,112763,1,2,0:0:0:0:
192,192,113001,1,2,0:0:0:0:
64,192,113001,1,0,0:0:0:0:
448,192,113240,1,0,0:0:0:0:
320,192,113478,1,8,0:0:0:0:
192,192,113478,1,0,0:0:0:0:
64,192,113716,1,0,0:0:0:0:
448,192,113954,1,2,0:0:0:0:
320,192,113954,1,0,0:0:0:0:
448,192,114430,1,8,0:0:0:0:
64,192,114430,1,0,0:0:0:0:
192,192,114668,1,2,0:0:0:0:
320,192,114906,1,2,0:0:0:0:
64,192,114906,1,0,0:0:0:0:
64,192,115263,1,0,0:0:0:0:
320,192,115382,1,0,0:0:0:0:
448,192,115382,1,8,0:0:0:0:
192,192,115620,1,0,0:0:0:0:
448,192,115859,1,2,0:0:0:0:
320,192,115859,1,0,0:0:0:0:
448,192,116335,1,0,0:0:0:0:
64,192,116335,1,8,0:0:0:0:
192,192,116573,1,2,0:0:0:0:
320,192,116811,1,2,0:0:0:0:
64,192,116811,1,0,0:0:0:0:
192,192,117287,1,8,0:0:0:0:
320,192,117287,1,0,0:0:0:0:
448,192,117525,1,0,0:0:0:0:
64,192,117763,1,2,0:0:0:0:
192,192,117763,1,0,0:0:0:0:
448,192,118240,1,8,0:0:0:0:
64,192,118240,1,0,0:0:0:0:
320,192,118478,1,2,0:0:0:0:
192,192,118716,1,0,0:0:0:0:
448,192,118716,1,2,0:0:0:0:
64,192,119073,1,0,0:0:0:0:
448,192,119192,1,0,0:0:0:0:
320,192,119192,1,8,0:0:0:0:
192,192,119430,1,0,0:0:0:0:
64,192,119668,1,2,0:0:0:0:
448,192,119668,1,0,0:0:0:0:
64,192,120144,1,8,0:0:0:0:
192,192,120144,1,0,0:0:0:0:
448,192,120620,1,0,0:0:0:0:
320,192,120620,1,2,0:0:0:0:
192,192,120859,1,0,0:0:0:0:
448,192,121097,1,8,0:0:0:0:
64,192,121097,1,0,0:0:0:0:
320,192,121335,1,0,0:0:0:0:
192,192,121573,1,2,0:0:0:0:
64,192,121573,1,0,0:0:0:0:
64,192,121930,1,2,0:0:0:0:
448,192,122049,1,0,0:0:0:0:
320,192,122049,1,8,0:0:0:0:
192,192,122287,1,2,0:0:0:0:
64,192,122525,1,2,0:0:0:0:
448,192,122525,1,4,0:0:0:0:
448,192,123001,1,8,0:0:0:0:
192,192,123001,1,0,0:0:0:0:
320,192,123240,1,2,0:0:0:0:
192,192,123478,1,2,0:0:0:0:
64,192,123478,1,0,0:0:0:0:
64,192,123954,1,0,0:0:0:0:
448,192,123954,1,8,0:0:0:0:
192,192,124192,1,2,0:0:0:0:
320,192,124430,1,2,0:0:0:0:
448,192,124430,1,0,0:0:0:0:
64,192,124906,1,8,0:0:0:0:
192,192,124906,1,0,0:0:0:0:
320,192,125144,1,0,0:0:0:0:
192,192,125382,1,2,0:0:0:0:
448,192,125382,1,0,0:0:0:0:
448,192,125859,1,8,0:0:0:0:
64,192,125859,1,0,0:0:0:0:
64,192,126335,1,0,0:0:0:0:
320,192,126335,1,2,0:0:0:0:
192,192,126811,1,0,0:0:0:0:
448,192,126811,1,8,0:0:0:0:
448,192,127287,1,0,0:0:0:0:
320,192,127287,1,2,0:0:0:0:
320,192,127644,1,2,0:0:0:0:
64,192,127644,1,0,0:0:0:0:
448,192,128001,1,2,0:0:0:0:
192,192,128001,1,0,0:0:0:0:
320,192,128240,1,0,0:0:0:0:
64,192,128240,1,2,0:0:0:0:
192,192,128716,1,0,0:0:0:0:
320,192,128716,1,8,0:0:0:0:
448,192,128954,1,0,0:0:0:0:
64,192,128954,1,0,0:0:0:0:
320,192,129192,1,2,0:0:0:0:
192,192,129430,1,0,0:0:0:0:
448,192,129668,1,8,0:0:0:0:
64,192,129668,1,0,0:0:0:0:
320,192,129906,1,2,0:0:0:0:
448,192,130144,1,0,0:0:0:40:soft-hitfinish.wav
64,192,130144,1,0,0:0:0:40:soft-hitwhistle.wav
192,192,130382,1,0,0:0:0:0:
64,192,130620,1,0,0:0:0:0:
320,192,130859,1,0,0:0:0:0:
192,192,131097,1,0,0:0:0:0:
448,192,131335,1,0,0:0:0:0:
320,192,131573,1,0,0:0:0:0:
192,192,131811,1,0,0:0:0:30:soft-hitwhistle.wav
64,192,131811,1,0,0:0:0:0:
320,192,132049,1,0,0:0:0:30:soft-hitwhistle.wav
448,192,132049,1,0,0:0:0:0:
64,192,132287,1,0,0:0:0:0:
192,192,132525,1,0,0:0:0:0:
448,192,132763,1,0,0:0:0:0:
320,192,133001,1,0,0:0:0:0:
64,192,133240,1,0,0:0:0:0:
192,192,133478,1,0,0:0:0:0:
448,192,133716,1,0,0:0:0:0:
320,192,133716,1,0,0:0:0:30:soft-hitwhistle.wav
64,192,133954,1,0,0:0:0:0:
192,192,133954,1,0,0:0:0:30:soft-hitwhistle.wav
320,192,134192,1,0,0:0:0:0:
64,192,134430,1,0,0:0:0:0:
448,192,134668,1,0,0:0:0:0:
192,192,134906,1,0,0:0:0:0:
320,192,135144,1,0,0:0:0:0:
64,192,135382,1,0,0:0:0:0:
192,192,135620,1,0,0:0:0:0:
448,192,135859,128,0,136335:0:0:0:0:
320,192,136335,128,0,136811:0:0:0:0:
192,192,136811,128,0,137287:0:0:0:0:
64,192,137287,128,0,137763:0:0:0:0:
320,192,137763,1,0,0:0:0:0:
192,192,137763,1,0,0:0:0:0:
448,192,138001,1,0,0:0:0:0:
192,192,138240,1,0,0:0:0:0:
320,192,138478,1,0,0:0:0:0:
192,192,139430,1,0,0:0:0:0:
448,192,139668,1,0,0:0:0:0:
64,192,139668,1,0,0:0:0:0:
320,192,139906,1,0,0:0:0:0:
192,192,140144,1,0,0:0:0:0:
320,192,140382,1,0,0:0:0:0:
448,192,140382,1,0,0:0:0:0:
64,192,140620,1,0,0:0:0:0:
192,192,140859,1,0,0:0:0:0:
448,192,141097,1,0,0:0:0:0:
320,192,141097,1,0,0:0:0:0:
64,192,141335,1,0,0:0:0:0:
192,192,141573,1,0,0:0:0:0:
448,192,141573,1,0,0:0:0:0:
320,192,141811,1,0,0:0:0:0:
192,192,142049,1,0,0:0:0:0:
448,192,142287,1,0,0:0:0:0:
64,192,142287,1,0,0:0:0:0:
320,192,142525,1,0,0:0:0:0:
192,192,142763,1,0,0:0:0:0:
448,192,143478,1,0,0:0:0:0:
320,192,143478,1,0,0:0:0:0:
64,192,143597,1,0,0:0:0:0:
192,192,143716,1,0,0:0:0:0:
320,192,143835,1,0,0:0:0:0:
448,192,143954,1,0,0:0:0:0:
64,192,144073,1,0,0:0:0:0:
192,192,144192,1,0,0:0:0:0:
320,192,144311,1,0,0:0:0:0:
448,192,144430,128,0,147287:0:0:0:0:
