osu file format v14

[General]
AudioFilename: garasu no sora.mp3
AudioLeadIn: 0
PreviewTime: 75859
Countdown: 0
SampleSet: Soft
StackLeniency: 0.7
Mode: 3
LetterboxInBreaks: 0
SpecialStyle: 0
WidescreenStoryboard: 0

[Editor]
DistanceSpacing: 0.8
BeatDivisor: 4
GridSize: 4
TimelineZoom: 1.6

[Metadata]
Title:Hari no Sora
TitleUnicode:玻璃の空
Artist:Satori-san
ArtistUnicode:サトリさん
Creator:[ A v a l o n ]
Version:Lv.13
Source:
Tags:Japan Waruwaru Alliance 小清水 亜美 Koshimizu Ami C74 Comiket Garasu Sound Online Yatoki Tsukasa 矢鴇つかさ Bungaku Shoujo
BeatmapID:703896
BeatmapSetID:315793

[Difficulty]
HPDrainRate:8
CircleSize:4
OverallDifficulty:9
ApproachRate:5
SliderMultiplier:1.4
SliderTickRate:1

[Events]
//Background and Video events
0,0,"Bungaku-Shoujo (2).jpg",0,0
//Break Periods
//Storyboard Layer 0 (Background)
//Storyboard Layer 1 (Fail)
//Storyboard Layer 2 (Pass)
//Storyboard Layer 3 (Foreground)
//Storyboard Sound Samples

[TimingPoints]
621,476.190476190476,4,2,1,60,1,0
38716,-100,4,2,1,27,0,0
46335,-100,4,2,1,25,0,0
61573,-100,4,2,1,30,0,0
76811,-100,4,2,1,35,0,1
107287,-100,4,2,1,30,0,0
130144,-100,4,2,1,60,0,0

[HitObjects]
192,192,621,5,0,0:0:0:0:
64,192,621,1,0,0:0:0:0:
320,192,859,1,0,0:0:0:0:
448,192,1097,1,0,0:0:0:0:
64,192,1097,1,0,0:0:0:0:
192,192,1335,1,0,0:0:0:0:
320,192,1573,1,0,0:0:0:0:
448,192,1811,1,0,0:0:0:0:
64,192,1811,1,0,0:0:0:0:
320,192,2049,1,0,0:0:0:0:
192,192,2287,1,0,0:0:0:0:
448,192,2287,1,0,0:0:0:0:
64,192,2525,1,0,0:0:0:0:
448,192,2525,1,0,0:0:0:0:
320,192,2763,1,0,0:0:0:0:
192,192,3001,1,0,0:0:0:0:
64,192,3240,1,0,0:0:0:0:
448,192,3240,1,0,0:0:0:0:
192,192,3478,1,0,0:0:0:0:
320,192,3716,1,0,0:0:0:0:
64,192,3954,1,0,0:0:0:0:
448,192,3954,1,0,0:0:0:0:
192,192,4430,1,0,0:0:0:0:
64,192,4430,1,0,0:0:0:0:
320,192,4668,1,0,0:0:0:0:
448,192,4906,1,0,0:0:0:0:
64,192,4906,1,0,0:0:0:0:
192,192,5144,1,0,0:0:0:0:
320,192,5382,1,0,0:0:0:0:
448,192,5620,1,0,0:0:0:0:
64,192,5620,1,0,0:0:0:0:
320,192,5859,1,0,0:0:0:0:
192,192,6097,1,0,0:0:0:0:
64,192,6335,1,0,0:0:0:0:
448,192,6335,1,0,0:0:0:0:
320,192,6573,1,0,0:0:0:0:
192,192,6811,1,0,0:0:0:0:
64,192,7049,1,0,0:0:0:0:
448,192,7049,1,0,0:0:0:0:
320,192,7287,1,0,0:0:0:0:
192,192,7287,1,0,0:0:0:0:
448,192,7525,1,0,0:0:0:0:
64,192,7763,1,0,0:0:0:0:
320,192,8001,1,0,0:0:0:0:
448,192,8240,1,0,0:0:0:0:
64,192,8240,1,0,0:0:0:0:
192,192,8478,1,0,0:0:0:0:
320,192,8716,1,0,0:0:0:0:
448,192,8716,1,0,0:0:0:0:
64,192,8954,1,0,0:0:0:0:
192,192,9192,1,0,0:0:0:0:
320,192,9430,1,0,0:0:0:0:
448,192,9430,1,0,0:0:0:0:
64,192,9668,1,0,0:0:0:0:
192,192,9906,1,0,0:0:0:0:
320,192,10144,1,0,0:0:0:0:
448,192,10144,1,0,0:0:0:0:
192,192,10382,1,0,0:0:0:0:
320,192,10620,1,0,0:0:0:0:
448,192,10859,1,0,0:0:0:0:
64,192,10859,1,0,0:0:0:0:
320,192,11097,1,0,0:0:0:0:
192,192,11335,1,0,0:0:0:0:
64,192,11573,1,0,0:0:0:0:
448,192,11573,1,0,0:0:0:0:
320,192,12049,1,0,0:0:0:0:
448,192,12049,1,0,0:0:0:0:
192,192,12287,1,0,0:0:0:0:
64,192,12525,1,0,0:0:0:0:
448,192,12525,1,0,0:0:0:0:
192,192,12763,1,0,0:0:0:0:
320,192,13001,1,0,0:0:0:0:
448,192,13240,1,0,0:0:0:0:
64,192,13240,1,0,0:0:0:0:
192,192,13478,1,0,0:0:0:0:
64,192,13716,1,0,0:0:0:0:
192,192,13835,1,0,0:0:0:0:
320,192,13894,1,0,0:0:0:0:
64,192,13954,1,0,0:0:0:0:
448,192,13954,1,0,0:0:0:0:
320,192,15859,1,0,0:0:0:0:
448,192,15859,1,0,0:0:0:30:soft-hitfinish.wav
64,192,15859,1,0,0:0:0:30:soft-hitwhistle.wav
192,192,16097,1,0,0:0:0:0:
448,192,16335,1,0,0:0:0:0:
64,192,16573,1,0,0:0:0:0:
192,192,16811,1,0,0:0:0:0:
320,192,17049,1,0,0:0:0:0:
64,192,17287,1,0,0:0:0:0:
448,192,17525,1,0,0:0:0:0:
192,192,17763,1,0,0:0:0:0:
64,192,18001,1,0,0:0:0:0:
192,192,18240,1,0,0:0:0:0:
320,192,18478,1,0,0:0:0:0:
448,192,18716,1,0,0:0:0:0:
64,192,18835,1,0,0:0:0:0:
320,192,18954,1,0,0:0:0:0:
192,192,19192,1,0,0:0:0:0:
320,192,19430,1,0,0:0:0:0:
64,192,19668,1,0,0:0:0:0:
448,192,19787,1,0,0:0:0:0:
192,192,19906,1,0,0:0:0:0:
320,192,20144,1,0,0:0:0:0:
64,192,20382,1,0,0:0:0:0:
448,192,20501,1,0,0:0:0:0:
192,192,20620,1,0,0:0:0:0:
320,192,20740,1,0,0:0:0:0:
64,192,20859,1,0,0:0:0:0:
320,192,20978,1,0,0:0:0:0:
64,192,21097,1,0,0:0:0:0:
448,192,21335,1,0,0:0:0:0:
320,192,21573,1,0,0:0:0:0:
192,192,21692,1,0,0:0:0:0:
64,192,21811,1,0,0:0:0:0:
320,192,21811,1,0,0:0:0:0:
448,192,21930,1,0,0:0:0:0:
64,192,22049,1,0,0:0:0:0:
192,192,22049,1,0,0:0:0:0:
320,192,22168,1,0,0:0:0:0:
192,192,22287,1,0,0:0:0:0:
448,192,22287,1,0,0:0:0:0:
320,192,22406,1,0,0:0:0:0:
448,192,22525,1,0,0:0:0:0:
64,192,22525,1,0,0:0:0:0:
192,192,22644,1,0,0:0:0:0:
320,192,22763,1,0,0:0:0:0:
448,192,22882,1,0,0:0:0:0:
64,192,22882,1,0,0:0:0:0:
192,192,23001,1,0,0:0:0:0:
320,192,23120,1,0,0:0:0:0:
448,192,23240,1,0,0:0:0:0:
64,192,23240,1,0,0:0:0:0:
192,192,23359,1,0,0:0:0:0:
320,192,23478,1,0,0:0:0:0:
448,192,23478,1,0,0:0:0:0:
64,192,23597,1,0,0:0:0:0:
320,192,23716,1,0,0:0:0:0:
64,192,23954,1,0,0:0:0:0:
448,192,24192,1,0,0:0:0:0:
192,192,24311,1,0,0:0:0:0:
320,192,24430,1,0,0:0:0:0:
448,192,24549,1,0,0:0:0:0:
192,192,24668,1,0,0:0:0:0:
64,192,24787,1,0,0:0:0:0:
448,192,24906,1,0,0:0:0:0:
192,192,25144,1,0,0:0:0:0:
448,192,25382,1,0,0:0:0:0:
64,192,25501,1,0,0:0:0:0:
320,192,25620,1,0,0:0:0:0:
192,192,25859,1,0,0:0:0:0:
448,192,26097,1,0,0:0:0:0:
64,192,26216,1,0,0:0:0:0:
320,192,26335,1,0,0:0:0:0:
64,192,26454,1,0,0:0:0:0:
448,192,26573,1,0,0:0:0:0:
192,192,26692,1,0,0:0:0:0:
448,192,26811,1,0,0:0:0:0:
64,192,27049,1,0,0:0:0:0:
320,192,27287,1,0,0:0:0:0:
192,192,27406,1,0,0:0:0:0:
448,192,27525,1,0,0:0:0:0:
320,192,27763,1,0,0:0:0:0:
64,192,28001,1,0,0:0:0:0:
448,192,28120,1,0,0:0:0:0:
192,192,28240,1,0,0:0:0:0:
448,192,28359,1,0,0:0:0:0:
64,192,28478,1,0,0:0:0:0:
320,192,28597,1,0,0:0:0:0:
448,192,28716,1,0,0:0:0:0:
192,192,28835,1,0,0:0:0:0:
448,192,28954,1,0,0:0:0:0:
320,192,29192,1,0,0:0:0:0:
192,192,29311,1,0,0:0:0:0:
64,192,29430,1,0,0:0:0:0:
448,192,29430,1,0,0:0:0:0:
320,192,29668,1,0,0:0:0:0:
192,192,29668,1,0,0:0:0:0:
64,192,29906,1,0,0:0:0:0:
448,192,29906,1,0,0:0:0:0:
192,192,30144,1,0,0:0:0:0:
64,192,30144,1,0,0:0:0:0:
448,192,30263,1,0,0:0:0:0:
320,192,30382,1,0,0:0:0:0:
192,192,30501,1,0,0:0:0:0:
448,192,30620,1,0,0:0:0:0:
64,192,30620,1,0,0:0:0:0:
320,192,30740,1,0,0:0:0:0:
192,192,30859,1,0,0:0:0:0:
64,192,30978,1,0,0:0:0:0:
320,192,31097,1,0,0:0:0:0:
448,192,31097,1,0,0:0:0:0:
192,192,31097,1,0,0:0:0:30:soft-hitwhistle.wav
320,192,31335,1,0,0:0:0:0:
448,192,31573,1,0,0:0:0:0:
192,192,31573,1,0,0:0:0:0:
64,192,31811,1,0,0:0:0:0:
448,192,31930,1,0,0:0:0:0:
192,192,32049,1,0,0:0:0:0:
320,192,32168,1,0,0:0:0:0:
64,192,32287,1,0,0:0:0:0:
192,192,32406,1,0,0:0:0:0:
448,192,32525,1,0,0:0:0:0:
448,192,32763,1,0,0:0:0:0:
192,192,33001,1,0,0:0:0:0:
320,192,33120,1,0,0:0:0:0:
64,192,33240,1,0,0:0:0:0:
192,192,33478,1,0,0:0:0:0:
448,192,33478,1,0,0:0:0:0:
320,192,33716,1,0,0:0:0:0:
64,192,33835,1,0,0:0:0:0:
320,192,33954,1,0,0:0:0:0:
64,192,34073,1,0,0:0:0:0:
448,192,34192,1,0,0:0:0:0:
192,192,34311,1,0,0:0:0:0:
448,192,34430,1,0,0:0:0:0:
64,192,34668,1,0,0:0:0:0:
320,192,34787,1,0,0:0:0:0:
192,192,34906,1,0,0:0:0:0:
448,192,35025,1,0,0:0:0:0:
64,192,35144,1,0,0:0:0:0:
448,192,35382,1,0,0:0:0:0:
192,192,35382,1,0,0:0:0:0:
320,192,35620,1,0,0:0:0:0:
448,192,35740,1,0,0:0:0:0:
192,192,35859,1,0,0:0:0:0:
448,192,35978,1,0,0:0:0:0:
64,192,36097,1,0,0:0:0:0:
320,192,36216,1,0,0:0:0:0:
448,192,36335,1,0,0:0:0:0:
448,192,36573,1,0,0:0:0:0:
64,192,36811,1,0,0:0:0:0:
192,192,36930,1,0,0:0:0:0:
448,192,37049,1,0,0:0:0:0:
320,192,37049,1,0,0:0:0:0:
64,192,37287,1,0,0:0:0:0:
192,192,37287,1,0,0:0:0:0:
192,192,37525,1,0,0:0:0:0:
320,192,37525,1,0,0:0:0:0:
64,192,37644,1,0,0:0:0:0:
448,192,37644,1,0,0:0:0:0:
320,192,37763,1,0,0:0:0:0:
192,192,37882,1,0,0:0:0:0:
64,192,38001,1,0,0:0:0:0:
448,192,38001,1,0,0:0:0:0:
320,192,38120,1,0,0:0:0:0:
192,192,38240,1,0,0:0:0:0:
64,192,38240,1,0,0:0:0:0:
320,192,38359,1,0,0:0:0:0:
192,192,38478,1,0,0:0:0:0:
448,192,38478,1,0,0:0:0:0:
320,192,38716,1,4,0:0:0:0:
448,192,38716,1,2,0:0:0:0:
64,192,38716,1,0,0:0:0:0:
192,192,38835,1,0,0:0:0:0:
448,192,38954,1,2,0:0:0:0:
320,192,39073,1,0,0:0:0:0:
448,192,39192,1,2,0:0:0:0:
192,192,39192,1,0,0:0:0:0:
320,192,39311,1,0,0:0:0:0:
64,192,39430,1,2,0:0:0:0:
192,192,39549,1,0,0:0:0:0:
448,192,39668,1,0,0:0:0:0:
320,192,39668,1,2,0:0:0:0:
64,192,39787,1,0,0:0:0:0:
448,192,39906,1,2,0:0:0:0:
192,192,40025,1,0,0:0:0:0:
320,192,40144,1,2,0:0:0:0:
64,192,40144,1,0,0:0:0:0:
448,192,40263,1,0,0:0:0:0:
192,192,40382,1,2,0:0:0:0:
320,192,40501,1,0,0:0:0:0:
192,192,40620,1,4,0:0:0:0:
64,192,40620,1,2,0:0:0:0:
448,192,40620,1,0,0:0:0:0:
320,192,40740,1,0,0:0:0:0:
448,192,40859,1,2,0:0:0:0:
192,192,40978,1,0,0:0:0:0:
320,192,41097,1,2,0:0:0:0:
64,192,41097,1,0,0:0:0:0:
192,192,41216,1,0,0:0:0:0:
320,192,41335,1,2,0:0:0:0:
64,192,41454,1,0,0:0:0:0:
448,192,41573,1,0,0:0:0:0:
192,192,41573,1,2,0:0:0:0:
320,192,41692,1,0,0:0:0:0:
64,192,41811,1,2,0:0:0:0:
192,192,41930,1,0,0:0:0:0:
64,192,42049,1,0,0:0:0:0:
320,192,42049,1,2,0:0:0:0:
448,192,42168,1,0,0:0:0:0:
320,192,42287,1,2,0:0:0:0:
192,192,42406,1,0,0:0:0:0:
448,192,42525,1,2,0:0:0:0:
64,192,42525,1,0,0:0:0:0:
320,192,42525,1,4,0:0:0:0:
192,192,42644,1,2,0:0:0:0:
448,192,42763,1,2,0:0:0:0:
320,192,42882,1,2,0:0:0:0:
192,192,43001,1,2,0:0:0:0:
448,192,43001,1,0,0:0:0:0:
320,192,43120,1,2,0:0:0:0:
64,192,43240,1,2,0:0:0:0:
192,192,43359,1,2,0:0:0:0:
320,192,43478,1,2,0:0:0:0:
448,192,43478,1,0,0:0:0:0:
64,192,43478,1,4,0:0:0:0:
192,192,43597,1,2,0:0:0:0:
448,192,43716,1,2,0:0:0:0:
320,192,43835,1,2,0:0:0:0:
448,192,43954,1,0,0:0:0:0:
192,192,43954,1,2,0:0:0:0:
64,192,44073,1,2,0:0:0:0:
320,192,44192,1,2,0:0:0:0:
192,192,44311,1,2,0:0:0:0:
320,192,44430,1,0,0:0:0:0:
448,192,44430,1,2,0:0:0:0:
64,192,44430,1,0,0:0:0:0:
192,192,44549,1,2,0:0:0:0:
320,192,44668,1,2,0:0:0:0:
448,192,44787,1,2,0:0:0:0:
192,192,44906,1,2,0:0:0:0:
64,192,44906,1,0,0:0:0:0:
320,192,45025,1,2,0:0:0:0:
448,192,45144,1,2,0:0:0:0:
192,192,45263,1,2,0:0:0:0:
320,192,45382,1,2,0:0:0:0:
448,192,45382,1,0,0:0:0:0:
64,192,45501,1,2,0:0:0:0:
192,192,45620,1,2,0:0:0:0:
320,192,45740,1,2,0:0:0:0:
448,192,45859,1,2,0:0:0:0:
64,192,45859,1,0,0:0:0:0:
192,192,46097,1,0,0:0:0:0:
320,192,46097,1,2,0:0:0:0:
192,192,46335,1,2,0:0:0:0:
448,192,46335,1,0,0:0:0:0:
64,192,46335,1,4,0:0:0:0:
320,192,46573,1,0,0:0:0:0:
64,192,46811,1,0,0:0:0:0:
192,192,47049,1,0,0:0:0:0:
448,192,47287,1,0,0:0:0:0:
320,192,47525,1,0,0:0:0:0:
64,192,47763,1,0,0:0:0:0:
192,192,47882,1,0,0:0:0:0:
448,192,48001,1,0,0:0:0:0:
320,192,48240,1,0,0:0:0:0:
192,192,48478,1,0,0:0:0:0:
448,192,48716,1,0,0:0:0:0:
64,192,48954,1,0,0:0:0:0:
320,192,49073,1,0,0:0:0:0:
192,192,49192,1,0,0:0:0:0:
448,192,49311,1,0,0:0:0:0:
320,192,49430,1,0,0:0:0:0:
64,192,49668,1,0,0:0:0:0:
320,192,49906,1,2,0:0:0:0:
448,192,49906,1,0,0:0:0:0:
192,192,50144,1,2,0:0:0:0:
64,192,50144,1,0,0:0:0:0:
320,192,50382,1,0,0:0:0:0:
64,192,50620,1,0,0:0:0:0:
192,192,50859,1,0,0:0:0:0:
448,192,51097,1,0,0:0:0:0:
320,192,51335,1,0,0:0:0:0:
64,192,51573,1,0,0:0:0:0:
192,192,51692,1,0,0:0:0:0:
448,192,51811,1,0,0:0:0:0:
320,192,52049,1,0,0:0:0:0:
192,192,52287,1,0,0:0:0:0:
448,192,52525,1,0,0:0:0:0:
192,192,52763,1,0,0:0:0:0:
320,192,52882,1,0,0:0:0:0:
448,192,53001,1,2,0:0:0:0:
64,192,53001,1,0,0:0:0:0:
192,192,53120,1,0,0:0:0:0:
448,192,53240,1,0,0:0:0:0:
64,192,53359,1,0,0:0:0:0:
192,192,53359,1,2,0:0:0:0:
448,192,53478,1,8,0:0:0:0:
320,192,53478,1,0,0:0:0:0:
192,192,53716,1,0,0:0:0:0:
320,192,53716,1,2,0:0:0:0:
448,192,53954,1,2,0:0:0:0:
64,192,53954,1,0,0:0:0:0:
192,192,54192,1,0,0:0:0:0:
64,192,54430,1,0,0:0:0:0:
448,192,54668,1,0,0:0:0:0:
320,192,54906,1,0,0:0:0:0:
64,192,55144,1,0,0:0:0:0:
320,192,55263,1,0,0:0:0:0:
192,192,55382,1,0,0:0:0:0:
448,192,55501,1,0,0:0:0:0:
64,192,55620,1,0,0:0:0:0:
320,192,55859,1,0,0:0:0:0:
192,192,56097,1,0,0:0:0:0:
448,192,56335,1,0,0:0:0:0:
64,192,56573,1,0,0:0:0:0:
448,192,56692,1,0,0:0:0:0:
192,192,56811,1,0,0:0:0:0:
320,192,56930,1,0,0:0:0:0:
64,192,57049,1,0,0:0:0:0:
448,192,57287,1,0,0:0:0:0:
64,192,57525,1,2,0:0:0:0:
192,192,57525,1,0,0:0:0:0:
320,192,57763,1,2,0:0:0:0:
448,192,57763,1,0,0:0:0:0:
192,192,58001,1,0,0:0:0:0:
448,192,58240,1,0,0:0:0:0:
64,192,58478,1,0,0:0:0:0:
320,192,58716,1,0,0:0:0:0:
192,192,58954,1,0,0:0:0:0:
448,192,59192,1,0,0:0:0:0:
64,192,59311,1,0,0:0:0:0:
192,192,59430,1,0,0:0:0:0:
448,192,59668,1,0,0:0:0:0:
320,192,59668,1,2,0:0:0:0:
192,192,59906,1,2,0:0:0:0:
64,192,59906,1,0,0:0:0:0:
448,192,60144,1,0,0:0:0:0:
320,192,60144,1,8,0:0:0:0:
192,192,60263,1,2,0:0:0:0:
64,192,60263,1,0,0:0:0:0:
320,192,60382,1,0,0:0:0:0:
192,192,60501,1,0,0:0:0:0:
448,192,60620,1,2,0:0:0:0:
64,192,60620,1,0,0:0:0:0:
320,192,60859,1,0,0:0:0:0:
448,192,60859,1,8,0:0:0:0:
192,192,60978,1,0,0:0:0:0:
64,192,60978,1,2,0:0:0:0:
320,192,61097,1,0,0:0:0:0:
448,192,61097,1,8,0:0:0:0:
64,192,61216,1,2,0:0:0:0:
448,192,61335,1,2,0:0:0:0:
192,192,61335,1,0,0:0:0:0:
64,192,61573,1,0,0:0:0:0:
448,192,61573,1,4,0:0:0:0:
320,192,61573,1,2,0:0:0:0:
192,192,61811,1,0,0:0:0:0:
320,192,61930,1,0,0:0:0:0:
448,192,62049,1,8,0:0:0:0:
64,192,62049,1,0,0:0:0:0:
192,192,62287,1,2,0:0:0:0:
320,192,62287,1,0,0:0:0:0:
64,192,62406,1,2,0:0:0:0:
448,192,62406,1,0,0:0:0:0:
320,192,62525,1,0,0:0:0:0:
192,192,62644,1,0,0:0:0:0:
320,192,62763,1,2,0:0:0:0:
448,192,62763,1,0,0:0:0:0:
64,192,63001,1,8,0:0:0:0:
448,192,63001,1,0,0:0:0:0:
192,192,63120,1,0,0:0:0:0:
320,192,63240,1,0,0:0:0:0:
448,192,63359,1,0,0:0:0:0:
192,192,63478,1,2,0:0:0:0:
64,192,63478,1,0,0:0:0:0:
320,192,63716,1,0,0:0:0:0:
192,192,63835,1,0,0:0:0:0:
64,192,63954,1,8,0:0:0:0:
448,192,63954,1,0,0:0:0:0:
448,192,64192,1,0,0:0:0:0:
320,192,64192,1,2,0:0:0:0:
64,192,64311,1,0,0:0:0:0:
192,192,64311,1,2,0:0:0:0:
320,192,64430,1,0,0:0:0:0:
192,192,64549,1,0,0:0:0:0:
64,192,64668,1,2,0:0:0:0:
320,192,64668,1,0,0:0:0:0:
192,192,64906,1,0,0:0:0:0:
448,192,64906,1,8,0:0:0:0:
64,192,65025,1,0,0:0:0:0:
320,192,65144,1,2,0:0:0:0:
448,192,65144,1,0,0:0:0:0:
192,192,65263,1,0,0:0:0:0:
320,192,65382,1,2,0:0:0:0:
64,192,65382,1,0,0:0:0:0:
192,192,65620,1,0,0:0:0:0:
320,192,65740,1,0,0:0:0:0:
64,192,65859,1,0,0:0:0:0:
448,192,65859,1,8,0:0:0:0:
192,192,66097,1,0,0:0:0:0:
64,192,66216,1,0,0:0:0:0:
448,192,66216,1,2,0:0:0:0:
320,192,66335,1,0,0:0:0:0:
192,192,66454,1,0,0:0:0:0:
320,192,66573,1,2,0:0:0:0:
448,192,66573,1,0,0:0:0:0:
64,192,66811,1,8,0:0:0:0:
448,192,66811,1,0,0:0:0:0:
192,192,66930,1,0,0:0:0:0:
320,192,67049,1,0,0:0:0:0:
192,192,67168,1,0,0:0:0:0:
320,192,67287,1,2,0:0:0:0:
64,192,67287,1,0,0:0:0:0:
192,192,67406,1,0,0:0:0:0:
320,192,67525,1,2,0:0:0:0:
448,192,67525,1,0,0:0:0:0:
64,192,67763,1,8,0:0:0:0:
448,192,67763,1,0,0:0:0:0:
192,192,68001,1,0,0:0:0:0:
320,192,68001,1,2,0:0:0:0:
64,192,68120,1,0,0:0:0:0:
448,192,68120,1,2,0:0:0:0:
320,192,68240,1,0,0:0:0:0:
192,192,68359,1,0,0:0:0:0:
320,192,68478,1,2,0:0:0:0:
448,192,68478,1,0,0:0:0:0:
192,192,68597,1,0,0:0:0:0:
64,192,68716,1,8,0:0:0:0:
448,192,68716,1,0,0:0:0:0:
320,192,68835,1,2,0:0:0:0:
448,192,68954,1,8,0:0:0:0:
192,192,68954,1,0,0:0:0:0:
320,192,69073,1,2,0:0:0:0:
64,192,69192,1,2,0:0:0:0:
448,192,69192,1,4,0:0:0:0:
192,192,69192,1,0,0:0:0:0:
320,192,69430,1,0,0:0:0:0:
320,192,69668,1,0,0:0:0:0:
192,192,69906,1,0,0:0:0:0:
448,192,70025,1,0,0:0:0:0:
64,192,70144,1,0,0:0:0:0:
320,192,70263,1,0,0:0:0:0:
448,192,70382,1,0,0:0:0:0:
64,192,70501,1,0,0:0:0:0:
320,192,70620,1,0,0:0:0:0:
192,192,70740,1,0,0:0:0:0:
320,192,70859,1,2,0:0:0:0:
448,192,70859,1,0,0:0:0:0:
320,192,71097,1,0,0:0:0:0:
192,192,71097,1,2,0:0:0:0:
64,192,71097,1,4,0:0:0:0:
448,192,71335,1,0,0:0:0:0:
448,192,71573,1,0,0:0:0:0:
64,192,71811,1,0,0:0:0:0:
320,192,71930,1,0,0:0:0:0:
192,192,72049,1,0,0:0:0:0:
448,192,72168,1,0,0:0:0:0:
320,192,72287,1,0,0:0:0:0:
64,192,72406,1,0,0:0:0:0:
448,192,72525,1,0,0:0:0:0:
192,192,72644,1,0,0:0:0:0:
320,192,72763,1,2,0:0:0:0:
448,192,72763,1,0,0:0:0:0:
192,192,73001,1,4,0:0:0:0:
64,192,73001,1,0,0:0:0:0:
448,192,73001,1,2,0:0:0:0:
320,192,73120,1,0,0:0:0:0:
64,192,73240,1,0,0:0:0:0:
192,192,73359,1,0,0:0:0:0:
64,192,73478,1,0,0:0:0:0:
320,192,73478,1,2,0:0:0:0:
192,192,73597,1,0,0:0:0:0:
448,192,73716,1,0,0:0:0:0:
320,192,73835,1,0,0:0:0:0:
448,192,73954,1,4,0:0:0:0:
192,192,73954,1,2,0:0:0:0:
64,192,73954,1,0,0:0:0:0:
320,192,74073,1,0,0:0:0:0:
448,192,74192,1,0,0:0:0:0:
192,192,74311,1,0,0:0:0:0:
64,192,74430,1,0,0:0:0:0:
320,192,74430,1,2,0:0:0:0:
448,192,74549,1,0,0:0:0:0:
192,192,74668,1,0,0:0:0:0:
320,192,74787,1,0,0:0:0:0:
448,192,74906,1,4,0:0:0:0:
192,192,74906,1,0,0:0:0:0:
64,192,74906,1,2,0:0:0:0:
320,192,75025,1,0,0:0:0:0:
64,192,75144,1,2,0:0:0:0:
448,192,75144,1,0,0:0:0:0:
192,192,75263,1,0,0:0:0:0:
320,192,75382,1,0,0:0:0:0:
64,192,75382,1,2,0:0:0:0:
448,192,75501,1,0,0:0:0:0:
192,192,75620,1,0,0:0:0:0:
64,192,75620,1,2,0:0:0:0:
320,192,75740,1,0,0:0:0:0:
64,192,75859,1,2,0:0:0:0:
448,192,75859,1,0,0:0:0:0:
192,192,75978,1,2,0:0:0:0:
320,192,75978,1,0,0:0:0:0:
64,192,76097,1,2,0:0:0:0:
448,192,76097,1,0,0:0:0:0:
320,192,76216,1,0,0:0:0:0:
192,192,76216,1,2,0:0:0:0:
64,192,76335,1,2,0:0:0:0:
448,192,76335,1,0,0:0:0:0:
320,192,76454,1,0,0:0:0:0:
192,192,76454,1,2,0:0:0:0:
64,192,76573,1,2,0:0:0:0:
448,192,76573,1,0,0:0:0:0:
320,192,76692,1,0,0:0:0:0:
192,192,76692,1,2,0:0:0:0:
320,192,76811,1,0,0:0:0:0:
448,192,76811,1,4,0:0:0:0:
64,192,76811,1,2,0:0:0:0:
192,192,77049,1,0,0:0:0:0:
64,192,77168,1,0,0:0:0:0:
192,192,77287,1,0,0:0:0:0:
320,192,77287,1,0,0:0:0:0:
448,192,77287,1,8,0:0:0:0:
448,192,77525,1,0,0:0:0:0:
192,192,77644,1,0,0:0:0:0:
320,192,77763,1,0,0:0:0:0:
64,192,77763,1,2,0:0:0:0:
448,192,77882,1,0,0:0:0:0:
320,192,78001,1,0,0:0:0:0:
192,192,78120,1,0,0:0:0:0:
64,192,78240,1,0,0:0:0:0:
448,192,78240,1,8,0:0:0:0:
320,192,78240,1,0,0:0:0:0:
192,192,78478,1,0,0:0:0:0:
64,192,78716,1,2,0:0:0:0:
320,192,78716,1,0,0:0:0:0:
448,192,78716,1,0,0:0:0:0:
320,192,78954,1,0,0:0:0:0:
192,192,79192,1,0,0:0:0:0:
64,192,79192,1,0,0:0:0:0:
448,192,79192,1,8,0:0:0:0:
320,192,79430,1,0,0:0:0:0:
192,192,79549,1,0,0:0:0:0:
320,192,79668,1,0,0:0:0:0:
64,192,79668,1,2,0:0:0:0:
448,192,79787,1,0,0:0:0:0:
320,192,79906,1,0,0:0:0:0:
192,192,80025,1,0,0:0:0:0:
64,192,80144,1,0,0:0:0:0:
320,192,80144,1,0,0:0:0:0:
448,192,80144,1,8,0:0:0:0:
192,192,80382,1,2,0:0:0:0:
320,192,80382,1,0,0:0:0:0:
64,192,80620,1,2,0:0:0:0:
320,192,80620,1,0,0:0:0:0:
448,192,80620,1,0,0:0:0:0:
192,192,80859,1,0,0:0:0:0:
320,192,80978,1,0,0:0:0:0:
64,192,81097,1,0,0:0:0:0:
448,192,81097,1,8,0:0:0:0:
192,192,81097,1,0,0:0:0:0:
64,192,81335,1,0,0:0:0:0:
320,192,81335,1,0,0:0:0:0:
192,192,81573,1,2,0:0:0:0:
448,192,81573,1,0,0:0:0:0:
64,192,81692,1,0,0:0:0:0:
192,192,81811,1,0,0:0:0:0:
320,192,81930,1,0,0:0:0:0:
448,192,82049,1,0,0:0:0:0:
64,192,82049,1,0,0:0:0:0:
192,192,82049,1,8,0:0:0:0:
320,192,82168,1,0,0:0:0:0:
64,192,82287,1,0,0:0:0:0:
192,192,82406,1,0,0:0:0:0:
448,192,82525,1,0,0:0:0:0:
320,192,82525,1,0,0:0:0:0:
64,192,82525,1,2,0:0:0:0:
320,192,82763,1,0,0:0:0:0:
192,192,82763,1,0,0:0:0:0:
448,192,83001,1,8,0:0:0:0:
64,192,83001,1,0,0:0:0:0:
192,192,83001,1,0,0:0:0:0:
320,192,83120,1,0,0:0:0:0:
448,192,83240,1,0,0:0:0:0:
192,192,83359,1,0,0:0:0:0:
64,192,83478,1,2,0:0:0:0:
320,192,83478,1,0,0:0:0:0:
448,192,83597,1,0,0:0:0:0:
320,192,83716,1,0,0:0:0:0:
192,192,83835,1,0,0:0:0:0:
320,192,83954,1,0,0:0:0:0:
448,192,83954,1,8,0:0:0:0:
64,192,83954,1,0,0:0:0:0:
192,192,84073,1,0,0:0:0:0:
64,192,84192,1,2,0:0:0:0:
448,192,84192,1,0,0:0:0:0:
320,192,84311,1,0,0:0:0:0:
448,192,84430,1,0,0:0:0:0:
64,192,84430,1,0,0:0:0:0:
192,192,84430,1,2,0:0:0:0:
320,192,84668,1,0,0:0:0:0:
64,192,84906,1,0,0:0:0:0:
448,192,84906,1,0,0:0:0:0:
192,192,84906,1,8,0:0:0:0:
320,192,85144,1,0,0:0:0:0:
192,192,85263,1,0,0:0:0:0:
64,192,85382,1,0,0:0:0:0:
448,192,85382,1,2,0:0:0:0:
320,192,85501,1,0,0:0:0:0:
192,192,85620,1,0,0:0:0:0:
320,192,85740,1,0,0:0:0:0:
64,192,85859,1,8,0:0:0:0:
192,192,85859,1,0,0:0:0:0:
448,192,85859,1,0,0:0:0:0:
320,192,86097,1,0,0:0:0:0:
192,192,86335,1,0,0:0:0:0:
64,192,86335,1,0,0:0:0:0:
448,192,86335,1,2,0:0:0:0:
192,192,86573,1,0,0:0:0:0:
448,192,86811,1,0,0:0:0:0:
64,192,86811,1,8,0:0:0:0:
320,192,86811,1,0,0:0:0:0:
192,192,87049,1,0,0:0:0:0:
320,192,87168,1,0,0:0:0:0:
64,192,87287,1,0,0:0:0:0:
448,192,87287,1,2,0:0:0:0:
320,192,87406,1,0,0:0:0:0:
192,192,87525,1,0,0:0:0:0:
64,192,87644,1,0,0:0:0:0:
192,192,87763,1,0,0:0:0:0:
320,192,87763,1,0,0:0:0:0:
448,192,87763,1,8,0:0:0:0:
320,192,88001,1,2,0:0:0:0:
64,192,88001,1,0,0:0:0:0:
448,192,88240,1,0,0:0:0:0:
64,192,88240,1,2,0:0:0:0:
192,192,88240,1,0,0:0:0:0:
320,192,88478,1,0,0:0:0:0:
64,192,88716,1,0,0:0:0:0:
448,192,88716,1,8,0:0:0:0:
192,192,88716,1,0,0:0:0:0:
64,192,88954,1,0,0:0:0:0:
192,192,89073,1,0,0:0:0:0:
448,192,89192,1,0,0:0:0:0:
320,192,89192,1,2,0:0:0:0:
192,192,89311,1,0,0:0:0:0:
320,192,89430,1,0,0:0:0:0:
448,192,89549,1,0,0:0:0:0:
320,192,89668,1,0,0:0:0:0:
192,192,89668,1,0,0:0:0:0:
64,192,89668,1,8,0:0:0:0:
192,192,89906,1,0,0:0:0:0:
64,192,90144,1,0,0:0:0:0:
448,192,90144,1,2,0:0:0:0:
320,192,90144,1,0,0:0:0:0:
192,192,90382,1,0,0:0:0:0:
320,192,90501,1,0,0:0:0:0:
448,192,90620,1,0,0:0:0:0:
64,192,90620,1,0,0:0:0:0:
192,192,90620,1,8,0:0:0:0:
320,192,90740,1,0,0:0:0:0:
448,192,90859,1,0,0:0:0:0:
192,192,90978,1,0,0:0:0:0:
64,192,91097,1,0,0:0:0:0:
320,192,91097,1,2,0:0:0:0:
448,192,91216,1,0,0:0:0:0:
320,192,91335,1,0,0:0:0:0:
192,192,91454,1,2,0:0:0:0:
64,192,91454,1,0,0:0:0:0:
320,192,91573,1,8,0:0:0:0:
448,192,91573,1,0,0:0:0:0:
192,192,91692,1,0,0:0:0:0:
64,192,91811,1,2,0:0:0:0:
448,192,91811,1,0,0:0:0:0:
320,192,91930,1,0,0:0:0:0:
192,192,92049,1,2,0:0:0:0:
64,192,92049,1,0,0:0:0:0:
448,192,92049,1,4,0:0:0:0:
320,192,92287,1,0,0:0:0:0:
64,192,92525,1,0,0:0:0:0:
192,192,92525,1,8,0:0:0:0:
448,192,92525,1,0,0:0:0:0:
320,192,92763,1,0,0:0:0:0:
192,192,92882,1,0,0:0:0:0:
64,192,93001,1,2,0:0:0:0:
320,192,93001,1,0,0:0:0:0:
448,192,93120,1,0,0:0:0:0:
320,192,93240,1,0,0:0:0:0:
192,192,93359,1,0,0:0:0:0:
64,192,93478,1,0,0:0:0:0:
320,192,93478,1,0,0:0:0:0:
448,192,93478,1,8,0:0:0:0:
192,192,93716,1,0,0:0:0:0:
64,192,93954,1,0,0:0:0:0:
448,192,93954,1,0,0:0:0:0:
320,192,93954,1,2,0:0:0:0:
320,192,94192,1,0,0:0:0:0:
64,192,94430,1,8,0:0:0:0:
448,192,94430,1,0,0:0:0:0:
192,192,94430,1,0,0:0:0:0:
320,192,94668,1,0,0:0:0:0:
192,192,94787,1,0,0:0:0:0:
320,192,94906,1,0,0:0:0:0:
448,192,94906,1,2,0:0:0:0:
64,192,94906,1,0,0:0:0:0:
192,192,95025,1,0,0:0:0:0:
448,192,95144,1,0,0:0:0:0:
320,192,95263,1,0,0:0:0:0:
64,192,95382,1,8,0:0:0:0:
192,192,95382,1,0,0:0:0:0:
448,192,95382,1,0,0:0:0:0:
320,192,95620,1,2,0:0:0:0:
64,192,95859,1,0,0:0:0:0:
448,192,95859,1,2,0:0:0:0:
192,192,95859,1,0,0:0:0:0:
320,192,96097,1,0,0:0:0:0:
64,192,96335,1,0,0:0:0:0:
192,192,96335,1,0,0:0:0:0:
448,192,96335,1,8,0:0:0:0:
320,192,96573,1,0,0:0:0:0:
64,192,96692,1,0,0:0:0:0:
448,192,96811,1,0,0:0:0:0:
192,192,96811,1,2,0:0:0:0:
320,192,96930,1,0,0:0:0:0:
64,192,97049,1,0,0:0:0:0:
192,192,97168,1,0,0:0:0:0:
448,192,97287,1,8,0:0:0:0:
320,192,97287,1,0,0:0:0:0:
64,192,97287,1,0,0:0:0:0:
192,192,97525,1,0,0:0:0:0:
64,192,97763,1,2,0:0:0:0:
448,192,97763,1,0,0:0:0:0:
320,192,97763,1,0,0:0:0:0:
320,192,98001,1,0,0:0:0:0:
192,192,98001,1,0,0:0:0:0:
448,192,98240,1,8,0:0:0:0:
64,192,98240,1,0,0:0:0:0:
192,192,98240,1,0,0:0:0:0:
320,192,98359,1,0,0:0:0:0:
64,192,98478,1,0,0:0:0:0:
192,192,98597,1,0,0:0:0:0:
448,192,98716,1,0,0:0:0:0:
320,192,98716,1,2,0:0:0:0:
192,192,98835,1,0,0:0:0:0:
448,192,98954,1,0,0:0:0:0:
320,192,99073,1,0,0:0:0:0:
448,192,99192,1,0,0:0:0:0:
64,192,99192,1,8,0:0:0:0:
192,192,99192,1,0,0:0:0:0:
320,192,99311,1,0,0:0:0:0:
64,192,99430,1,2,0:0:0:0:
448,192,99430,1,0,0:0:0:0:
192,192,99549,1,0,0:0:0:0:
320,192,99668,1,0,0:0:0:0:
448,192,99668,1,2,0:0:0:0:
64,192,99668,1,0,0:0:0:0:
192,192,99906,1,0,0:0:0:0:
64,192,100144,1,0,0:0:0:0:
320,192,100144,1,0,0:0:0:0:
448,192,100144,1,8,0:0:0:0:
192,192,100382,1,0,0:0:0:0:
320,192,100501,1,0,0:0:0:0:
448,192,100620,1,0,0:0:0:0:
192,192,100620,1,2,0:0:0:0:
64,192,100740,1,0,0:0:0:0:
192,192,100859,1,0,0:0:0:0:
320,192,100978,1,0,0:0:0:0:
192,192,101097,1,0,0:0:0:0:
448,192,101097,1,0,0:0:0:0:
64,192,101097,1,8,0:0:0:0:
192,192,101335,1,0,0:0:0:0:
320,192,101335,1,0,0:0:0:0:
320,192,101573,1,2,0:0:0:0:
448,192,101573,1,0,0:0:0:0:
64,192,101573,1,0,0:0:0:0:
192,192,101811,1,0,0:0:0:0:
64,192,102049,1,8,0:0:0:0:
448,192,102049,1,0,0:0:0:0:
320,192,102049,1,0,0:0:0:0:
192,192,102287,1,0,0:0:0:0:
64,192,102406,1,0,0:0:0:0:
448,192,102525,1,2,0:0:0:0:
192,192,102525,1,0,0:0:0:0:
320,192,102644,1,0,0:0:0:0:
64,192,102763,1,0,0:0:0:0:
192,192,102882,1,0,0:0:0:0:
448,192,103001,1,0,0:0:0:0:
64,192,103001,1,8,0:0:0:0:
320,192,103001,1,0,0:0:0:0:
192,192,103120,1,0,0:0:0:0:
448,192,103240,1,0,0:0:0:0:
320,192,103359,1,0,0:0:0:0:
192,192,103478,1,2,0:0:0:0:
64,192,103478,1,0,0:0:0:0:
448,192,103478,1,0,0:0:0:0:
320,192,103597,1,0,0:0:0:0:
448,192,103716,1,2,0:0:0:0:
64,192,103716,1,0,0:0:0:0:
192,192,103835,1,0,0:0:0:0:
448,192,103954,1,8,0:0:0:0:
320,192,103954,1,2,0:0:0:0:
192,192,104073,1,0,0:0:0:0:
320,192,104192,1,0,0:0:0:0:
64,192,104192,1,2,0:0:0:0:
448,192,104311,1,0,0:0:0:0:
192,192,104430,1,0,0:0:0:0:
64,192,104430,1,2,0:0:0:0:
320,192,104549,1,0,0:0:0:0:
448,192,104668,1,2,0:0:0:0:
64,192,104668,1,0,0:0:0:0:
192,192,104787,1,0,0:0:0:0:
320,192,104906,1,8,0:0:0:0:
448,192,104906,1,2,0:0:0:0:
192,192,105025,1,0,0:0:0:0:
64,192,105144,1,2,0:0:0:0:
320,192,105144,1,0,0:0:0:0:
448,192,105263,1,0,0:0:0:0:
192,192,105382,1,0,0:0:0:0:
320,192,105382,1,0,0:0:0:40:soft-hitfinish.wav
64,192,105382,1,0,0:0:0:40:soft-hitwhistle.wav
448,192,105501,1,0,0:0:0:0:
320,192,105620,1,0,0:0:0:0:
192,192,105740,1,0,0:0:0:0:
64,192,105859,1,0,0:0:0:0:
192,192,105978,1,0,0:0:0:0:
320,192,106097,1,0,0:0:0:0:
448,192,106216,1,0,0:0:0:0:
320,192,106335,1,0,0:0:0:0:
192,192,106454,1,0,0:0:0:0:
320,192,106573,1,0,0:0:0:0:
448,192,106692,1,0,0:0:0:0:
320,192,106811,1,0,0:0:0:0:
192,192,106930,1,0,0:0:0:0:
64,192,107049,1,0,0:0:0:0:
192,192,107168,1,0,0:0:0:0:
64,192,107287,1,4,0:0:0:0:
448,192,107287,1,2,0:0:0:0:
320,192,107287,1,8,0:0:0:0:
192,192,107525,1,0,0:0:0:0:
64,192,107644,1,0,0:0:0:0:
320,192,107644,1,0,0:0:0:0:
448,192,107763,1,8,0:0:0:0:
192,192,108001,1,0,0:0:0:0:
64,192,108001,1,0,0:0:0:0:
320,192,108240,1,2,0:0:0:0:
64,192,108478,1,0,0:0:0:0:
448,192,108716,1,8,0:0:0:0:
320,192,108954,1,2,0:0:0:0:
192,192,108954,1,0,0:0:0:0:
448,192,109192,1,0,0:0:0:0:
64,192,109192,1,2,0:0:0:0:
320,192,109430,1,0,0:0:0:0:
448,192,109668,1,8,0:0:0:0:
192,192,109668,1,0,0:0:0:0:
320,192,109906,1,0,0:0:0:0:
64,192,109906,1,0,0:0:0:0:
192,192,110144,1,2,0:0:0:0:
448,192,110382,1,0,0:0:0:0:
64,192,110620,1,8,0:0:0:0:
192,192,110859,1,2,0:0:0:0:
320,192,110859,1,0,0:0:0:0:
64,192,111097,1,2,0:0:0:0:
448,192,111097,1,0,0:0:0:0:
320,192,111335,1,0,0:0:0:0:
192,192,111454,1,0,0:0:0:0:
448,192,111454,1,0,0:0:0:0:
64,192,111573,1,8,0:0:0:0:
192,192,111811,1,0,0:0:0:0:
448,192,111811,1,0,0:0:0:0:
64,192,112049,1,2,0:0:0:0:
448,192,112168,1,0,0:0:0:0:
320,192,112168,1,0,0:0:0:0:
192,192,112287,1,0,0:0:0:0:
64,192,112406,1,0,0:0:0:0:
320,192,112406,1,0,0:0:0:0:
448,192,112525,1,8,0:0:0:0:
320,192,112644,1,0,0:0:0:0:
192,192,112644,1,0,0:0:0:0:
448,192,112763,1,0,0:0:0:0:
64,192,112763,1,2,0:0:0:0:
320,192,113001,1,2,0:0:0:0:
64,192,113001,1,0,0:0:0:0:
192,192,113240,1,0,0:0:0:0:
448,192,113240,1,0,0:0:0:0:
64,192,113478,1,8,0:0:0:0:
320,192,113478,1,0,0:0:0:0:
448,192,113716,1,0,0:0:0:0:
192,192,113716,1,0,0:0:0:0:
320,192,113954,1,2,0:0:0:0:
64,192,114192,1,0,0:0:0:0:
448,192,114430,1,8,0:0:0:0:
320,192,114668,1,2,0:0:0:0:
192,192,114668,1,0,0:0:0:0:
448,192,114906,1,2,0:0:0:0:
64,192,114906,1,0,0:0:0:0:
320,192,115144,1,0,0:0:0:0:
448,192,115263,1,0,0:0:0:0:
192,192,115263,1,0,0:0:0:0:
64,192,115382,1,8,0:0:0:0:
448,192,115620,1,0,0:0:0:0:
320,192,115620,1,0,0:0:0:0:
192,192,115859,1,2,0:0:0:0:
448,192,116097,1,0,0:0:0:0:
64,192,116335,1,8,0:0:0:0:
192,192,116573,1,0,0:0:0:0:
320,192,116573,1,2,0:0:0:0:
448,192,116811,1,2,0:0:0:0:
64,192,116811,1,0,0:0:0:0:
192,192,117049,1,0,0:0:0:0:
320,192,117287,1,0,0:0:0:0:
64,192,117287,1,8,0:0:0:0:
192,192,117525,1,0,0:0:0:0:
448,192,117525,1,0,0:0:0:0:
64,192,117763,1,2,0:0:0:0:
320,192,118001,1,0,0:0:0:0:
192,192,118240,1,8,0:0:0:0:
448,192,118478,1,2,0:0:0:0:
320,192,118716,1,2,0:0:0:0:
64,192,118716,1,0,0:0:0:0:
192,192,118954,1,0,0:0:0:0:
448,192,119073,1,0,0:0:0:0:
64,192,119192,1,8,0:0:0:0:
448,192,119430,1,0,0:0:0:0:
192,192,119430,1,0,0:0:0:0:
64,192,119668,1,2,0:0:0:0:
320,192,119906,1,0,0:0:0:0:
448,192,120144,1,0,0:0:0:0:
64,192,120144,1,8,0:0:0:0:
320,192,120382,1,0,0:0:0:0:
192,192,120620,1,2,0:0:0:0:
64,192,120620,1,0,0:0:0:0:
192,192,120859,1,0,0:0:0:0:
320,192,120859,1,0,0:0:0:0:
320,192,121097,1,8,0:0:0:0:
448,192,121097,1,0,0:0:0:0:
320,192,121335,1,0,0:0:0:0:
192,192,121335,1,0,0:0:0:0:
192,192,121573,1,2,0:0:0:0:
64,192,121573,1,0,0:0:0:0:
448,192,121692,1,0,0:0:0:0:
320,192,121811,1,0,0:0:0:0:
192,192,121930,1,2,0:0:0:0:
64,192,121930,1,0,0:0:0:0:
320,192,122049,1,8,0:0:0:0:
448,192,122049,1,0,0:0:0:0:
192,192,122168,1,0,0:0:0:0:
64,192,122287,1,2,0:0:0:0:
448,192,122287,1,0,0:0:0:0:
320,192,122406,1,0,0:0:0:0:
192,192,122525,1,0,0:0:0:0:
64,192,122525,1,2,0:0:0:0:
448,192,122525,1,4,0:0:0:0:
320,192,122763,1,0,0:0:0:0:
64,192,123001,1,8,0:0:0:0:
448,192,123001,1,0,0:0:0:0:
192,192,123240,1,2,0:0:0:0:
448,192,123478,1,2,0:0:0:0:
64,192,123478,1,0,0:0:0:0:
320,192,123716,1,0,0:0:0:0:
64,192,123954,1,0,0:0:0:0:
192,192,123954,1,8,0:0:0:0:
448,192,124192,1,0,0:0:0:0:
320,192,124192,1,2,0:0:0:0:
448,192,124430,1,2,0:0:0:0:
64,192,124430,1,0,0:0:0:0:
192,192,124668,1,0,0:0:0:0:
64,192,124906,1,0,0:0:0:0:
320,192,124906,1,8,0:0:0:0:
448,192,125144,1,0,0:0:0:0:
192,192,125382,1,2,0:0:0:0:
64,192,125382,1,0,0:0:0:0:
320,192,125620,1,0,0:0:0:0:
448,192,125859,1,8,0:0:0:0:
64,192,125859,1,0,0:0:0:0:
192,192,126097,1,2,0:0:0:0:
448,192,126335,1,0,0:0:0:0:
320,192,126335,1,2,0:0:0:0:
64,192,126573,1,0,0:0:0:0:
448,192,126811,1,0,0:0:0:0:
192,192,126811,1,8,0:0:0:0:
320,192,127049,1,0,0:0:0:0:
192,192,127287,1,2,0:0:0:0:
64,192,127287,1,0,0:0:0:0:
448,192,127525,1,0,0:0:0:0:
192,192,127644,1,0,0:0:0:0:
64,192,127644,1,0,0:0:0:0:
320,192,127763,1,8,0:0:0:0:
448,192,127763,1,0,0:0:0:0:
64,192,128001,1,2,0:0:0:0:
320,192,128001,1,0,0:0:0:0:
192,192,128240,1,2,0:0:0:0:
448,192,128240,1,0,0:0:0:0:
320,192,128478,1,0,0:0:0:0:
448,192,128716,1,0,0:0:0:0:
64,192,128716,1,8,0:0:0:0:
320,192,128954,1,0,0:0:0:0:
64,192,128954,1,0,0:0:0:0:
192,192,129192,1,2,0:0:0:0:
64,192,129311,1,0,0:0:0:0:
448,192,129311,1,0,0:0:0:0:
320,192,129430,1,0,0:0:0:0:
192,192,129549,1,0,0:0:0:0:
64,192,129549,1,0,0:0:0:0:
448,192,129668,1,0,0:0:0:0:
320,192,129668,1,8,0:0:0:0:
320,192,129906,1,0,0:0:0:0:
192,192,129906,1,2,0:0:0:0:
192,192,130144,1,0,0:0:0:0:
64,192,130144,1,0,0:0:0:40:soft-hitfinish.wav
448,192,130144,1,0,0:0:0:40:soft-hitwhistle.wav
320,192,130263,1,0,0:0:0:0:
448,192,130382,1,0,0:0:0:0:
192,192,130501,1,0,0:0:0:0:
320,192,130620,1,0,0:0:0:0:
64,192,130740,1,0,0:0:0:0:
448,192,130859,1,0,0:0:0:0:
192,192,130978,1,0,0:0:0:0:
320,192,131097,1,0,0:0:0:0:
64,192,131216,1,0,0:0:0:0:
192,192,131335,1,0,0:0:0:0:
320,192,131454,1,0,0:0:0:0:
192,192,131573,1,0,0:0:0:0:
64,192,131692,1,0,0:0:0:0:
320,192,131811,1,0,0:0:0:40:soft-hitwhistle.wav
448,192,131811,1,0,0:0:0:0:
192,192,131930,1,0,0:0:0:0:
320,192,132049,1,0,0:0:0:40:soft-hitwhistle.wav
64,192,132049,1,0,0:0:0:0:
448,192,132168,1,0,0:0:0:0:
320,192,132287,1,0,0:0:0:0:
192,192,132406,1,0,0:0:0:0:
448,192,132525,1,0,0:0:0:0:
64,192,132644,1,0,0:0:0:0:
320,192,132763,1,0,0:0:0:0:
192,192,132882,1,0,0:0:0:0:
448,192,133001,1,0,0:0:0:0:
64,192,133120,1,0,0:0:0:0:
192,192,133240,1,0,0:0:0:0:
320,192,133359,1,0,0:0:0:0:
64,192,133478,1,0,0:0:0:0:
192,192,133597,1,0,0:0:0:0:
448,192,133716,1,0,0:0:0:0:
320,192,133716,1,0,0:0:0:40:soft-hitwhistle.wav
192,192,133835,1,0,0:0:0:0:
64,192,133954,1,0,0:0:0:0:
320,192,133954,1,0,0:0:0:40:soft-hitwhistle.wav
448,192,134073,1,0,0:0:0:0:
320,192,134192,1,0,0:0:0:0:
192,192,134311,1,0,0:0:0:0:
448,192,134430,1,0,0:0:0:0:
64,192,134549,1,0,0:0:0:0:
320,192,134668,1,0,0:0:0:0:
192,192,134787,1,0,0:0:0:0:
448,192,134906,1,0,0:0:0:0:
64,192,135025,1,0,0:0:0:0:
320,192,135144,1,0,0:0:0:0:
192,192,135263,1,0,0:0:0:0:
448,192,135382,1,0,0:0:0:0:
320,192,135501,1,0,0:0:0:0:
192,192,135620,1,0,0:0:0:0:
448,192,135740,1,0,0:0:0:0:
320,192,135859,1,0,0:0:0:0:
64,192,135978,1,0,0:0:0:0:
192,192,136097,1,0,0:0:0:0:
320,192,136216,1,0,0:0:0:0:
448,192,136335,1,0,0:0:0:0:
320,192,136454,1,0,0:0:0:0:
192,192,136573,1,0,0:0:0:0:
64,192,136692,1,0,0:0:0:0:
192,192,136811,1,0,0:0:0:0:
320,192,136930,1,0,0:0:0:0:
448,192,137049,1,0,0:0:0:0:
320,192,137168,1,0,0:0:0:0:
192,192,137287,1,0,0:0:0:0:
320,192,137406,1,0,0:0:0:0:
192,192,137525,1,0,0:0:0:0:
64,192,137644,1,0,0:0:0:0:
192,192,137763,1,0,0:0:0:0:
448,192,137763,1,0,0:0:0:0:
320,192,138001,1,0,0:0:0:0:
192,192,138240,1,0,0:0:0:0:
64,192,138478,1,0,0:0:0:0:
320,192,139430,1,0,0:0:0:0:
192,192,139430,1,0,0:0:0:0:
64,192,139668,1,0,0:0:0:0:
448,192,139668,1,0,0:0:0:0:
320,192,139906,1,0,0:0:0:0:
192,192,140144,1,0,0:0:0:0:
64,192,140382,1,0,0:0:0:0:
448,192,140382,1,0,0:0:0:0:
192,192,140620,1,0,0:0:0:0:
320,192,140859,1,0,0:0:0:0:
448,192,141097,1,0,0:0:0:0:
64,192,141097,1,0,0:0:0:0:
320,192,141335,1,0,0:0:0:0:
448,192,141573,1,0,0:0:0:0:
192,192,141573,1,0,0:0:0:0:
64,192,141811,1,0,0:0:0:0:
320,192,142049,1,0,0:0:0:0:
192,192,142287,1,0,0:0:0:0:
64,192,142287,1,0,0:0:0:0:
320,192,142525,1,0,0:0:0:0:
448,192,142763,1,0,0:0:0:0:
320,192,143478,1,0,0:0:0:0:
448,192,143478,1,0,0:0:0:0:
64,192,143597,1,0,0:0:0:0:
192,192,143716,1,0,0:0:0:0:
320,192,143835,1,0,0:0:0:0:
448,192,143954,1,0,0:0:0:0:
64,192,144073,1,0,0:0:0:0:
192,192,144192,1,0,0:0:0:0:
320,192,144311,1,0,0:0:0:0:
448,192,144430,1,0,0:0:0:0:
64,192,144430,1,0,0:0:0:0:
