osu file format v14

[General]
AudioFilename: 15 .mp3
AudioLeadIn: 0
PreviewTime: 60245
Countdown: 1
SampleSet: Normal
StackLeniency: 0.7
Mode: 0
LetterboxInBreaks: 1
WidescreenStoryboard: 1

[Editor]
Bookmarks: 90490,105490
DistanceSpacing: 1
BeatDivisor: 4
GridSize: 4
TimelineZoom: 1

[Metadata]
Title:Haruurara Momorarura
TitleUnicode:ハルウララ・モモラルラ
Artist:Satomi Akesaka
ArtistUnicode:明坂聡美
Creator:- N a g i -
Version:Hard
Source:
Tags:Haruurara
BeatmapID:628131
BeatmapSetID:277163

[Difficulty]
HPDrainRate:5
CircleSize:4
OverallDifficulty:8
ApproachRate:8
SliderMultiplier:1.4
SliderTickRate:2

[Events]
//Background and Video events
0,0,"bg.png",0,0
//Break Periods
2,90680,104730
2,172711,177855
//Storyboard Layer 0 (Background)
//Storyboard Layer 1 (Fail)
//Storyboard Layer 2 (Pass)
//Storyboard Layer 3 (Foreground)
//Storyboard Sound Samples

[TimingPoints]
480,468.75,4,1,1,70,1,0
14894,-100,4,2,0,70,0,0
15480,-100,4,2,1,100,0,0
28605,-100,4,1,0,50,0,0
60480,-66.6666666666667,4,1,1,60,0,0
105480,-100,4,1,0,60,0,0
105714,-100,4,2,2,60,0,0
112511,-100,4,1,0,60,0,0
113214,-100,4,2,2,60,0,0
118605,-100,4,1,0,60,0,0
119981,-100,4,2,1,60,0,0
120362,-100,4,1,0,60,0,0
135480,-66.6666666666667,4,1,0,60,0,0
180480,-66.6666666666667,4,2,1,100,0,0

[Colours]
Combo1 : 255,255,128
Combo2 : 128,255,128
Combo3 : 255,77,166
Combo4 : 255,157,255

[HitObjects]
128,56,480,5,4,0:0:0:0:
96,192,948,1,2,0:0:0:0:
416,192,1886,1,2,0:0:0:0:
384,56,2354,1,0,0:0:0:0:
256,104,2823,1,2,0:0:0:0:
256,280,3761,1,2,0:0:0:0:
128,224,4230,5,0,0:0:0:0:
88,360,4698,1,2,0:0:0:0:
424,360,5636,1,2,0:0:0:0:
384,224,6104,1,0,0:0:0:0:
384,224,7042,1,0,0:0:0:0:
380,52,7511,1,0,0:0:0:0:
312,104,7745,1,0,0:0:0:0:
416,160,7980,5,0,0:0:0:0:
256,240,8448,1,0,0:0:0:0:
96,160,8917,1,0,0:0:0:0:
256,80,9386,1,0,0:0:0:0:
362,157,9855,1,0,0:0:0:0:
321,282,10323,1,0,0:0:0:0:
190,282,10792,1,0,0:0:0:0:
149,157,11260,1,0,0:0:0:0:
256,40,11730,5,0,0:0:0:0:
363,84,12198,1,0,0:0:0:0:
408,192,12667,1,0,0:0:0:0:
363,299,13137,1,0,0:0:0:0:
256,344,13605,1,0,0:0:0:0:
148,299,14073,1,0,0:0:0:0:
104,192,14541,1,0,0:0:0:0:
148,84,15011,1,4,0:0:0:0:
456,152,15480,5,0,0:0:0:0:
376,160,15714,1,0,0:0:0:0:
296,168,15948,1,2,0:0:0:0:
48,192,16417,1,0,0:0:0:0:
112,216,16651,1,0,0:0:0:0:
160,264,16886,1,2,0:0:0:0:
184,328,17120,1,0,0:0:0:0:
252,316,17355,1,2,0:0:0:0:
264,248,17589,2,0,L|280:228,3,23.3333333333333
368,140,18058,1,0,0:0:0:0:
425,69,18292,5,10,0:0:0:0:
337,45,18526,1,0,0:0:0:0:
246,33,18761,1,8,0:0:0:0:
156,32,18995,1,8,0:0:0:0:
68,168,19230,5,0,0:0:0:0:
200,136,19464,1,0,0:0:0:0:
336,168,19698,1,0,0:0:0:0:
216,224,20167,5,0,0:0:0:0:
80,232,20401,1,0,0:0:0:0:
80,104,20636,1,2,0:0:0:0:
232,104,20870,1,0,0:0:0:0:
384,104,21105,1,2,0:0:0:0:
264,224,21339,1,0,0:0:0:0:
264,224,21417,1,2,0:0:0:0:
264,224,21495,1,0,0:0:0:0:
264,224,21573,1,2,0:0:0:0:
168,192,21808,1,0,0:0:0:0:
84,192,22042,1,10,0:0:0:0:
0,192,22276,1,0,0:0:0:0:
4,108,22511,1,8,0:0:0:0:
84,108,22745,1,0,0:0:0:0:
184,40,22980,5,0,0:0:0:0:
288,40,23214,1,0,0:0:0:0:
396,40,23448,1,0,0:0:0:0:
304,144,23683,1,0,0:0:0:0:
216,232,23917,1,0,0:0:0:0:
96,232,24151,1,0,0:0:0:0:
128,96,24386,1,0,0:0:0:0:
272,132,24620,1,0,0:0:0:0:
420,168,24855,1,0,0:0:0:0:
264,240,25089,1,0,0:0:0:0:
264,240,25167,1,0,0:0:0:0:
264,240,25245,1,0,0:0:0:0:
264,240,25323,1,0,0:0:0:0:
168,192,25558,1,0,0:0:0:0:
100,172,25792,1,8,0:0:0:0:
128,96,26026,1,0,0:0:0:0:
264,124,26261,1,8,0:0:0:0:
240,200,26495,1,8,0:0:0:0:
384,224,26730,5,0,0:0:0:0:
380,296,26964,1,0,0:0:0:0:
280,296,27198,1,0,0:0:0:0:
280,296,27433,1,0,0:0:0:0:
220,228,27667,1,0,0:0:0:0:
112,228,27901,1,0,0:0:0:0:
112,116,28136,1,0,0:0:0:0:
220,116,28370,1,0,0:0:0:0:
332,120,28605,1,0,0:0:0:0:
224,40,29073,1,0,0:0:0:0:
32,160,29542,1,0,0:0:0:0:
304,224,30011,1,0,0:0:0:0:
308,304,30245,1,0,0:0:0:0:
232,232,30480,5,0,0:0:0:0:
144,192,30714,1,0,0:0:0:0:
56,152,30948,1,0,0:0:0:0:
156,264,31417,1,0,0:0:0:0:
64,224,31886,1,0,0:0:0:0:
264,64,32355,1,0,0:0:0:0:
464,264,32823,1,0,0:0:0:0:
368,256,33058,2,0,B|328:112,1,140
264,168,33761,1,0,0:0:0:0:
216,96,34230,5,0,0:0:0:0:
224,160,34464,1,0,0:0:0:0:
232,220,34698,1,0,0:0:0:0:
40,160,35167,1,0,0:0:0:0:
40,160,35636,1,0,0:0:0:0:
232,272,36105,2,0,L|216:120,1,140
232,272,36808,2,0,B|216:120,1,140
96,48,37511,1,0,0:0:0:0:
148,92,37745,1,0,0:0:0:0:
196,140,37980,1,0,0:0:0:0:
56,152,38448,5,0,0:0:0:0:
120,176,38683,1,0,0:0:0:0:
232,272,38917,2,0,L|88:288,1,140
264,64,39855,1,0,0:0:0:0:
408,216,40323,1,0,0:0:0:0:
408,216,40558,1,0,0:0:0:0:
232,272,40792,2,0,B|216:120,1,140
288,88,41730,5,0,0:0:0:0:
208,88,42198,1,0,0:0:0:0:
224,160,42433,1,0,0:0:0:0:
40,160,42901,1,0,0:0:0:0:
40,160,43136,1,0,0:0:0:0:
208,268,43605,1,0,0:0:0:0:
208,204,44073,1,0,0:0:0:0:
208,136,44542,1,0,0:0:0:0:
268,92,45480,6,0,P|348:52|420:68,1,140
200,160,46183,2,0,P|280:184|400:144,1,210
268,92,47355,6,0,P|348:52|420:68,1,140
200,160,48058,2,0,P|280:184|400:144,1,210
268,92,49230,6,0,P|348:52|420:68,1,140
200,160,49933,2,0,P|280:184|400:144,1,210
268,92,51105,2,0,P|348:52|420:68,1,140
200,160,51808,2,0,P|280:184|400:144,1,210
152,272,52980,5,0,0:0:0:0:
316,268,53448,1,0,0:0:0:0:
224,152,53683,2,0,P|352:128|416:184,1,210
152,272,54855,1,0,0:0:0:0:
316,268,55323,1,0,0:0:0:0:
224,152,55558,2,0,P|352:128|416:184,1,210
152,272,56730,1,0,0:0:0:0:
316,268,57198,1,0,0:0:0:0:
224,152,57433,2,0,P|352:128|416:184,1,210
316,192,58370,1,0,0:0:0:0:
80,152,58605,5,0,0:0:0:0:
216,192,58839,1,2,2:0:0:0:
80,240,59073,1,8,2:0:0:0:
216,224,59308,1,2,2:0:0:0:
112,312,59542,1,4,0:0:0:0:
240,256,59776,1,2,2:0:0:0:
360,336,60011,1,8,2:0:0:0:
24,80,60480,5,0,0:0:0:0:
128,56,60714,1,0,0:0:0:0:
88,152,60948,1,8,0:0:0:0:
24,232,61183,1,0,0:0:0:0:
128,216,61417,2,0,P|192:176|328:264,1,210.000008010865,0|8,0:0|0:0,0:0:0:0:
240,296,62120,1,0,0:0:0:0:
344,320,62355,1,0,0:0:0:0:
440,280,62589,1,0,0:0:0:0:
128,216,62823,2,0,P|192:176|328:264,1,210.000008010865,8|0,0:0|0:0,0:0:0:0:
240,296,63526,1,0,0:0:0:0:
344,320,63761,1,8,0:0:0:0:
440,280,63995,1,0,0:0:0:0:
128,216,64229,2,0,P|192:176|328:264,1,210.000008010865,0|8,0:0|0:0,0:0:0:0:
240,296,64933,1,0,0:0:0:0:
344,320,65168,1,0,0:0:0:0:
440,280,65402,1,0,0:0:0:0:
344,320,65636,1,8,0:0:0:0:
440,280,65870,1,0,0:0:0:0:
376,192,66105,1,0,0:0:0:0:
240,296,66339,1,0,0:0:0:0:
344,320,66574,1,8,0:0:0:0:
440,280,66808,1,0,0:0:0:0:
316,128,67042,2,0,P|152:176|152:188,1,210.000008010865
228,28,67745,1,0,0:0:0:0:
24,80,67980,5,0,0:0:0:0:
128,56,68214,1,0,0:0:0:0:
88,152,68448,1,8,0:0:0:0:
24,232,68683,1,0,0:0:0:0:
128,216,68917,2,0,P|192:176|328:264,1,210.000008010865,0|8,0:0|0:0,0:0:0:0:
240,296,69620,1,0,0:0:0:0:
344,320,69855,1,0,0:0:0:0:
440,280,70089,1,0,0:0:0:0:
128,216,70323,2,0,P|192:176|328:264,1,210.000008010865,8|0,0:0|0:0,0:0:0:0:
240,296,71026,1,0,0:0:0:0:
344,320,71261,1,8,0:0:0:0:
440,280,71495,1,0,0:0:0:0:
128,216,71729,2,0,P|192:176|328:264,1,210.000008010865,0|8,0:0|0:0,0:0:0:0:
240,296,72433,1,0,0:0:0:0:
344,320,72668,1,0,0:0:0:0:
440,280,72902,1,0,0:0:0:0:
344,320,73136,1,8,0:0:0:0:
440,280,73370,1,0,0:0:0:0:
376,192,73605,1,0,0:0:0:0:
240,296,73839,1,0,0:0:0:0:
344,320,74074,1,8,0:0:0:0:
440,280,74308,1,0,0:0:0:0:
128,216,74542,2,0,P|192:176|328:264,1,210.000008010865
224,124,75245,1,0,0:0:0:0:
24,80,75480,5,0,0:0:0:0:
128,56,75714,1,0,0:0:0:0:
88,152,75948,1,0,0:0:0:0:
24,232,76183,1,0,0:0:0:0:
128,216,76417,2,0,P|192:176|328:264,1,210.000008010865
240,296,77120,1,0,0:0:0:0:
344,320,77355,1,0,0:0:0:0:
440,280,77589,1,0,0:0:0:0:
128,216,77823,2,0,P|192:176|328:264,1,210.000008010865
240,296,78526,1,0,0:0:0:0:
344,320,78761,1,0,0:0:0:0:
440,280,78995,1,0,0:0:0:0:
128,216,79229,2,0,P|192:176|328:264,1,210.000008010865
240,296,79933,1,0,0:0:0:0:
344,320,80168,1,0,0:0:0:0:
440,280,80402,1,0,0:0:0:0:
344,320,80636,1,0,0:0:0:0:
440,280,80870,1,0,0:0:0:0:
376,192,81105,1,0,0:0:0:0:
240,296,81339,1,0,0:0:0:0:
344,320,81574,1,0,0:0:0:0:
440,280,81808,1,0,0:0:0:0:
252,104,82042,2,0,P|316:64|452:152,1,210.000008010865
309,221,82745,1,0,0:0:0:0:
192,180,82980,5,0,0:0:0:0:
160,80,83214,1,0,0:0:0:0:
88,152,83448,1,0,0:0:0:0:
24,232,83683,1,0,0:0:0:0:
128,216,83917,2,0,P|192:176|328:264,1,210.000008010865
240,296,84620,1,0,0:0:0:0:
344,320,84855,1,0,0:0:0:0:
440,280,85089,1,0,0:0:0:0:
352,224,85323,2,0,P|312:112|232:152,1,210.000008010865
240,296,86026,1,0,0:0:0:0:
344,320,86261,1,0,0:0:0:0:
440,280,86495,1,0,0:0:0:0:
128,216,86729,2,0,P|192:176|328:264,1,210.000008010865
240,296,87433,1,0,0:0:0:0:
344,320,87668,1,0,0:0:0:0:
440,280,87902,1,0,0:0:0:0:
344,320,88136,1,0,0:0:0:0:
440,280,88370,1,0,0:0:0:0:
376,192,88605,1,0,0:0:0:0:
240,296,88839,1,0,0:0:0:0:
344,320,89074,1,0,0:0:0:0:
440,280,89308,1,0,0:0:0:0:
128,216,89542,2,0,P|192:176|328:264,1,210.000008010865,0|8,0:0|2:0,0:0:0:0:
309,221,90480,1,0,0:0:0:0:
148,136,105480,5,0,0:0:0:0:
256,136,105948,1,8,0:0:0:0:
336,200,106651,1,0,0:0:0:0:
336,200,106886,1,8,0:0:0:0:
256,88,107355,1,0,0:0:0:0:
456,152,107823,1,0,0:0:0:0:
376,216,108058,6,0,P|336:272|80:232,1,350
120,184,109698,1,8,0:0:0:0:
208,80,110401,1,0,0:0:0:0:
264,108,110636,1,8,0:0:0:0:
360,200,111105,1,0,0:0:0:0:
240,200,111573,1,8,0:0:0:0:
232,128,111808,6,0,P|120:96|48:176,1,210
40,216,112745,1,0,0:0:0:0:
80,272,112980,1,0,0:0:0:0:
120,184,113448,5,8,0:0:0:0:
208,80,114151,1,0,0:0:0:0:
272,80,114386,1,8,0:0:0:0:
372,200,114855,1,0,0:0:0:0:
240,200,115323,1,8,0:0:0:0:
232,128,115558,6,0,P|120:96|72:296,1,350
120,184,117198,1,8,0:0:0:0:
208,80,117901,1,0,0:0:0:0:
240,144,118136,1,0,0:0:0:0:
184,308,118605,1,0,0:0:0:0:
324,316,119073,1,0,0:0:0:0:
232,128,119542,2,0,P|176:96|128:136,1,105,0|2,0:0|2:0,0:0:0:0:
0,264,120480,5,0,0:0:0:0:
72,248,120714,1,0,0:0:0:0:
144,248,120948,1,0,0:0:0:0:
208,264,121183,2,0,P|312:288|424:256,1,210
464,224,122120,1,0,0:0:0:0:
512,116,122355,5,0,0:0:0:0:
440,136,122589,1,0,0:0:0:0:
368,136,122823,1,0,0:0:0:0:
304,120,123058,2,0,P|200:96|88:128,1,210
48,160,123995,1,0,0:0:0:0:
8,264,124230,5,0,0:0:0:0:
72,248,124464,1,0,0:0:0:0:
144,248,124698,1,0,0:0:0:0:
208,264,124933,2,0,P|312:288|424:256,1,210
464,224,125870,1,0,0:0:0:0:
508,120,126105,5,0,0:0:0:0:
436,136,126339,1,0,0:0:0:0:
368,136,126573,1,0,0:0:0:0:
304,120,126808,2,0,P|200:96|88:128,1,210
48,160,127745,1,0,0:0:0:0:
8,264,127980,5,0,0:0:0:0:
144,248,128448,1,0,0:0:0:0:
208,264,128683,1,0,0:0:0:0:
280,280,128917,2,0,P|368:272|416:240,1,140
464,224,129620,1,0,0:0:0:0:
504,120,129855,5,0,0:0:0:0:
368,136,130323,1,0,0:0:0:0:
304,120,130558,1,0,0:0:0:0:
232,104,130792,2,0,P|144:112|96:144,1,140
48,160,131495,1,0,0:0:0:0:
8,264,131730,5,0,0:0:0:0:
144,248,132198,1,0,0:0:0:0:
208,264,132433,1,0,0:0:0:0:
280,280,132667,2,0,P|368:272|416:240,1,140
464,224,133370,1,0,0:0:0:0:
504,120,133605,5,0,0:0:0:0:
380,116,134073,1,0,0:0:0:0:
372,200,134308,2,0,P|268:176|244:192,1,140
244,188,134855,1,0,0:0:0:0:
244,188,134933,1,0,0:0:0:0:
244,188,135011,1,0,0:0:0:0:
24,80,135480,5,0,0:0:0:0:
128,56,135714,1,2,2:0:0:0:
112,104,135831,1,2,2:0:0:0:
88,152,135948,1,0,0:0:0:0:
24,232,136183,1,0,0:0:0:0:
24,80,136417,5,0,0:0:0:0:
128,56,136651,1,2,2:0:0:0:
112,104,136768,1,2,2:0:0:0:
88,152,136885,1,0,0:0:0:0:
24,232,137120,1,0,0:0:0:0:
24,80,137355,5,0,0:0:0:0:
128,56,137589,1,2,2:0:0:0:
112,104,137706,1,2,2:0:0:0:
88,152,137823,1,0,0:0:0:0:
24,232,138058,1,0,0:0:0:0:
24,80,138292,5,0,0:0:0:0:
128,56,138526,1,0,0:0:0:0:
88,152,138760,1,0,0:0:0:0:
24,232,138995,1,0,0:0:0:0:
24,80,139230,1,0,0:0:0:0:
88,152,139698,5,0,0:0:0:0:
24,232,139933,1,0,0:0:0:0:
136,264,140168,1,0,0:0:0:0:
256,264,140402,1,0,0:0:0:0:
344,320,140636,1,0,0:0:0:0:
440,280,140870,1,0,0:0:0:0:
380,184,141105,1,0,0:0:0:0:
256,264,141339,1,0,0:0:0:0:
344,320,141574,1,0,0:0:0:0:
440,280,141808,1,0,0:0:0:0:
380,184,142042,1,2,2:0:0:0:
176,112,142276,1,2,2:0:0:0:
176,112,142355,1,2,2:0:0:0:
176,112,142433,1,2,2:0:0:0:
176,112,142511,1,2,2:0:0:0:
236,28,142745,1,0,0:0:0:0:
24,80,142980,5,0,0:0:0:0:
128,56,143214,1,2,2:0:0:0:
112,104,143331,1,2,2:0:0:0:
88,152,143448,1,0,0:0:0:0:
24,232,143683,1,0,0:0:0:0:
24,80,143917,5,0,0:0:0:0:
128,56,144151,1,2,2:0:0:0:
112,104,144268,1,2,2:0:0:0:
88,152,144385,1,0,0:0:0:0:
24,232,144620,1,0,0:0:0:0:
24,80,144855,5,0,0:0:0:0:
128,56,145089,1,2,2:0:0:0:
112,104,145206,1,2,2:0:0:0:
88,152,145323,1,0,0:0:0:0:
24,232,145558,1,0,0:0:0:0:
24,80,145792,5,0,0:0:0:0:
128,56,146026,1,0,0:0:0:0:
88,152,146260,1,0,0:0:0:0:
24,232,146495,1,0,0:0:0:0:
24,80,146730,5,0,0:0:0:0:
88,152,147198,1,0,0:0:0:0:
24,232,147433,1,0,0:0:0:0:
132,276,147668,1,0,0:0:0:0:
256,276,147902,1,0,0:0:0:0:
344,320,148136,1,0,0:0:0:0:
440,280,148370,1,0,0:0:0:0:
352,232,148605,1,0,0:0:0:0:
256,276,148839,1,0,0:0:0:0:
344,320,149074,1,0,0:0:0:0:
440,280,149308,1,0,0:0:0:0:
352,232,149542,1,2,2:0:0:0:
304,200,149659,1,2,2:0:0:0:
216,144,149894,1,2,2:0:0:0:
176,112,150011,1,2,2:0:0:0:
196,8,150245,1,0,0:0:0:0:
24,80,150480,5,0,0:0:0:0:
128,56,150714,1,2,2:0:0:0:
112,104,150831,1,2,2:0:0:0:
88,152,150948,1,0,0:0:0:0:
24,232,151183,1,0,0:0:0:0:
24,80,151417,5,0,0:0:0:0:
128,56,151651,1,2,2:0:0:0:
112,104,151768,1,2,2:0:0:0:
88,152,151885,1,0,0:0:0:0:
24,232,152120,1,0,0:0:0:0:
24,80,152355,5,0,0:0:0:0:
128,56,152589,1,2,2:0:0:0:
112,104,152706,1,2,2:0:0:0:
88,152,152823,1,0,0:0:0:0:
24,232,153058,1,0,0:0:0:0:
24,80,153292,5,0,0:0:0:0:
128,56,153526,1,0,0:0:0:0:
88,152,153760,1,0,0:0:0:0:
24,232,153995,1,0,0:0:0:0:
24,80,154230,5,0,0:0:0:0:
88,152,154698,1,0,0:0:0:0:
24,232,154933,1,0,0:0:0:0:
136,276,155168,1,0,0:0:0:0:
256,280,155402,1,0,0:0:0:0:
344,320,155636,1,0,0:0:0:0:
440,280,155870,1,0,0:0:0:0:
352,232,156105,1,0,0:0:0:0:
256,280,156339,1,0,0:0:0:0:
344,320,156574,1,0,0:0:0:0:
440,280,156808,1,0,0:0:0:0:
352,232,157042,1,2,2:0:0:0:
176,112,157276,1,2,2:0:0:0:
176,112,157355,1,2,2:0:0:0:
176,112,157433,1,2,2:0:0:0:
176,112,157511,1,2,2:0:0:0:
196,8,157745,1,0,0:0:0:0:
24,80,157980,5,0,0:0:0:0:
128,56,158214,1,2,2:0:0:0:
112,104,158331,1,2,2:0:0:0:
88,152,158448,1,0,0:0:0:0:
24,232,158683,1,0,0:0:0:0:
24,80,158917,5,0,0:0:0:0:
128,56,159151,1,2,2:0:0:0:
112,104,159268,1,2,2:0:0:0:
88,152,159385,1,0,0:0:0:0:
24,232,159620,1,0,0:0:0:0:
24,80,159855,5,0,0:0:0:0:
128,56,160089,1,2,2:0:0:0:
112,104,160206,1,2,2:0:0:0:
88,152,160323,1,0,0:0:0:0:
24,232,160558,1,0,0:0:0:0:
24,80,160792,5,0,0:0:0:0:
128,56,161026,1,0,0:0:0:0:
88,152,161260,1,0,0:0:0:0:
24,232,161495,1,0,0:0:0:0:
24,80,161730,5,0,0:0:0:0:
88,152,162198,1,0,0:0:0:0:
24,232,162433,1,0,0:0:0:0:
136,272,162668,1,0,0:0:0:0:
256,276,162902,1,0,0:0:0:0:
344,320,163136,1,0,0:0:0:0:
440,280,163370,1,0,0:0:0:0:
352,232,163605,1,0,0:0:0:0:
256,276,163839,1,0,0:0:0:0:
344,320,164074,1,0,0:0:0:0:
440,280,164308,1,0,0:0:0:0:
352,232,164542,1,2,2:0:0:0:
304,200,164659,1,2,2:0:0:0:
216,144,164894,1,2,2:0:0:0:
176,112,165011,1,2,2:0:0:0:
376,56,165480,6,0,L|120:56,1,210.000008010865,0|8,0:0|0:0,0:0:0:0:
96,56,166183,1,0,0:0:0:0:
96,192,166651,1,0,0:0:0:0:
220,192,166886,1,8,0:0:0:0:
260,72,167355,2,8,L|476:136,1,210.000008010865,0|8,0:0|0:0,0:0:0:0:
436,224,168058,1,0,0:0:0:0:
336,224,168292,1,0,0:0:0:0:
232,224,168526,1,0,0:0:0:0:
128,224,168761,1,8,0:0:0:0:
312,96,169230,2,0,L|88:96,1,210.000008010865,0|8,0:0|0:0,0:0:0:0:
32,176,169933,1,0,0:0:0:0:
156,320,170401,1,0,0:0:0:0:
232,320,170636,1,8,0:0:0:0:
232,320,170870,1,0,0:0:0:0:
180,228,171105,1,0,0:0:0:0:
88,228,171339,1,0,0:0:0:0:
40,160,171573,1,8,0:0:0:0:
132,160,171808,1,0,0:0:0:0:
224,156,172042,1,0,0:0:0:0:
68,92,172394,1,0,0:0:0:0:
68,92,172511,1,8,0:0:0:0:
256,192,178605,12,0,180011,0:0:0:0:
160,100,180480,5,0,0:0:0:0:
108,188,180714,1,2,0:0:0:0:
256,144,180948,1,0,0:0:0:0:
208,236,181183,1,2,0:0:0:0:
328,240,181417,1,0,0:0:0:0:
160,100,181886,5,0,0:0:0:0:
108,188,182120,1,2,0:0:0:0:
256,144,182354,1,0,0:0:0:0:
208,236,182589,1,2,0:0:0:0:
328,240,182823,1,0,0:0:0:0:
160,100,183292,5,0,0:0:0:0:
108,188,183526,1,2,0:0:0:0:
256,144,183760,1,0,0:0:0:0:
208,236,183995,1,2,0:0:0:0:
328,240,184230,1,0,0:0:0:0:
160,100,184698,5,0,0:0:0:0:
108,188,184932,1,2,0:0:0:0:
256,144,185166,1,0,0:0:0:0:
208,236,185401,1,2,0:0:0:0:
328,240,185635,1,0,0:0:0:0:
160,100,185870,5,0,0:0:0:0:
108,188,186104,1,2,0:0:0:0:
256,144,186338,1,0,0:0:0:0:
208,236,186573,1,2,0:0:0:0:
328,240,186807,1,0,0:0:0:0:
396,184,187042,1,0,0:0:0:0:
320,128,187276,1,2,0:0:0:0:
320,128,187355,1,0,0:0:0:0:
320,128,187433,1,2,0:0:0:0:
320,128,187511,1,0,0:0:0:0:
320,24,187745,1,0,0:0:0:0:
160,100,187980,5,0,0:0:0:0:
108,188,188214,1,2,0:0:0:0:
256,144,188448,1,0,0:0:0:0:
208,236,188683,1,2,0:0:0:0:
328,240,188917,1,0,0:0:0:0:
160,100,189386,5,0,0:0:0:0:
108,188,189620,1,2,0:0:0:0:
256,144,189854,1,0,0:0:0:0:
208,236,190089,1,2,0:0:0:0:
328,240,190323,1,0,0:0:0:0:
160,100,190792,5,0,0:0:0:0:
108,188,191026,1,2,0:0:0:0:
256,144,191260,1,0,0:0:0:0:
208,236,191495,1,2,0:0:0:0:
328,240,191730,1,0,0:0:0:0:
160,100,192198,5,0,0:0:0:0:
108,188,192432,1,2,0:0:0:0:
256,144,192666,1,0,0:0:0:0:
208,236,192901,1,2,0:0:0:0:
328,240,193135,1,0,0:0:0:0:
160,100,193370,5,0,0:0:0:0:
108,188,193604,1,2,0:0:0:0:
256,144,193838,1,0,0:0:0:0:
208,236,194073,1,2,0:0:0:0:
328,240,194307,1,0,0:0:0:0:
416,192,194542,1,0,0:0:0:0:
412,128,194659,1,2,0:0:0:0:
320,128,194894,1,2,0:0:0:0:
320,128,195011,1,0,0:0:0:0:
320,24,195245,1,0,0:0:0:0:
160,100,195480,5,0,0:0:0:0:
108,188,195714,1,2,0:0:0:0:
256,144,195948,1,0,0:0:0:0:
208,236,196183,1,2,0:0:0:0:
328,240,196417,1,0,0:0:0:0:
160,100,196886,5,0,0:0:0:0:
108,188,197120,1,2,0:0:0:0:
256,144,197354,1,0,0:0:0:0:
208,236,197589,1,2,0:0:0:0:
328,240,197823,1,0,0:0:0:0:
160,100,198292,5,0,0:0:0:0:
108,188,198526,1,2,0:0:0:0:
256,144,198760,1,0,0:0:0:0:
208,236,198995,1,2,0:0:0:0:
328,240,199230,1,0,0:0:0:0:
164,104,199698,5,0,0:0:0:0:
108,188,199932,1,2,0:0:0:0:
256,144,200166,1,0,0:0:0:0:
208,236,200401,1,2,0:0:0:0:
328,240,200635,1,0,0:0:0:0:
164,104,200870,5,0,0:0:0:0:
108,188,201104,1,2,0:0:0:0:
256,144,201338,1,0,0:0:0:0:
208,236,201573,1,2,0:0:0:0:
328,240,201807,1,0,0:0:0:0:
392,180,202042,1,0,0:0:0:0:
320,128,202276,1,2,0:0:0:0:
320,128,202355,1,0,0:0:0:0:
320,128,202433,1,2,0:0:0:0:
320,128,202511,1,0,0:0:0:0:
320,24,202745,1,0,0:0:0:0:
164,104,202980,5,0,0:0:0:0:
108,188,203214,1,2,0:0:0:0:
256,144,203448,1,0,0:0:0:0:
208,236,203683,1,2,0:0:0:0:
328,240,203917,1,0,0:0:0:0:
164,104,204386,5,0,0:0:0:0:
108,188,204620,1,2,0:0:0:0:
256,144,204854,1,0,0:0:0:0:
208,236,205089,1,2,0:0:0:0:
328,240,205323,1,0,0:0:0:0:
164,104,205792,5,0,0:0:0:0:
108,188,206026,1,2,0:0:0:0:
256,144,206260,1,0,0:0:0:0:
208,236,206495,1,2,0:0:0:0:
328,240,206730,1,0,0:0:0:0:
164,104,207198,5,0,0:0:0:0:
108,188,207432,1,2,0:0:0:0:
256,144,207666,1,0,0:0:0:0:
208,236,207901,1,2,0:0:0:0:
328,240,208135,1,0,0:0:0:0:
164,104,208370,5,0,0:0:0:0:
108,188,208604,1,2,0:0:0:0:
256,144,208838,1,0,0:0:0:0:
208,236,209073,1,2,0:0:0:0:
328,240,209307,1,0,0:0:0:0:
392,176,209542,1,0,0:0:0:0:
320,128,209776,1,2,0:0:0:0:
320,128,209855,1,0,0:0:0:0:
320,128,209933,1,2,0:0:0:0:
320,128,210011,1,0,0:0:0:0:
320,24,210245,1,0,0:0:0:0:
208,128,210480,5,0,0:0:0:0:
