osu file format v6

[General]
AudioFilename: dear-you-kind-.mp3
AudioLeadIn: 496
PreviewTime: -1
Countdown: 1
SampleSet: Soft
StackLeniency: 0.7
Mode: 0
LetterboxInBreaks: 1

[Editor]
DistanceSpacing: 0.800000011920929
BeatDivisor: 6
GridSize: 32

[Metadata]
Title:Dear You -Kind-
Artist:Satoko
Creator:KawaiinessBM-aker
Version:Easy
Source:
Tags:

[Difficulty]
HPDrainRate:2
CircleSize:4
OverallDifficulty:2
SliderMultiplier:1.4
SliderTickRate:1

[Events]
//Background and Video events
0,0,"11063761530644ys.jpg"
//Break Periods
2,28656,32853
2,62850,76973
2,107853,113152
2,131678,138742
2,158150,162566
2,169621,171390
2,260508,264043
2,272862,279690
//Storyboard Layer 0 (Background)
//Storyboard Layer 1 (Fail)
//Storyboard Layer 2 (Pass)
//Storyboard Layer 3 (Foreground)
//Storyboard Sound Samples
//Background Colour Transformations
3,100,0,0,0

[TimingPoints]
0,7500,4,2,0,100,1,0

[HitObjects]
96,128,5294,5,0
320,96,6176,1,0
160,256,7941,1,0
320,224,9706,1,0
224,128,11471,1,0
96,192,13236,1,0
133,209,15883,1,8
358,256,16765,1,8
99,301,18530,1,8
205,133,20295,1,8
317,167,21177,1,8
101,297,22942,1,8
64,160,24707,2,0,B|160:160,1,70
120,204,34413,5,2
339,124,36178,1,2
185,243,37943,1,2
185,243,37943,1,2
344,241,39708,1,2
344,241,39708,1,2
162,110,41472,5,2
266,130,43237,1,2
96,268,44120,1,2
294,276,45884,1,2
294,276,45884,1,2
165,97,46767,1,2
197,202,48532,1,2
197,202,48532,1,2
315,199,50296,1,2
206,64,51179,1,2
77,211,51179,1,2
377,71,52061,1,2
227,267,52944,1,2
380,285,54708,1,2
380,285,54708,1,2
123,265,56473,1,2
332,187,57356,1,2
160,224,59120,1,0
352,288,60885,1,0
352,288,61768,1,0
192,256,62650,1,0
355,166,78533,5,0
355,166,78533,5,0
210,262,79416,1,0
62,201,80298,1,0
223,135,82063,1,0
68,318,82945,1,0
380,218,84710,1,0
192,192,85593,1,0
192,192,85593,1,0
96,160,86475,1,0
217,325,88240,1,0
234,184,89122,1,0
361,186,90887,1,0
105,259,92652,1,0
264,246,93534,1,0
358,136,95299,1,0
193,208,97064,1,8
353,217,97946,1,8
119,103,99711,1,8
118,250,101476,1,8
283,267,103241,1,8
415,163,104123,1,8
242,183,105888,1,8
91,216,107653,1,8
320,160,114712,5,4
64,160,116477,1,4
224,256,118241,1,4
352,192,119124,1,4
192,192,120889,1,4
64,192,122654,1,4
256,192,124418,1,4
128,320,125301,1,4
288,256,127066,1,4
288,256,127066,1,4
416,160,128830,1,4
256,256,131478,1,0
256,256,140302,5,8
128,224,142066,1,8
320,192,142949,1,8
224,96,145596,1,0
256,224,146478,1,2
384,128,148243,1,2
96,192,149126,1,2
224,256,150890,1,2
266,162,152655,1,4
56,276,153538,1,4
289,290,155302,1,4
289,290,156185,1,4
289,290,156185,1,4
119,193,157950,1,4
164,193,164126,5,4
323,282,165891,1,4
69,267,167656,1,4
64,160,169421,1,8
146,226,172950,5,2
291,252,174715,1,2
291,252,174715,1,2
113,249,176480,1,2
288,221,178245,1,2
114,171,179127,1,2
402,248,180892,1,2
180,271,182657,1,2
269,210,184422,1,2
131,225,186187,1,2
384,234,187951,1,2
188,247,188834,1,2
233,234,190599,1,2
125,208,192363,1,2
125,208,192363,1,2
125,208,192363,1,2
311,217,194128,1,2
149,240,195893,1,2
318,225,197658,1,2
126,247,198540,1,2
126,247,198540,1,2
305,177,201187,1,8
84,210,202070,1,8
265,268,202952,1,8
398,226,204717,1,8
158,209,205599,1,8
267,222,206482,1,8
89,281,208247,1,8
335,188,209129,1,8
110,177,210894,1,8
300,174,211776,1,8
96,204,213541,1,8
280,163,215306,1,8
303,267,217071,1,8
231,283,217071,1,8
174,271,217953,1,8
218,182,218835,1,8
360,177,219718,1,8
75,205,221483,1,8
288,201,222365,1,8
243,208,222365,1,8
243,208,222365,1,8
83,246,224130,1,8
252,242,225895,1,8
474,171,226777,1,8
233,165,229424,1,10
291,255,230307,1,10
163,254,233836,1,4
315,235,235601,1,4
436,168,237366,1,12
231,196,239131,1,12
249,244,241778,1,14
53,174,243543,1,14
209,181,245308,1,14
302,183,247072,1,14
110,205,247955,1,14
229,196,249720,1,14
333,166,251484,1,14
95,208,253249,1,14
95,208,253249,1,14
188,203,254132,1,14
235,254,255014,1,14
156,280,255896,1,14
258,190,257661,1,14
261,288,258544,1,14
425,198,260308,1,12
256,208,265603,12,12,268253
152,196,270897,5,12
429,258,271780,1,12
210,312,272662,1,12
384,128,281250,5,0
