osu file format v9

[General]
AudioFilename: Sato Naoki - Sentou Kuuiki.mp3
AudioLeadIn: 0
PreviewTime: -1
Countdown: 1
SampleSet: Soft
StackLeniency: 0.7
Mode: 0
LetterboxInBreaks: 1

[Editor]
Bookmarks: 8504,13328,16567,19760,26192,39056
DistanceSpacing: 1
BeatDivisor: 4
GridSize: 8

[Metadata]
Title:Sentou Kuuiki
Artist:Sato Naoki
Creator:Chaos Anime X
Version:
Source:Eureka 7 OST
Tags:anime OST original sound track eureka seven 7

[Difficulty]
HPDrainRate:6
CircleSize:6
OverallDifficulty:5
ApproachRate:6
SliderMultiplier:1.99999990463257
SliderTickRate:2

[Events]
//Background and Video events
0,0,"Konachan.com - 17026 bones eureka_seven.jpg"
//Break Periods
2,32623,38006
//Storyboard Layer 0 (Background)
//Storyboard Layer 1 (Fail)
//Storyboard Layer 2 (Pass)
//Storyboard Layer 3 (Foreground)
//Storyboard Sound Samples
//Background Colour Transformations
3,100,163,162,255

[TimingPoints]
464,402.010050251256,4,2,0,100,1,0

[Colours]
Combo1 : 238,212,117
Combo2 : 184,124,217
Combo3 : 175,240,226
Combo4 : 247,230,221

[HitObjects]
112,152,464,2,0,B|160:152,4,49.9999976158143
80,112,2066,6,0,B|128:112,1,49.9999976158142
184,112,2273,2,0,B|232:112,1,49.9999976158142
280,112,2459,1,0
112,296,3680,6,0,B|160:296,1,49.9999976158142
216,296,3883,2,0,B|168:296,1,49.9999976158142
160,248,4079,1,0
72,96,5288,6,0,B|120:96,1,49.9999976158142
176,96,5489,1,0
224,96,5589,1,0
272,96,5690,1,0
432,288,6896,5,0
384,288,6996,1,0
336,288,7097,1,0
288,288,7197,2,0,B|312:240,1,49.9999976158143
88,112,8504,2,0,B|136:112,1,49.9999976158143
192,112,8705,1,0
288,112,8805,2,0,B|336:112,1,49.9999976158143
424,296,10112,5,0
368,296,10212,1,0
320,264,10313,1,0
264,264,10413,1,0
216,232,10514,1,0
256,56,11720,5,0
216,96,11820,1,0
256,136,11921,1,0
216,168,12021,1,0
168,200,12122,1,0
112,64,13328,6,0,B|112:376,1,299.999985694885
112,16,14534,2,0,B|448:16,1,299.999985694885
160,288,15740,1,0
80,232,16142,1,0
104,144,16544,2,0,B|152:144,1,49.9999976158142
152,96,16745,2,0,B|240:8|384:0|496:8|520:104|512:296|424:344|312:368|32:368|8:304|-8:144|16:40|168:184|248:224|264:256|384:176|392:112|320:80|216:112|48:160,1,1299.99993801117,0|4
112,16,19760,6,0,B|448:16,1,299.999985694885
208,232,20966,2,0,B|544:232,1,299.999985694885
208,264,22172,1,0
120,80,22574,1,0
390,240,22976,2,0,B|346:218,1,49.9999976158142
368,176,23177,2,0,B|327:58|201:-11|97:-53|33:21|-43:197|14:279|104:350|356:473|406:426|490:289|514:185|315:248|225:248|197:270|124:146|145:85|224:87|303:162|433:279,1,1299.99993801117,0|0
264,152,26192,6,0,B|344:152,2,49.9999976158143
88,240,26795,2,0,B|168:240,2,49.9999976158143
272,312,27398,2,0,B|200:312,2,49.9999976158143
384,104,28001,2,0,B|336:104,2,49.9999976158143
384,152,28303,1,0
384,200,28403,1,0
384,248,28504,1,0
336,248,28604,2,0,B|288:248,2,49.9999976158143
240,248,29006,2,0,B|184:248,2,49.9999976158143
248,152,29408,6,0,B|168:152,2,49.9999976158143
424,240,30011,2,0,B|344:240,2,49.9999976158143
232,304,30614,1,0
184,304,30715,1,0
136,304,30815,1,0
128,104,31217,2,0,B|176:104,2,49.9999976158143
128,152,31519,1,0
128,200,31619,1,0
128,248,31720,1,0
176,248,31820,2,0,B|224:248,2,49.9999976158143
272,248,32222,1,0
320,248,32323,1,0
368,248,32423,1,0
256,192,39056,12,0,39458
256,192,39458,12,0,40262
256,192,40665,12,0,41067
256,192,41067,12,0,41871
72,80,42273,6,0,B|288:80,1,199.999990463257
168,96,43880,1,0
216,96,43981,1,0
264,96,44081,1,0
