osu file format v9

[General]
AudioFilename: Yozakura Kaidou.mp3
AudioLeadIn: 0
PreviewTime: 81617
Countdown: 1
SampleSet: Soft
StackLeniency: 0.7
Mode: 0
LetterboxInBreaks: 1

[Editor]
DistanceSpacing: 1.2
BeatDivisor: 4
GridSize: 4

[Metadata]
Title:Yozakura Kaidou
Artist:Sasha Asuka
Creator:Mystica
Version:Yozakura
Source:Touhou
Tags:spboxer3 LKs Pokie LoveFantasy Numbers 596108 c79 Saigyouji Yuyuko

[Difficulty]
HPDrainRate:5
CircleSize:4
OverallDifficulty:6
ApproachRate:7
SliderMultiplier:1.9
SliderTickRate:1

[Events]
//Background and Video events
0,0,"BG.jpg"
//Break Periods
2,21817,39917
2,101017,119117
//Storyboard Layer 0 (Background)
Sprite,Background,Centre,"BG.jpg",320,240 S,0,0,,0.8 F,0,0,2417,0 F,0,2417,21617,0,0.3 F,0,21617,60017,1 F,0,60017,62417,1,0.5 F,0,79217,81617,0.5,1 F,0,81617,139217,1 F,0,139217,141617,1,0.5 F,0,158417,160817,0.5,1 F,0,160817,180017,1 F,0,180017,221338,1,0
Sprite,Background,Centre,"BG.jpg",320,240 S,1,21617,21917,0.8,0.86 F,0,21617,24017,1,0 S,0,21917,24017,0.86,0.9
//Storyboard Layer 1 (Fail)
//Storyboard Layer 2 (Pass)
//Storyboard Layer 3 (Foreground)
Sprite,Foreground,Centre,"SB\sakura3.png",320,240 F,0,82473,85217,1 M,0,82473,86417,654,-38,230,5 S,0,82473,86417,0.83,1.106667 R,0,82473,86417,2.13,3.03 C,0,82473,86417,244,250,248 F,0,85217,86417,1,0
Sprite,Foreground,Centre,"SB\sakura3.png",320,240 F,0,82226,85217,1 M,0,82226,86417,662,-27,40,319 S,0,82226,86417,0.22,0.2933333 R,0,82226,86417,-1.39,-3.18 C,0,82226,86417,252,249,249 F,0,85217,86417,1,0
Sprite,Foreground,Centre,"SB\sakura3.png",320,240 F,0,82853,86417,1 M,0,82853,87617,652,-42,166,196 S,0,82853,87617,0.56,0.7466667 R,0,82853,87617,-0.81,-4.36 C,0,82853,87617,253,212,249 F,0,86417,87617,1,0
Sprite,Foreground,Centre,"SB\sakura3.png",320,240 F,0,83804,86417,1 M,0,83804,87617,651,-28,296,272 S,0,83804,87617,0.09,0.12 R,0,83804,87617,-2.74,-3.03 C,0,83804,87617,234,208,248 F,0,86417,87617,1,0
Sprite,Foreground,Centre,"SB\sakura3.png",320,240 F,0,84041,87617,1 M,0,84041,88817,666,-31,18,633 S,0,84041,88817,0.15,0.2 R,0,84041,88817,-3.03,3.26 C,0,84041,88817,238,241,247 F,0,87617,88817,1,0
Sprite,Foreground,Centre,"SB\sakura3.png",320,240 F,0,85050,87617,1 M,0,85050,88817,666,-48,287,531 S,0,85050,88817,0.43,0.5733333 R,0,85050,88817,-1.28,1.37 C,0,85050,88817,249,211,255 F,0,87617,88817,1,0
Sprite,Foreground,Centre,"SB\sakura3.png",320,240 F,0,85968,88817,1 M,0,85968,90017,660,-42,622,250 S,0,85968,90017,0.26,0.3466667 R,0,85968,90017,1.11,-2.05 C,0,85968,90017,237,187,254 F,0,88817,90017,1,0
Sprite,Foreground,Centre,"SB\sakura3.png",320,240 F,0,85899,88817,1 M,0,85899,90017,660,-41,452,650 S,0,85899,90017,0.25,0.3333333 R,0,85899,90017,-2.48,-5.29 C,0,85899,90017,254,204,249 F,0,88817,90017,1,0
Sprite,Foreground,Centre,"SB\sakura3.png",320,240 F,0,86674,90017,1 M,0,86674,91217,659,-43,212,46 S,0,86674,91217,0.86,1.146667 R,0,86674,91217,1.32,-3.12 C,0,86674,91217,253,173,254 F,0,90017,91217,1,0
Sprite,Foreground,Centre,"SB\sakura3.png",320,240 F,0,86657,90017,1 M,0,86657,91217,662,-21,62,524 S,0,86657,91217,0.38,0.5066667 R,0,86657,91217,2.09,-4.14 C,0,86657,91217,245,234,253 F,0,90017,91217,1,0
Sprite,Foreground,Centre,"SB\sakura3.png",320,240 F,0,88701,91217,1 M,0,88701,92417,656,-40,258,427 S,0,88701,92417,0.79,1.053333 R,0,88701,92417,-0.44,5.14 C,0,88701,92417,239,181,248 F,0,91217,92417,1,0
Sprite,Foreground,Centre,"SB\sakura3.png",320,240 F,0,88439,91217,1 M,0,88439,92417,650,-37,132,296 S,0,88439,92417,0.45,0.6 R,0,88439,92417,-1.44,-0.81 C,0,88439,92417,251,211,252 F,0,91217,92417,1,0
Sprite,Foreground,Centre,"SB\sakura3.png",320,240 F,0,88924,92417,1 M,0,88924,93617,654,-44,514,307 S,0,88924,93617,0.29,0.3866667 R,0,88924,93617,0.68,5.05 C,0,88924,93617,247,182,253 F,0,92417,93617,1,0
Sprite,Foreground,Centre,"SB\sakura3.png",320,240 F,0,89941,92417,1 M,0,89941,93617,670,-32,273,398 S,0,89941,93617,0.72,0.96 R,0,89941,93617,3.03,-2.19 C,0,89941,93617,237,245,253 F,0,92417,93617,1,0
Sprite,Foreground,Centre,"SB\sakura3.png",320,240 F,0,90401,93617,1 M,0,90401,94817,662,-31,171,535 S,0,90401,94817,0 R,0,90401,94817,2.81,2.04 C,0,90401,94817,241,207,248 F,0,93617,94817,1,0
Sprite,Foreground,Centre,"SB\sakura3.png",320,240 F,0,90964,93617,1 M,0,90964,94817,656,-49,409,14 S,0,90964,94817,0.66,0.88 R,0,90964,94817,0.25,1.14 C,0,90964,94817,237,235,247 F,0,93617,94817,1,0
Sprite,Foreground,Centre,"SB\sakura3.png",320,240 F,0,91505,94817,1 M,0,91505,96017,655,-49,446,456 S,0,91505,96017,0.62,0.8266667 R,0,91505,96017,-3.08,-5.72 C,0,91505,96017,249,232,248 F,0,94817,96017,1,0
Sprite,Foreground,Centre,"SB\sakura3.png",320,240 F,0,92052,94817,1 M,0,92052,96017,651,-29,230,573 S,0,92052,96017,0.65,0.8666667 R,0,92052,96017,-0.27,5.14 C,0,92052,96017,251,197,252 F,0,94817,96017,1,0
Sprite,Foreground,Centre,"SB\sakura3.png",320,240 F,0,92586,96017,1 M,0,92586,97217,669,-23,129,496 S,0,92586,97217,0.64,0.8533334 R,0,92586,97217,-2.71,3.68 C,0,92586,97217,240,223,251 F,0,96017,97217,1,0
Sprite,Foreground,Centre,"SB\sakura3.png",320,240 F,0,92518,96017,1 M,0,92518,97217,665,-27,345,394 S,0,92518,97217,0.17,0.2266667 R,0,92518,97217,2.62,-2.85 C,0,92518,97217,253,231,254 F,0,96017,97217,1,0
Sprite,Foreground,Centre,"SB\sakura3.png",320,240 F,0,93850,97217,1 M,0,93850,98417,650,-33,67,373 S,0,93850,98417,0.37,0.4933333 R,0,93850,98417,0.15,1.57 C,0,93850,98417,236,252,252 F,0,97217,98417,1,0
Sprite,Foreground,Centre,"SB\sakura3.png",320,240 F,0,94008,97217,1 M,0,94008,98417,659,-34,64,644 S,0,94008,98417,0.08,0.1066667 R,0,94008,98417,2.83,-3.67 C,0,94008,98417,239,187,249 F,0,97217,98417,1,0
Sprite,Foreground,Centre,"SB\sakura3.png",320,240 F,0,95989,98417,1 M,0,95989,99617,670,-49,339,46 S,0,95989,99617,0.52,0.6933333 R,0,95989,99617,2.78,3.81 C,0,95989,99617,235,229,252 F,0,98417,99617,1,0
Sprite,Foreground,Centre,"SB\sakura3.png",320,240 F,0,95783,98417,1 M,0,95783,99617,664,-27,377,305 S,0,95783,99617,0.24,0.32 R,0,95783,99617,-0.28,5.74 C,0,95783,99617,244,239,251 F,0,98417,99617,1,0
Sprite,Foreground,Centre,"SB\sakura3.png",320,240 F,0,96792,99617,1 M,0,96792,100817,650,-43,260,585 S,0,96792,100817,0.67,0.8933333 R,0,96792,100817,0.14,-2.86 C,0,96792,100817,247,250,255 F,0,99617,100817,1,0
Sprite,Foreground,Centre,"SB\sakura3.png",320,240 F,0,96116,99617,1 M,0,96116,100817,663,-23,382,565 S,0,96116,100817,0.24,0.32 R,0,96116,100817,1.4,1.98 C,0,96116,100817,253,195,247 F,0,99617,100817,1,0
Sprite,Foreground,Centre,"SB\sakura3.png",320,240 F,0,98173,100817,1 M,0,98173,102017,666,-47,533,306 S,0,98173,102017,0.53,0.7066666 R,0,98173,102017,-2.58,-4.98 C,0,98173,102017,244,197,253 F,0,100817,102017,1,0
Sprite,Foreground,Centre,"SB\sakura3.png",320,240 F,0,97471,100817,1 M,0,97471,102017,652,-46,209,591 S,0,97471,102017,0.38,0.5066667 R,0,97471,102017,2.3,1.63 C,0,97471,102017,253,199,248 F,0,100817,102017,1,0
Sprite,Foreground,Centre,"SB\sakura3.png",320,240 F,0,99078,102017,1 M,0,99078,103217,663,-22,590,285 S,0,99078,103217,0.54,0.72 R,0,99078,103217,-1.79,0.71 C,0,99078,103217,236,196,253 F,0,102017,103217,1,0
Sprite,Foreground,Centre,"SB\sakura3.png",320,240 F,0,99535,102017,1 M,0,99535,103217,651,-45,625,288 S,0,99535,103217,0.54,0.72 R,0,99535,103217,1.82,-2.74 C,0,99535,103217,238,219,255 F,0,102017,103217,1,0
Sprite,Foreground,Centre,"SB\sakura3.png",320,240 F,0,100715,103217,1 M,0,100715,104417,666,-32,420,361 S,0,100715,104417,0.11,0.1466667 R,0,100715,104417,-1.1,6.17 C,0,100715,104417,239,246,255 F,0,103217,104417,1,0
Sprite,Foreground,Centre,"SB\sakura3.png",320,240 F,0,100035,103217,1 M,0,100035,104417,669,-44,76,500 S,0,100035,104417,0.71,0.9466667 R,0,100035,104417,0.37,-6.05 C,0,100035,104417,245,208,249 F,0,103217,104417,1,0
Sprite,Foreground,Centre,"SB\sakura3.png",320,240 F,0,161615,164417,1 M,0,161615,165617,660,-38,453,508 S,0,161615,165617,0.87,1.16 R,0,161615,165617,1.22,4.31 C,0,161615,165617,244,180,249 F,0,164417,165617,1,0
Sprite,Foreground,Centre,"SB\sakura3.png",320,240 F,0,161891,164417,1 M,0,161891,165617,656,-23,387,523 S,0,161891,165617,0.39,0.52 R,0,161891,165617,-2.62,5.45 C,0,161891,165617,241,229,249 F,0,164417,165617,1,0
Sprite,Foreground,Centre,"SB\sakura3.png",320,240 F,0,162366,165617,1 M,0,162366,166817,668,-22,564,327 S,0,162366,166817,0.53,0.7066666 R,0,162366,166817,0.8,-6.19 C,0,162366,166817,239,198,255 F,0,165617,166817,1,0
Sprite,Foreground,Centre,"SB\sakura3.png",320,240 F,0,162228,165617,1 M,0,162228,166817,656,-26,536,25 S,0,162228,166817,0.34,0.4533333 R,0,162228,166817,-0.05,-2.43 C,0,162228,166817,247,250,254 F,0,165617,166817,1,0
Sprite,Foreground,Centre,"SB\sakura3.png",320,240 F,0,163483,166817,1 M,0,163483,168017,650,-23,85,451 S,0,163483,168017,0.61,0.8133333 R,0,163483,168017,1.73,-3.04 C,0,163483,168017,245,185,251 F,0,166817,168017,1,0
Sprite,Foreground,Centre,"SB\sakura3.png",320,240 F,0,164327,166817,1 M,0,164327,168017,657,-37,564,629 S,0,164327,168017,0.11,0.1466667 R,0,164327,168017,0.22,-0.79 C,0,164327,168017,252,254,250 F,0,166817,168017,1,0
Sprite,Foreground,Centre,"SB\sakura3.png",320,240 F,0,165084,168017,1 M,0,165084,169217,668,-25,214,602 S,0,165084,169217,0.82,1.093333 R,0,165084,169217,-0.72,-1.48 C,0,165084,169217,245,197,248 F,0,168017,169217,1,0
Sprite,Foreground,Centre,"SB\sakura3.png",320,240 F,0,165456,168017,1 M,0,165456,169217,670,-23,473,25 S,0,165456,169217,0.94,1.253333 R,0,165456,169217,-1.62,-0.39 C,0,165456,169217,238,173,253 F,0,168017,169217,1,0
Sprite,Foreground,Centre,"SB\sakura3.png",320,240 F,0,166134,169217,1 M,0,166134,170417,670,-39,597,303 S,0,166134,170417,0.47,0.6266667 R,0,166134,170417,2.47,-4.94 C,0,166134,170417,242,232,251 F,0,169217,170417,1,0
Sprite,Foreground,Centre,"SB\sakura3.png",320,240 F,0,166321,169217,1 M,0,166321,170417,665,-46,36,231 S,0,166321,170417,0.85,1.133333 R,0,166321,170417,3.01,-1.95 C,0,166321,170417,246,219,247 F,0,169217,170417,1,0
Sprite,Foreground,Centre,"SB\sakura3.png",320,240 F,0,167955,170417,1 M,0,167955,171617,665,-24,476,645 S,0,167955,171617,0.7,0.9333333 R,0,167955,171617,-2.47,1.8 C,0,167955,171617,235,205,250 F,0,170417,171617,1,0
Sprite,Foreground,Centre,"SB\sakura3.png",320,240 F,0,167100,170417,1 M,0,167100,171617,662,-47,502,608 S,0,167100,171617,0.35,0.4666667 R,0,167100,171617,0.88,4.56 C,0,167100,171617,244,226,247 F,0,170417,171617,1,0
Sprite,Foreground,Centre,"SB\sakura3.png",320,240 F,0,168681,171617,1 M,0,168681,172817,656,-31,11,87 S,0,168681,172817,0.06,0.08 R,0,168681,172817,0.92,5.38 C,0,168681,172817,249,193,255 F,0,171617,172817,1,0
Sprite,Foreground,Centre,"SB\sakura3.png",320,240 F,0,168208,171617,1 M,0,168208,172817,653,-29,463,118 S,0,168208,172817,0.26,0.3466667 R,0,168208,172817,2.3,1.68 C,0,168208,172817,241,213,254 F,0,171617,172817,1,0
Sprite,Foreground,Centre,"SB\sakura3.png",320,240 F,0,169727,172817,1 M,0,169727,174017,658,-42,305,280 S,0,169727,174017,0.01,0.01333333 R,0,169727,174017,2.12,-5.73 C,0,169727,174017,237,245,248 F,0,172817,174017,1,0
Sprite,Foreground,Centre,"SB\sakura3.png",320,240 F,0,169346,172817,1 M,0,169346,174017,661,-44,192,547 S,0,169346,174017,0.27,0.36 R,0,169346,174017,-1.83,-3.43 C,0,169346,174017,247,248,249 F,0,172817,174017,1,0
Sprite,Foreground,Centre,"SB\sakura3.png",320,240 F,0,170557,174017,1 M,0,170557,175217,656,-33,59,341 S,0,170557,175217,0.14,0.1866667 R,0,170557,175217,-0.4,-1.82 C,0,170557,175217,240,189,251 F,0,174017,175217,1,0
Sprite,Foreground,Centre,"SB\sakura3.png",320,240 F,0,170633,174017,1 M,0,170633,175217,667,-46,199,455 S,0,170633,175217,0.43,0.5733333 R,0,170633,175217,0.5,0.53 C,0,170633,175217,250,249,254 F,0,174017,175217,1,0
Sprite,Foreground,Centre,"SB\sakura3.png",320,240 F,0,172688,175217,1 M,0,172688,176417,651,-43,560,4 S,0,172688,176417,0.22,0.2933333 R,0,172688,176417,-2.53,-5.98 C,0,172688,176417,243,188,253 F,0,175217,176417,1,0
Sprite,Foreground,Centre,"SB\sakura3.png",320,240 F,0,172722,175217,1 M,0,172722,176417,652,-31,508,39 S,0,172722,176417,0.02,0.02666667 R,0,172722,176417,2.55,-1.22 C,0,172722,176417,246,224,253 F,0,175217,176417,1,0
Sprite,Foreground,Centre,"SB\sakura3.png",320,240 F,0,174007,176417,1 M,0,174007,177617,668,-29,185,84 S,0,174007,177617,0.06,0.08 R,0,174007,177617,-2.1,5.39 C,0,174007,177617,255,215,251 F,0,176417,177617,1,0
Sprite,Foreground,Centre,"SB\sakura3.png",320,240 F,0,173208,176417,1 M,0,173208,177617,657,-44,266,613 S,0,173208,177617,0.34,0.4533333 R,0,173208,177617,-1.59,-0.5 C,0,173208,177617,234,241,247 F,0,176417,177617,1,0
Sprite,Foreground,Centre,"SB\sakura3.png",320,240 F,0,174676,177617,1 M,0,174676,178817,663,-50,422,503 S,0,174676,178817,0.8,1.066667 R,0,174676,178817,-2.56,-2.54 C,0,174676,178817,242,225,254 F,0,177617,178817,1,0
Sprite,Foreground,Centre,"SB\sakura3.png",320,240 F,0,174483,177617,1 M,0,174483,178817,659,-20,647,161 S,0,174483,178817,0.68,0.9066667 R,0,174483,178817,-0.04,2.12 C,0,174483,178817,244,184,253 F,0,177617,178817,1,0
Sprite,Foreground,Centre,"SB\sakura3.png",320,240 F,0,176199,178817,1 M,0,176199,180017,665,-38,650,384 S,0,176199,180017,0.5,0.6666667 R,0,176199,180017,-2.88,0.78 C,0,176199,180017,242,188,251 F,0,178817,180017,1,0
Sprite,Foreground,Centre,"SB\sakura3.png",320,240 F,0,175535,178817,1 M,0,175535,180017,669,-31,220,555 S,0,175535,180017,0.61,0.8133333 R,0,175535,180017,-1.93,-3.81 C,0,175535,180017,252,215,250 F,0,178817,180017,1,0
Sprite,Foreground,Centre,"SB\sakura3.png",320,240 F,0,176460,180017,1 M,0,176460,181217,655,-48,193,594 S,0,176460,181217,0.99,1.32 R,0,176460,181217,-2.01,-2.08 C,0,176460,181217,247,234,252 F,0,180017,181217,1,0
Sprite,Foreground,Centre,"SB\sakura3.png",320,240 F,0,176621,180017,1 M,0,176621,181217,669,-45,145,194 S,0,176621,181217,0.96,1.28 R,0,176621,181217,-2.32,5.8 C,0,176621,181217,249,170,249 F,0,180017,181217,1,0
Sprite,Foreground,Centre,"SB\sakura3.png",320,240 F,0,178333,181217,1 M,0,178333,182417,651,-36,22,91 S,0,178333,182417,0.54,0.72 R,0,178333,182417,0.79,4.83 C,0,178333,182417,239,225,252 F,0,181217,182417,1,0
Sprite,Foreground,Centre,"SB\sakura3.png",320,240 F,0,178355,181217,1 M,0,178355,182417,666,-45,419,40 S,0,178355,182417,0.13,0.1733333 R,0,178355,182417,-2.57,-3.58 C,0,178355,182417,255,247,251 F,0,181217,182417,1,0
Sprite,Foreground,Centre,"SB\sakura3.png",320,240 F,0,178890,182417,1 M,0,178890,183617,651,-47,121,278 S,0,178890,183617,0.86,1.146667 R,0,178890,183617,-0.38,-5.96 C,0,178890,183617,250,201,251 F,0,182417,183617,1,0
Sprite,Foreground,Centre,"SB\sakura3.png",320,240 F,0,179985,182417,1 M,0,179985,183617,670,-45,324,359 S,0,179985,183617,0.2,0.2666667 R,0,179985,183617,-1.07,-0.27 C,0,179985,183617,241,228,255 F,0,182417,183617,1,0
Sprite,Foreground,Centre,"BG.jpg",320,240 S,0,100817,100967,0.8,0.87 F,0,100817,103217,1,0 S,0,100967,103217,0.87,0.9
Sprite,Foreground,Centre,"SB\sakura.png",320,240 C,0,14717,,118,146,252 S,0,14717,15017,0.1,1.02976 F,0,14717,15617,1 M,0,14717,21017,101,218,100,234 R,0,14717,21017,0,5.5296 S,0,15017,15317,1.02976,0.86384 S,0,15317,15617,0.86384,1 F,0,15617,19817,1 F,0,19817,21017,1,0
Sprite,Foreground,Centre,"SB\sakura2.png",320,240 C,0,24017,,0,0,0 S,0,24017,24317,0.5,1 F,0,24017,38417,1 M,0,24017,40817,285,186,287,190 R,0,24017,40817,0,5.07904 S,0,24317,24617,1,0.8 S,0,24617,24917,0.8,1 F,0,38417,40817,1,0
Sprite,Foreground,Centre,"SB\sakura2.png",320,240 M,0,60017,,91,105 S,0,60017,60317,0.4,1 F,0,60017,79217,1 R,0,60017,81617,0,6.144 S,0,60317,60617,1,0.85 S,0,60617,60917,0.85,1 F,0,79217,81617,1,0
Sprite,Foreground,Centre,"SB\sakura2.png",320,240 L,79200,1 M,0,60017,,91,105 S,0,60017,60317,0.4,1 F,0,60017,79217,1 R,0,60017,81617,0,6.144 S,0,60317,60617,1,0.85 S,0,60617,60917,0.85,1 F,0,79217,81617,1,0
Sprite,Foreground,Centre,"SB\lrc\A-1.png",320,240 F,0,2417,4817,0,1 M,0,2417,12017,103,163,103,185 F,0,9617,12017,1,0
Sprite,Foreground,Centre,"SB\lrc\A-2.png",320,240 F,0,7217,9617,0,1 M,0,7217,12017,155,263,155,251 F,0,10817,12017,1,0
Sprite,Foreground,Centre,"SB\lrc\A-3.png",320,240 F,0,12017,14417,0,1 M,0,12017,21617,103,163,103,185 F,0,19217,21617,1,0
Sprite,Foreground,Centre,"SB\lrc\A-4.png",320,240 F,0,16367,18767,0,1 M,0,16367,21617,155,263,155,251 F,0,20417,21617,1,0
Sprite,Foreground,Centre,"SB\lrc\title.png",320,240 M,0,22817,24017,325,169,325,187 F,0,22817,25217,0,1 M,0,24017,,325,187 F,0,25217,38417,1 F,0,38417,40817,1,0
Sprite,Foreground,Centre,"SB\lrc\title.png",320,240 M,0,31217,,325,187 F,0,31217,33617,1,0 S,0,31217,33617,1,1.14336
Sprite,Foreground,Centre,"SB\circle.png",320,240 S,0,12017,12167,0.40608,1.22528 F,0,12017,13217,1 S,0,12167,14417,1.22528,1.541922 F,0,13217,14417,1,0
Sprite,Foreground,Centre,"SB\lrc\B-1.png",320,240 R,0,40817,,0 F,0,40817,43217,0,1 M,0,40817,49817,103,163,103,185 F,0,48017,49817,1,0
Sprite,Foreground,Centre,"SB\lrc\B-2.png",320,240 F,0,45317,46817,0,1 M,0,45317,49817,155,263,155,251 F,0,48617,49817,1,0
Sprite,Foreground,Centre,"SB\lrc\B-3.png",320,240 F,0,49967,51617,0,1 M,0,49967,59417,103,163,103,185 F,0,57617,59417,1,0
Sprite,Foreground,Centre,"SB\lrc\B-4.png",320,240 F,0,54917,56417,0,1 M,0,54917,59417,155,263,155,251 F,0,58217,59417,1,0
Sprite,Foreground,Centre,"SB\lrc\B-5.png",320,240 F,0,60017,62417,0,1 M,0,60017,70217,103,163,103,185 F,0,68417,70217,1,0
Sprite,Foreground,Centre,"SB\lrc\B-6.png",320,240 F,0,64817,66017,0,1 M,0,64817,70217,155,263,155,251 F,0,68417,70217,1,0
Sprite,Foreground,Centre,"SB\lrc\B-7.png",320,240 F,0,70817,73217,0,1 M,0,70817,79217,103,163,103,185 F,0,77417,79217,1,0
Sprite,Foreground,Centre,"SB\lrc\B-8.png",320,240 F,0,75617,76817,0,1 M,0,75617,81617,155,263,155,251 F,0,79217,81617,1,0
Sprite,Foreground,Centre,"SB\lrc\C-1.png",320,240 F,0,81617,84017,0,1 M,0,81617,90617,103,163,103,185 F,0,88817,90617,1,0
Sprite,Foreground,Centre,"SB\lrc\C-2.png",320,240 F,0,86417,87617,0,1 M,0,86417,91217,155,263,155,251 F,0,90017,91217,1,0
Sprite,Foreground,Centre,"SB\lrc\C-3.png",320,240 F,0,91217,93617,0,1 M,0,91217,100817,103,163,103,185 F,0,98417,100817,1,0
Sprite,Foreground,Centre,"SB\lrc\C-4.png",320,240 F,0,95567,96617,0,1 M,0,95567,100817,155,263,155,251 F,0,99617,100817,1,0
Sprite,Foreground,Centre,"SB\lrc\D-1.png",320,240 F,0,120017,122417,0,1 M,0,120017,129017,103,163,103,185 F,0,127217,129017,1,0
Sprite,Foreground,Centre,"SB\lrc\D-2.png",320,240 F,0,124817,126017,0,1 M,0,124817,129017,155,263,155,251 F,0,127817,129017,1,0
Sprite,Foreground,Centre,"SB\lrc\D-3.png",320,240 F,0,129167,132017,0,1 M,0,129167,139217,103,203,103,225 F,0,136817,139217,1,0
Sprite,Foreground,Centre,"SB\lrc\D-4.png",320,240 F,0,134117,135317,0,1 M,0,134117,139217,155,263,155,251 F,0,138017,139217,1,0
Sprite,Foreground,Centre,"SB\lrc\D-5.png",320,240 F,0,139217,141617,0,1 M,0,139217,150017,103,163,103,185 F,0,147617,150017,1,0
Sprite,Foreground,Centre,"SB\lrc\D-6.png",320,240 F,0,144017,145217,0,1 M,0,144017,150017,155,263,155,251 F,0,148817,150017,1,0
Sprite,Foreground,Centre,"SB\lrc\D-7.png",320,240 F,0,150017,152417,0,1 M,0,150017,158417,103,163,103,185 F,0,156017,158417,1,0
Sprite,Foreground,Centre,"SB\lrc\D-8.png",320,240 F,0,154817,156017,0,1 M,0,154817,160517,155,263,155,251 F,0,159317,160517,1,0
Sprite,Foreground,Centre,"SB\lrc\E-1.png",320,240 F,0,160817,163217,0,1 M,0,160817,170417,103,163,103,185 F,0,168017,170417,1,0
Sprite,Foreground,Centre,"SB\lrc\E-2.png",320,240 F,0,165617,166817,0,1 M,0,165617,170417,155,263,155,251 F,0,169217,170417,1,0
Sprite,Foreground,Centre,"SB\lrc\E-3.png",320,240 F,0,170417,172817,0,1 M,0,170417,180017,103,163,103,185 F,0,177617,180017,1,0
Sprite,Foreground,Centre,"SB\lrc\E-4.png",320,240 F,0,174767,175967,0,1 M,0,174767,180017,155,263,155,251 F,0,178817,180017,1,0
Sprite,Foreground,Centre,"SB\circle.png",320,240 S,0,91217,91367,0.3548799,1.49152 F,0,91217,93617,1,0 S,0,91367,93617,1.49152,1.771072
Sprite,Foreground,Centre,"SB\circle.png",320,240 M,0,170417,,320,240 S,0,170417,170567,0.4982399,1.43008 F,0,170417,172817,1,0 S,0,170567,172817,1.43008,1.6656
//Storyboard Sound Samples
//Background Colour Transformations
3,100,163,162,255

[TimingPoints]
2417,600,4,2,1,70,1,0
12017,-100,4,2,2,70,0,0
12467,-100,4,2,1,70,0,0
21617,-100,4,2,1,5,0,1
21767,-100,4,2,1,5,0,0
40817,-100,4,2,1,70,0,0
50417,-100,4,2,2,70,0,0
50717,-100,4,2,1,70,0,0
60017,-100,4,2,2,70,0,0
60317,-100,4,2,1,70,0,0
81617,-100,4,2,1,70,0,1
91217,-100,4,2,2,70,0,1
91667,-100,4,2,1,70,0,1
100817,-100,4,2,1,5,0,0
120017,-100,4,2,2,70,0,0
121217,-100,4,2,1,70,0,0
129617,-100,4,2,2,70,0,0
130067,-100,4,2,1,70,0,0
139217,-100,4,2,2,70,0,0
139667,-100,4,2,1,70,0,0
160817,-100,4,2,1,70,0,1
170417,-100,4,2,2,70,0,1
171017,-100,4,2,1,70,0,1
180017,-100,4,2,1,70,0,0

[Colours]
Combo1 : 0,128,255
Combo2 : 255,128,255
Combo3 : 128,255,255

[HitObjects]
136,72,2417,2,0,B|120:132,1,47.5,0|2
140,232,2867,2,0,B|156:172,1,47.5,0|8
136,72,3317,1,2
236,124,3617,2,0,B|280:152|300:196,1,95,0|0
292,252,4067,2,0,B|280:304,1,47.5,2|8
464,88,4517,6,0,B|424:124,1,47.5,0|2
384,84,4817,2,0,B|344:44|296:32|296:32,2,95,2|0|8
384,84,5717,1,0
412,196,6017,2,0,B|392:252,1,47.5,0|2
284,256,6467,2,0,B|304:204,1,47.5,2|8
156,68,6917,1,0
80,264,7217,5,0
80,264,7367,2,0,B|52:208|52:160,1,95,2|0
104,152,7817,2,0,B|136:112|144:60,1,95,8|0
220,256,8417,2,0,B|148:216,1,47.5,0|2
204,120,8867,2,0,B|208:180,1,47.5,0|8
204,120,9317,1,0
400,196,9617,6,0,B|456:244|480:320|480:320,2,142.5,2|0|0
288,216,10817,2,0,B|272:184|276:152,1,47.5,0|2
300,60,11267,2,0,B|320:108,1,47.5,0|8
208,128,11717,1,0
80,304,12017,6,0,B|108:240|116:152,1,142.5,4|0
88,116,12617,1,8
172,192,12917,1,0
172,80,13217,2,0,B|220:52,1,47.5,0|2
328,64,13667,2,0,B|288:92,1,47.5,0|8
264,304,14117,6,0,B|272:248,1,47.5,0|2
324,232,14417,2,0,B|364:188|368:132,1,95,2|0
416,172,14867,2,0,B|468:208,1,47.5,2|8
424,308,15317,1,0
440,40,15617,2,0,B|392:64,1,47.5,0|2
284,40,16067,2,0,B|220:52,1,47.5,2|8
220,104,16367,5,0
244,156,16517,1,0
216,204,16667,1,0
192,256,16817,2,0,B|152:288|100:300,1,95,2|0
56,272,17267,1,0
72,216,17417,2,0,B|84:164|80:116,1,95,8|0
184,72,18017,2,0,B|248:72|316:16|316:16,2,142.5,2|0|0
256,192,19217,12,0,21617
164,72,40817,6,0,B|136:120|104:152|64:180|64:180,2,142.5,2|0|0
192,184,42017,2,0,B|216:232|248:268|292:304|292:304,2,142.5,2|0|0
304,184,43217,2,0,B|392:160|416:72,1,142.5,2|0
392,40,43817,1,8
304,184,44117,1,0
444,324,44417,2,0,B|400:284|392:236,1,95
420,196,44867,2,0,B|436:148,1,47.5,2|0
256,32,45317,6,0,B|216:56,1,47.5
216,112,45617,2,0,B|204:160|176:204,1,95,2|0
124,216,46067,2,0,B|72:252,1,47.5,0|8
72,56,46517,1,0
176,276,46817,2,0,B|224:316|264:336,1,95,2|0
284,284,47267,2,0,B|300:240,1,47.5
284,284,47717,1,0
224,188,48017,6,0,B|216:128|196:56,1,95,2|0
264,84,48467,2,0,B|324:80|380:64|408:48|408:48,2,142.5,2|0|2
292,132,49517,1,0
320,184,49667,1,0
376,196,49817,1,10
404,244,49967,2,0,B|436:292,1,47.5,2|0
412,336,50267,1,0
356,328,50417,6,0,B|292:304|244:308,1,95,4|0
212,336,50867,2,8,B|184:292,1,47.5,2|8
252,200,51317,1,0
128,48,51617,2,0,B|64:96|48:144,1,95,2|0
88,168,52067,2,0,B|120:216,1,47.5,2|0
128,48,52517,1,0
208,128,52817,6,0,B|260:184|328:212,1,142.5,2|0
360,164,53417,1,8
304,64,53717,1,0
416,72,54017,2,0,B|480:88|480:88,2,47.5,2|0|0
456,300,54617,2,0,B|408:272|356:252,1,95,0|0
316,276,55067,1,0
332,220,55217,6,0,B|304:152|308:76|308:76,1,142.5,2|0
260,112,55817,2,0,B|220:156|192:180,1,95,8|0
220,288,56417,2,0,B|140:292|100:284,1,95,2|0
96,240,56867,2,0,B|64:196,1,47.5
180,216,57317,1,0
124,116,57617,6,0,B|152:72|188:40,1,95,2|0
228,84,58067,2,0,B|272:116,1,47.5,0|8
320,92,58367,2,0,B|412:128|444:200,1,142.5,0|2
400,288,59117,1,0
316,212,59417,2,0,B|244:188,1,47.5,8|0
236,244,59717,2,0,B|192:272,1,47.5
156,228,60017,6,0,B|144:180|144:128,1,95,4|0
460,76,60617,2,0,B|404:92|360:88,1,95,4|0
324,124,61067,1,0
364,164,61217,2,0,B|392:216|400:256,1,95,2|0
164,244,61817,2,0,B|108:260|76:288,1,95,4|0
80,172,62417,6,0,B|68:116,1,47.5,0|2
140,36,62867,2,0,B|156:92,1,47.5,2|4
80,172,63317,1,0
372,36,63617,2,0,B|356:92,1,47.5,0|2
416,180,64067,2,0,B|436:116,1,47.5,2|4
372,132,64367,2,0,B|324:140|268:132,1,95,2|0
240,176,64817,5,0
292,196,64967,1,0
252,236,65117,2,0,B|224:280|192:340,1,95,2|4
120,240,65717,2,0,B|96:188,1,47.5
140,156,66017,2,0,B|148:92|140:48,1,95,2|0
140,156,66617,1,4
232,92,66917,1,0
188,320,67217,6,0,B|216:248|236:220,1,95,2|0
280,208,67667,1,0
272,152,67817,1,4
356,76,68117,1,2
456,128,68417,1,0
416,168,68567,1,0
456,208,68717,2,0,B|440:264|412:304,1,95,2|4
308,260,69317,1,0
228,72,69617,6,0,B|168:112|104:120,1,95,2|0
104,68,70067,2,0,B|48:64,1,47.5,0|4
48,180,70517,1,0
256,320,70817,1,0
256,320,70967,2,0,B|312:280|328:240,1,95,2|0
320,196,71417,2,0,B|392:192|424:208,1,95,6|0
256,32,72017,5,0
240,88,72167,2,0,B|224:144|200:176,1,95,2|0
236,220,72617,2,0,B|248:280|272:320,1,95,4|0
352,232,73217,2,0,B|400:188|412:148|428:104|428:104,2,142.5,2|0|0
68,268,74417,6,0,B|92:220|128:176,1,95,2|0
176,180,74867,2,0,B|188:124,1,47.5,0|4
76,160,75317,1,0
256,304,75617,2,0,B|304:292|356:260,1,95
344,212,76067,2,0,B|396:192,1,47.5,2|4
256,304,76517,1,0
300,200,76817,6,0,B|312:140|340:96|344:96,1,95,2|0
388,116,77267,2,0,B|440:104,1,47.5,0|4
392,212,77717,1,0
256,80,78017,2,0,B|196:92|152:92|112:96|112:96,2,142.5,0|2|2
256,192,79217,12,0,81317
416,100,81617,5,0
416,100,81767,2,0,B|388:156|360:200,1,95,2|0
320,212,82217,2,0,B|304:256|304:304,1,95,4|0
160,176,82817,2,0,B|104:148|40:92|40:92,2,142.5,2|0|0
216,180,83867,1,0
272,196,84017,6,0,B|248:256|232:288|232:288,2,95,2|0|4
272,196,84917,1,0
360,124,85217,2,0,B|428:72,1,47.5,0|2
364,240,85667,2,0,B|312:272,1,47.5,2|4
272,196,86117,1,0
92,56,86417,5,0
68,108,86567,2,0,B|44:192|52:216,1,95,2|0
108,192,87017,2,0,B|204:172|204:172,2,95,6|0|0
80,240,87767,1,2
132,140,88067,1,0
172,100,88217,2,0,B|264:52,1,95,6|0
248,296,88817,6,0,B|264:216|264:152|264:152,2,142.5,2|0|0
336,224,90017,2,0,B|392:176,1,47.5,0|6
304,100,90467,2,0,B|304:152,1,47.5,2|4
304,100,90917,1,0
440,292,91217,6,0,B|344:304|284:292,1,142.5,4|0
264,248,91817,1,4
368,200,92117,1,0
272,140,92417,2,0,B|200:112|168:112,1,95,0|2
144,156,92867,2,0,B|104:188,1,47.5,0|4
172,280,93317,6,0,B|228:240,1,47.5
176,208,93617,2,0,B|72:208|32:168,1,142.5,2|0
20,124,94217,1,4
132,112,94517,1,0
244,120,94817,2,0,B|324:116|404:120|404:120,2,142.5,2|0|0
312,212,96017,6,0,B|312:272|304:312,1,95,2|0
260,344,96467,1,0
212,312,96617,1,4
264,212,96917,1,0
152,184,97217,2,0,B|128:96|72:60|72:60,2,142.5,2|0|0
256,192,98417,12,0,100817
152,60,120017,5,4
40,188,120467,1,0
152,316,120917,1,0
152,136,121217,1,0
104,192,121667,1,0
152,240,122117,1,0
204,192,122417,6,0,B|292:172|328:116,1,142.5,2|0
344,68,123017,1,8
416,260,123317,1,0
256,320,123617,2,0,B|204:344|204:344,2,47.5,0|0|2
304,216,124217,2,0,B|272:132|272:56,1,142.5,2|0
224,104,124817,6,0,B|184:144|152:180,1,95,2|0
112,68,125417,1,8
48,224,125717,1,0
196,296,126017,2,0,B|260:316|312:324,1,95
336,288,126467,1,0
364,240,126617,1,2
260,196,126917,1,0
360,140,127217,6,0,B|448:88|500:148|500:148,2,142.5
424,208,128417,2,0,B|444:316,1,95,2|0
396,268,128867,2,0,B|328:240,1,47.5
304,220,129167,2,0,B|248:192,1,47.5
212,172,129467,1,0
164,200,129617,6,0,B|92:176|64:96,1,142.5,4|0
96,56,130217,1,8
160,152,130517,1,0
92,244,130817,2,0,B|68:344|24:372,1,142.5
28,368,131417,1,0
176,328,131717,1,2
252,208,132017,6,0,B|296:160|312:104,1,95
356,104,132467,1,0
396,144,132617,2,0,B|460:216|460:216,2,95,8|0|0
376,196,133367,1,0
372,252,133517,1,0
152,112,133817,1,2
184,256,134117,6,0,B|144:288,1,47.5
148,228,134417,2,0,B|264:204|212:312|212:312,2,142.5,2|0|0
120,116,135617,2,0,B|240:80,1,95,2|0
212,148,136067,1,0
264,124,136217,1,0
156,164,136517,1,0
328,256,136817,6,0,B|404:288|448:292|448:292,2,95,2|0|8
400,168,137717,2,0,B|388:104,1,47.5
332,120,138017,2,0,B|276:120|168:136,1,142.5,2|0
156,180,138617,1,0
212,188,138767,1,0
176,232,138917,1,0
232,240,139067,1,0
200,288,139217,6,0,B|248:320|340:328,1,142.5,4|0
360,276,139817,2,0,B|376:172|376:172,2,95,4|0|0
416,268,140567,1,2
424,156,140867,1,2
368,160,141017,1,6
480,152,141317,1,0
168,136,141617,6,0,B|248:120,1,47.5,0|2
192,240,142067,2,0,B|104:264,1,47.5,0|6
236,180,142517,1,0
240,292,142817,2,0,B|268:332,1,47.5,0|2
316,228,143267,2,0,B|272:176,1,47.5,0|6
284,136,143567,1,0
316,88,143717,1,2
88,196,144017,6,0,B|48:228|12:256|12:256,2,95,2|0|4
132,92,144917,2,0,B|192:44,1,47.5
204,108,145217,2,0,B|256:148|296:156|296:156,2,95,2|0|4
140,204,146117,1,0
312,284,146417,5,2
360,312,146567,1,0
396,268,146717,2,0,B|456:248|496:244,1,95,2|4
412,160,147317,1,0
324,88,147617,2,0,B|232:64|180:48|180:48,2,142.5,2|0|0
200,256,148817,2,0,B|200:188|256:152,1,95,2|0
280,204,149267,2,0,B|340:224,1,47.5,0|4
292,328,149717,1,2
72,316,150017,5,0
124,292,150167,1,2
124,180,150467,1,0
80,148,150617,1,6
156,236,150917,1,0
80,148,151217,5,0
124,180,151367,1,2
124,292,151667,1,0
72,316,151817,1,6
156,236,152117,1,0
240,160,152417,6,0,B|336:124|396:112|396:112,2,142.5,2|0|0
304,324,153617,2,0,B|360:260|356:216,1,95,2|0
328,192,154067,1,0
384,196,154217,1,4
360,84,154517,1,0
176,96,154817,6,0,B|64:84,1,95,2|0
100,200,155417,2,0,B|64:300,1,95,4|0
200,192,156017,2,0,B|280:252|336:276|336:276,2,142.5,2|0|0
300,136,157217,2,0,B|340:84|368:64,1,95,2|0
408,104,157667,1,2
364,136,157817,1,4
256,176,158117,1,0
256,192,158417,12,0,160517
256,120,160817,6,0,B|256:176,1,47.5,0|2
172,244,161267,2,0,B|172:168,1,47.5,0|6
80,128,161717,1,0
176,64,162017,2,0,B|296:40|376:72,1,190,2|4
424,164,162917,1,0
388,208,163067,1,0
340,236,163217,6,0,B|292:260|232:272,1,95,2|0
260,152,163817,1,4
164,216,164117,1,2
152,328,164417,2,0,B|204:280,1,47.5,0|2
84,244,164867,2,0,B|48:192,1,47.5,0|6
164,216,165317,1,0
256,284,165617,5,0
256,284,165767,2,0,B|324:272|356:240,1,95,2|0
340,192,166217,2,0,B|408:140|456:160,1,95,6|0
336,80,166817,2,0,B|280:64|184:64|184:64,2,142.5,2|0|0
264,168,168017,2,0,B|252:232,1,47.5,0|2
332,300,168467,2,0,B|348:232,1,47.5,0|6
392,152,168917,1,0
208,76,169217,6,0,B|280:52|368:80,1,142.5,2|0
392,112,169817,2,0,B|420:228|396:316,1,190,6|4
100,244,171017,2,0,B|72:128|96:40,1,190,4|0
256,192,172217,1,4
256,352,172517,5,0
256,296,172667,1,0
304,264,172817,2,0,B|340:212|352:120|352:120,2,142.5,2|0|0
208,264,174017,2,0,B|172:212|160:120|160:120,2,142.5,2|0|0
256,56,175217,6,0,B|160:32|48:60,1,190,2|4
256,304,176417,2,0,B|352:328|404:300|404:300,2,142.5,2|0|0
256,192,177617,12,2,180017
