osu file format v9

[General]
AudioFilename: Meguri Meguru.mp3
AudioLeadIn: 0
PreviewTime: 89357
Countdown: 0
SampleSet: Soft
StackLeniency: 0.7
Mode: 0
LetterboxInBreaks: 0
StoryFireInFront: 0

[Editor]
Bookmarks: 28070,60023,91324,137624,168273,179684,224353
DistanceSpacing: 1
BeatDivisor: 4
GridSize: 4

[Metadata]
Title:Meguri Meguru
Artist:Sasha Asuka
Creator:loveFantasy
Version:Normal
Source:Touhou
Tags:maikaze c75 musou kakyou tokine a0178042 Komeiji Yuki

[Difficulty]
HPDrainRate:3
CircleSize:4
OverallDifficulty:3
ApproachRate:4
SliderMultiplier:1.4
SliderTickRate:1

[Events]
//Background and Video events
0,0,"bg.jpg"
//Break Periods
2,47163,58686
2,114989,131730
2,159337,166947
//Storyboard Layer 0 (Background)
//Storyboard Layer 1 (Fail)
//Storyboard Layer 2 (Pass)
//Storyboard Layer 3 (Foreground)
Sprite,Foreground,Centre,"sb\white.png",320,240 S,0,116093,,1 F,0,116093,117397,0,0.2 F,0,117397,122615,0.2 F,0,122615,123593,0.2,0
Sprite,Foreground,Centre,"sb\sb_lovefantasy.png",320,240 S,0,119028,,0.6 M,0,119028,119191,0,290,137,290 F,0,119028,119680,0,1 M,0,119191,119289,137,290,157,290 M,0,119289,119387,157,290,167,290 M,0,119387,119485,167,290,172,290 M,0,119485,119583,172,290,175,290 M,0,119583,119680,175,290,177,290 F,0,119680,120984,1 M,0,121963,122615,177,290,187,290 F,0,121963,122615,1,0
Sprite,Foreground,Centre,"sb\au_lovefantasy.png",320,240 S,0,119354,,0.6 M,0,119354,119517,0,320,127,320 F,0,119354,120006,0,1 M,0,119517,119615,127,320,147,320 M,0,119615,119713,147,320,157,320 M,0,119713,119811,157,320,162,320 M,0,119811,119909,162,320,165,320 M,0,119909,120006,165,320,167,320 F,0,120006,121310,1 M,0,121963,122615,167,320,157,320 F,0,121963,122615,1,0
Sprite,Foreground,Centre,"sb\speedup.png",320,240 M,0,221748,,320,180 S,0,221748,,0.672 F,0,221748,222074,0,1 F,0,222074,222400,1,0.4 F,0,222400,222726,0.4,1 F,0,222726,223053,1,0.4 F,0,223053,223379,0.4,1 F,0,223379,223705,1,0.4 F,0,223705,224031,0.4,1 F,0,224031,224357,1,0.4 F,0,224357,224683,0.4,1 F,0,224683,225009,1,0
//Storyboard Sound Samples
//Background Colour Transformations
3,100,0,0,0

[TimingPoints]
5224,652.173913043478,4,2,1,65,1,0
45006,-100,4,2,1,40,0,0
60006,-100,4,2,1,65,0,0
60658,-100,4,2,1,40,0,0
61310,-100,4,2,1,65,0,0
61963,-100,4,2,1,40,0,0
62615,-100,4,2,1,65,0,0
63267,-100,4,2,1,40,0,0
64245,-100,4,2,1,35,0,0
64571,-100,4,2,1,50,0,0
65223,-100,4,2,1,65,0,0
65876,-100,4,2,1,40,0,0
66528,-100,4,2,1,35,0,0
67180,-100,4,2,1,40,0,0
69789,-100,4,2,1,45,0,0
70115,-100,4,2,1,55,0,0
70441,-100,4,2,1,60,0,0
73702,-100,4,2,1,40,0,0
74680,-100,4,2,1,35,0,0
75006,-100,4,2,1,40,0,0
75658,-100,4,2,1,65,0,0
76310,-100,4,2,1,40,0,0
76963,-100,4,2,1,65,0,0
77615,-100,4,2,1,40,0,0
85767,-100,4,2,1,35,0,0
86093,-100,4,2,1,50,0,0
86745,-100,4,2,1,65,0,0
87397,-100,4,2,1,50,0,0
88050,-100,4,2,1,65,0,0
89354,-100,4,2,1,35,0,0
90006,-100,4,2,1,50,0,0
90658,-100,4,2,1,65,0,0
91310,-100,4,2,1,65,0,1
97506,-100,4,2,1,25,0,1
97832,-100,4,2,1,65,0,1
101745,-100,4,2,1,55,0,1
102397,-100,4,2,1,65,0,1
104354,-100,4,2,1,55,0,1
105006,-100,4,2,1,65,0,1
112180,-100,4,2,1,65,0,0
114789,-100,4,2,1,65,0,1
114870,-100,4,2,1,65,0,0
138267,-100,4,2,1,50,0,0
138593,-100,4,2,1,65,0,0
147723,-100,4,2,1,35,0,0
147887,-100,4,2,1,65,0,0
148702,-100,4,2,1,50,0,0
149354,-100,4,2,1,65,0,0
156528,-100,4,2,1,50,0,0
157180,-100,4,2,1,65,0,0
178050,-100,4,2,1,45,0,0
178702,-100,4,2,1,35,0,0
178865,-100,4,2,1,31,0,0
179028,-100,4,2,1,27,0,0
179191,-100,4,2,1,23,0,0
179354,-100,4,2,1,20,0,0
180006,-100,4,2,1,65,0,1
189137,-100,4,2,1,40,0,1
189789,-100,4,2,1,50,0,1
190115,-100,4,2,1,57,0,1
190441,-100,4,2,1,65,0,1
197615,-100,4,2,1,65,0,0
202832,-133.333333333333,4,2,1,65,0,0
210006,-133.333333333333,4,2,1,30,0,0
210495,-133.333333333333,4,2,1,41,0,0
210984,-133.333333333333,4,2,1,53,0,0
211310,-133.333333333333,4,2,1,65,0,0
224354,-76.9230769230769,4,2,1,65,0,1
225658,-76.9230769230769,4,2,1,50,0,1
225984,-76.9230769230769,4,2,1,65,0,1
228267,-76.9230769230769,4,2,1,50,0,1
228593,-76.9230769230769,4,2,1,65,0,1
235767,-76.9230769230769,4,2,1,40,0,1
236093,-76.9230769230769,4,2,1,55,0,1
236745,-76.9230769230769,4,2,1,65,0,1
245223,-76.9230769230769,4,2,1,65,0,0
254354,-76.9230769230769,4,2,1,50,0,0
254680,-76.9230769230769,4,2,1,65,0,0
263484,-76.9230769230769,4,2,1,45,0,0
266093,-76.9230769230769,4,2,1,45,0,1
266175,-76.9230769230769,4,2,1,45,0,0

[Colours]
Combo1 : 255,201,147
Combo2 : 128,255,255
Combo3 : 198,255,140
Combo4 : 255,128,128
SliderBorder : 255,255,255

[HitObjects]
256,192,23484,12,4,26093
112,75,28702,6,0,B|92:106|109:142,1,70,4|0
164,112,29354,1,2
289,114,30006,1,0
222,221,30658,1,2
97,238,31310,2,0,B|96:281|147:329|192:321,1,140,0|2
317,316,32615,1,0
353,265,32941,1,0
350,202,33267,1,2
421,98,33919,5,0
307,152,34571,1,2
197,90,35223,2,0,B|159:92|128:64,2,70,0|0|2
132,198,36528,2,0,B|104:226|100:264,2,70,0|0|2
248,192,37832,2,0,B|209:192,2,35,0|2|0
312,192,38484,1,2
254,304,39137,6,0,B|222:327|186:312,1,70
215,255,39789,1,2
104,193,40441,2,0,B|92:232|112:260,1,70,0|0
160,220,41093,1,2
108,105,41745,5,0
220,53,42397,1,2
339,94,43050,2,0,B|368:71|406:84,2,70,0|0|2
226,120,44354,1,0
256,192,45006,12,4,46963
336,192,60006,5,0
386,76,60658,2,0,B|440:131|433:207,2,140,8|2|8
275,136,62615,1,0
180,52,63267,2,0,B|141:57|89:100|84:146,1,140,8|2
74,205,64245,1,8
77,267,64571,1,8
191,319,65224,5,0
159,196,65876,1,8
123,316,66528,1,8
240,269,67180,1,8
355,320,67832,1,0
480,308,68484,2,0,B|466:224|388:211,1,140,8|0
334,186,69463,1,0
387,152,69789,1,8
430,106,70115,1,8
444,44,70441,1,12
330,118,71093,5,8
236,201,71745,1,0
210,258,72071,1,0
170,208,72397,1,8
118,92,73050,6,0,B|113:56|76:39,2,70,0|0|8
243,104,74354,2,4,B|261:74|300:71,2,70,8|8|8
332,192,75658,1,0
351,251,75984,2,0,B|388:233|398:201,1,70,0|8
382,76,76963,1,0
330,191,77615,1,8
209,228,78267,1,4
256,192,78919,12,8,80223
256,80,80876,5,4
368,136,81528,1,8
312,248,82180,2,0,B|337:282,2,35,0|8|0
248,248,82832,1,8
128,208,83484,5,6
240,144,84137,1,8
280,264,84789,2,0,B|320:288,2,35,0|8|0
215,279,85441,1,8
155,298,85767,1,8
93,310,86093,2,4,B|45:258|66:179,3,140,8|8|8|8
152,87,88702,1,4
161,212,89354,5,12
286,289,90006,1,12
399,196,90658,1,12
299,118,91310,6,0,B|292:78|250:65,3,70,2|0|8|0
237,128,92615,2,0,B|253:180|311:184,2,70,2|0|8
118,83,93919,6,0,B|76:93|62:134,1,70,0|0
122,152,94571,2,0,B|111:202|149:234,1,70,8|0
102,272,95223,2,0,B|136:292|172:271,1,70,2|0
197,216,95876,1,8
320,191,96528,5,0
396,292,97180,1,8
440,247,97506,1,8
440,184,97832,1,8
384,70,98484,1,8
281,143,99137,2,4,B|248:173|249:216,2,70,8|0|8
180,65,100441,1,0
71,136,101093,1,8
115,180,101419,1,0
84,235,101745,6,0,B|88:269|66:301,2,70,8|0|8
199,284,103050,2,0,B|186:247|209:210,2,70,8|0|8
324,291,104354,2,0,B|355:312|391:299,2,70,8|0|8
387,182,105658,2,0,B|414:157|411:116,2,70,8|0|8
286,105,106963,5,0
163,77,107615,1,8
192,199,108267,1,2
227,78,108919,1,8
260,199,109571,2,0,B|281:240|340:255|383:228,2,140,2|8|2
232,141,111202,1,0
169,141,111528,1,8
256,192,112180,12,4,114789
256,192,133050,12,4,135658
429,303,138267,5,4
427,240,138593,2,0,B|448:203|422:167,1,70,0|2
303,200,139571,1,0
193,262,140223,1,2
226,315,140550,2,0,B|190:329|157:314,1,70,0|0
105,199,141528,1,2
43,186,141854,2,0,B|54:151|90:132,1,70,0|0
205,92,142832,1,2
322,138,143484,6,0,B|318:177|292:205,2,70,0|0|2
427,80,144789,2,0,B|450:108|453:144,1,70,0|0
390,140,145441,2,0,B|391:176|417:202,1,70,2|0
398,262,146093,1,0
290,327,146745,1,2
298,264,147071,2,0,B|271:298|220:291,1,70,0|0
244,229,147723,2,0,B|201:217,2,35,2|0|2
308,120,148702,5,4
201,52,149354,2,0,B|162:68|132:110,1,70,2|0
102,139,150006,1,2
81,263,150658,2,0,B|115:248|150:263,1,70
207,286,151310,6,0,B|238:311|274:296,1,70,0|0
310,347,151963,2,0,B|336:325|336:282,1,70,2|0
295,236,152615,1,2
341,118,153267,1,0
218,147,153919,6,0,B|181:134|167:100,2,70,0|0|2
337,185,155223,1,0
355,245,155550,1,0
325,300,155876,1,2
220,229,156528,1,4
256,192,157180,12,4,159137
240,296,168267,6,0,B|207:318|170:301,1,70
113,281,168919,1,0
113,281,169245,1,0
53,260,169571,2,0,B|74:212|122:218|122:218|110:192|122:166,1,140,0|8
150,112,170550,1,0
200,74,170876,1,2
317,118,171528,5,8
365,158,171854,1,0
393,214,172180,2,0,B|419:186|423:150,2,70,2|0|8
376,274,173158,1,0
324,310,173484,1,2
210,255,174137,1,8
187,136,174789,5,0
248,120,175115,1,0
293,76,175441,1,10
334,123,175767,1,0
390,150,176093,2,0,B|383:175|349:181|349:181|356:231|326:259,1,140,0|8
285,308,177071,1,0
240,262,177397,1,12
256,192,178050,12,4,179354
257,164,180006,6,0,B|270:127|241:94,1,70,4|0
192,64,180658,1,8
129,64,180984,1,0
84,108,181310,2,0,B|56:137|68:173,1,70
88,231,181963,1,8
197,293,182615,6,0,B|204:263|241:237,1,70
266,295,183267,1,8
326,278,183593,2,0,B|342:330,2,35,0|2|0
376,240,184245,1,0
409,186,184571,1,8
452,67,185223,5,0
421,122,185550,1,0
386,69,185876,1,8
356,124,186202,1,0
293,122,186528,2,0,B|264:142,2,35,0|2|0
241,85,187180,1,8
179,71,187506,1,0
117,84,187832,6,0,B|134:118|172:131|172:131|162:165|180:196,2,140,8|0|8
82,137,189463,1,8
116,189,189789,1,8
138,247,190115,1,8
200,257,190441,1,4
256,192,191093,12,8,192397
227,85,193050,6,0,B|180:97|171:126,1,70,8|0
153,183,193702,1,8
172,242,194028,1,0
213,288,194354,2,0,B|240:318|279:307,1,70
335,287,195006,1,8
379,242,195332,1,0
399,182,195658,1,4
256,192,196310,12,8,197615
352,96,198267,5,8
352,96,198593,1,0
371,155,198919,2,0,B|379:189|420:205,1,70,8|0
359,228,199571,2,0,B|348:265|312:277,1,70
293,216,200223,2,0,B|280:185,2,35,8|2|0
249,262,200876,1,4
146,335,201528,5,0
187,215,202180,1,0
129,226,202506,1,0
88,185,202832,1,2
129,226,203158,5,0
149,166,203484,2,0,B|163:137|141:112,2,52.4999984353781
187,66,204789,1,2
230,104,205115,1,0
280,132,205441,5,2
337,137,205767,1,0
391,119,206093,1,2
383,234,206745,1,2
431,264,207071,1,0
379,290,207397,5,0
322,303,207723,1,0
264,299,208050,2,0,B|236:304|211:290,1,52.4999984353781,2|0
159,268,208702,1,2
268,231,209354,1,8
212,129,210006,6,0,B|174:150|159:185,2,78.7499976530672,4|4|4
269,124,211310,2,0,B|278:98|269:67,3,52.4999984353781,0|0|8|0
380,204,212941,5,0
380,204,213267,1,8
380,204,213593,1,4
342,247,213919,6,0,B|328:267|299:277,3,52.4999984353781,4|0|8|0
245,296,215224,2,0,B|189:306|146:270,1,104.999996870756,0|8
115,222,216202,1,0
102,165,216528,1,4
220,140,217180,6,0,B|180:120,2,26.2499992176891
276,168,217832,1,8
276,228,218158,2,0,B|276:270,2,26.2499992176891
220,204,218810,1,0
160,192,219137,5,4
256,108,219789,1,8
352,192,220441,1,4
256,276,221093,1,8
192,192,221745,5,4
256,288,222397,1,4
320,192,223050,1,4
256,288,223702,1,4
256,192,224354,5,4
93,257,225006,1,8
62,174,225332,1,0
62,174,225658,2,0,B|66:130|108:100,1,90.9999983727932,8|0
186,61,226310,1,8
255,228,226963,5,4
323,61,227615,1,8
323,61,227941,1,0
403,101,228267,2,0,B|448:125|448:178,1,90.9999983727932,8|0
419,255,228919,1,8
256,320,229571,5,0
172,286,229897,1,0
239,226,230223,2,0,B|208:197|152:200,1,90.9999983727932,8|0
76,244,230876,2,0,B|51:204|76:155,1,90.9999983727932,2|0
132,88,231528,1,8
218,63,231854,1,0
307,74,232180,5,4
436,151,232832,2,0,B|464:196|438:239,1,90.9999983727932,8|0
360,192,233484,2,0,B|319:177,2,45.4999991863966,2|0|0
360,282,234137,1,8
275,311,234463,1,0
199,262,234789,6,0,B|180:305|128:327|81:304,2,136.49999755919,4|0|8
116,225,236093,1,8
117,66,236745,1,2
198,103,237071,1,0
277,60,237397,6,0,B|343:100|407:58,2,136.49999755919,4|0|0
277,60,238702,1,8
304,144,239028,1,0
384,192,239354,1,2
304,240,239680,1,0
256,320,240006,1,8
256,192,240332,12,4,242615
96,112,243267,5,8
178,76,243593,1,0
166,164,243919,1,0
248,128,244245,1,0
236,216,244571,1,2
318,180,244897,1,0
306,268,245223,5,4
454,313,245876,1,8
462,223,246202,1,0
454,133,246528,2,0,B|448:88|404:61,1,90.9999983727932
317,43,247180,1,8
256,208,247832,5,0
195,43,248484,1,8
122,96,248810,1,0
122,96,249137,2,0,B|80:130|76:178,1,90.9999983727932
93,261,249789,1,8
264,321,250441,6,0,B|317:355|399:324|420:261,1,181.999996745586,0|8
455,185,251419,1,0
371,151,251745,1,0
443,97,252071,1,0
357,68,252397,1,8
173,56,253050,6,0,B|120:59|91:97,1,90.9999983727932
166,145,253702,2,0,B|217:152|241:192,1,90.9999983727932,8|0
165,234,254354,1,8
176,324,254680,1,0
252,276,255006,1,8
318,127,255658,6,0,B|256:78|192:128,2,136.49999755919,4|0|0
384,192,256963,2,0,B|436:192,2,45,0|8|0
384,192,257615,1,8
193,256,258267,6,0,B|256:306|318:257,2,136.49999755919,4|0|0
128,192,259572,2,0,B|76:192,2,45,0|8|0
128,192,260224,1,8
256,64,260876,5,2
384,192,261528,1,8
256,320,262180,1,2
128,192,262832,1,8
256,192,263484,5,12
256,192,264137,12,4,266093
