osu file format v7

[General]
AudioFilename: fei bird.mp3
AudioLeadIn: 0
PreviewTime: 35133
Countdown: 0
SampleSet: Soft
StackLeniency: 0.7
Mode: 0
LetterboxInBreaks: 1

[Editor]
Bookmarks: 16672,96057,110826,171749,190210,204980
DistanceSpacing: 0.800000011920929
BeatDivisor: 4
GridSize: 8

[Metadata]
Title:Kamigami no Inori
Artist:Sasha Asuka
Creator:tsukamaete
Version:Normal
Source:Touhou
Tags:yaya Dr_Dy Touhou Kasou Kouduki Kagiyama Hina Maikaze Tokine

[Difficulty]
HPDrainRate:5
CircleSize:4
OverallDifficulty:5
SliderMultiplier:1.2
SliderTickRate:1

[Events]
//Background and Video events
0,0,"Konachan_com%20-%2035996%20kagiyama_hina%20sakurazawa_izumi%20touhou.jpg"
//Break Periods
2,94410,111472
//Storyboard Layer 0 (Background)
//Storyboard Layer 1 (Fail)
//Storyboard Layer 2 (Pass)
//Storyboard Layer 3 (Foreground)
Sprite,Foreground,Centre,"irc\info1.png",320,240 F,0,17364,17826,0,1 M,0,17364,21287,308,92,260,144 F,0,17826,20826,1 F,0,20826,21287,1,0
Sprite,Foreground,Centre,"irc\info2.png",320,240 F,0,21057,21518,0,1 M,0,21057,24980,332,107,292,163 F,0,21518,24518,1,0.9804772 F,0,24518,24980,0.9804772,0
Sprite,Foreground,Centre,"irc\info3.png",320,240 S,0,24749,,0.9520001 F,0,24749,25210,0,1 M,0,24749,28672,332,78,307,123 F,0,25210,28210,1 F,0,28210,28672,1,0
Sprite,Foreground,Centre,"irc\info4.png",320,240 S,0,28441,,0.9200001 F,0,28441,28903,0,1 M,0,28441,30980,327,99,281,131 F,0,28903,30518,1 F,0,30518,30980,1,0
Sprite,Foreground,Centre,"irc\info5.png",320,240 F,0,30749,31210,0,1 M,0,30749,33287,218,186,149,217 F,0,31210,33287,1
Sprite,Foreground,Centre,"irc\text.png",320,240 M,0,34672,,307,1016 S,0,34672,,0.84 M,0,34672,35133,307,1016,307,976 M,0,35133,42518,307,976,308,977 M,0,42518,42980,308,977,307,940 M,0,42980,49441,307,940 M,0,49441,49903,307,940,308,898 M,0,49903,57287,308,898 M,0,57287,57749,308,898,307,863 M,0,57749,64210,307,863 M,0,64210,64672,307,863,307,821 M,0,64672,67903,307,821 M,0,67903,68364,307,821,307,783 M,0,68364,71595,307,783 M,0,71595,72057,307,783,310,743 M,0,72057,78749,310,743 M,0,78749,79210,310,743,310,706 M,0,79210,82441,310,706 M,0,82441,83133,310,706,313,623 M,0,83133,85903,313,623 M,0,85903,86364,313,623,315,589 M,0,86364,93749,315,589,313,584 M,0,93749,94210,313,584,316,506 F,0,93749,94210,1,0 F,0,94210,112210,0 M,0,94210,112672,316,506,317,507 F,0,112210,112672,0,1 M,0,112672,120057,317,507,317,509 M,0,120057,120518,317,509,318,471 M,0,120518,126980,318,471 M,0,126980,127441,318,471,319,431 M,0,127441,130672,319,431 M,0,130672,131133,319,431,319,389 M,0,131133,134364,319,389 M,0,134364,134826,319,389,319,354 M,0,134826,141749,319,354 M,0,141749,142210,319,354,319,309 M,0,142210,145441,319,309 M,0,145441,145903,319,309,319,273 M,0,145903,148672,319,273 M,0,148672,149133,319,273,318,236 M,0,149133,156518,318,236 M,0,156518,156980,318,236,316,196 M,0,156980,163441,316,196,316,197 M,0,163441,163903,316,197,316,154 M,0,163903,170826,316,154
Sprite,Foreground,Centre,"irc\BG1.png",320,240 S,0,34672,,0.625 F,0,34672,92364,1 F,0,92364,92826,1,0 F,0,92826,112210,0 F,0,112210,112672,0,1 F,0,112672,170826,1,0.7835498 F,0,170826,171287,0.7835498,0
//Storyboard Sound Samples
//Background Colour Transformations
3,100,163,162,255

[TimingPoints]
57,461.538461538462,4,2,0,60,1,0
32826,-100,4,2,0,20,0,0
34672,-100,4,2,0,70,0,0
35941,-100,4,2,0,0,0,0
36172,-100,4,2,1,70,0,0
39633,-100,4,2,1,0,0,0
39864,-100,4,2,1,70,0,0
41133,-100,4,2,1,55,0,0
49787,-100,4,2,1,70,0,0
50710,-100,4,2,1,0,0,0
50941,-100,4,2,1,70,0,0
54403,-100,4,2,1,0,0,0
54633,-100,4,2,1,70,0,0
55903,-100,4,2,1,55,0,0
63980,-100,4,2,1,55,0,0
64210,-100,4,2,1,55,0,0
64557,-100,4,2,1,62,0,0
75633,-100,4,2,1,65,0,0
78980,-100,4,2,1,70,0,0
142210,-100,4,2,1,70,0,1
155941,-100,4,1,1,60,0,0
156980,-100,4,2,1,70,0,1
167133,-100,4,2,1,70,0,0

[Colours]
Combo1 : 255,255,255
Combo2 : 128,255,255
Combo3 : 255,128,255

[HitObjects]
176,80,17595,1,2
176,80,18057,1,0
176,80,18518,2,0,B|240:208|384:216,1,240,4|2
408,144,19903,1,0
344,88,20364,2,0,B|216:136|184:272,1,240,0|2
104,264,21749,5,0
120,184,22210,2,0,B|248:168,1,120
248,88,23133,2,0,B|360:184,1,120
400,224,24057,2,0,B|464:224,4,60,2|0|2|0|2
320,256,25441,6,0,B|296:320,2,60,0|0|4
240,240,26364,2,0,B|168:264,2,60,0|0|2
176,184,27287,2,0,B|96:184,1,60
116,184,27749,2,0,B|64:128,1,60
75,140,28210,2,0,B|72:56,2,60,0|0|2
160,120,29133,6,0,B|200:64,2,60,0|0|2
240,136,30057,2,0,B|304:112,1,60,2|0
296,114,30518,1,0
384,112,30980,1,0
464,112,31441,6,0,B|400:328|104:312,1,420
133,313,33287,2,0,B|232:216|176:80,1,240
368,72,35133,6,0,B|352:232|488:280,2,240,4|0|0
316,285,37903,5,0
229,299,38364,1,8
144,312,38826,2,0,B|160:152|24:104,2,240,2|0|0
264,336,41364,5,0
264,336,41595,2,0,B|304:272|392:304,1,120,2|0
448,312,42518,1,2
448,224,42980,2,0,B|448:136,2,60,0|0|2
384,168,43903,2,0,B|360:88,2,60,8|0|0
312,120,44826,2,0,B|240:72,1,60,2|0
262,86,45287,2,0,B|184:64,1,60,0|0
204,69,45749,2,0,B|119:70,2,60,8|0|0
159,140,46672,6,0,B|77:140,2,60
160,224,47595,2,0,B|232:224,1,60,8|0
220,224,48057,2,0,B|264:268,1,60,0|0
262,266,48518,2,0,B|328:267,1,60,2|0
322,266,48980,2,0,B|367:312,1,60,0|0
364,309,49441,2,0,B|430:310,1,60,8|0
423,309,49903,6,0,B|377:106|470:77,2,240,4|0|0
256,102,52672,5,8
171,86,53133,1,0
88,74,53595,2,0,B|135:278|42:307,2,240
216,80,56133,5,0
216,80,56364,2,0,B|248:144|328:144,1,120,2|0
392,144,57287,1,2
432,216,57749,2,0,B|416:288,1,60
418,274,58210,1,0
336,248,58672,2,0,B|272:272,1,60,8|0
279,269,59133,1,0
264,184,59595,2,0,B|192:184,2,60,2|0|0
264,184,60287,1,0
264,184,60518,2,0,B|320:128,1,60,8|0
306,141,60980,5,0
360,80,61441,2,0,B|432:80,2,60,2|0|0
272,80,62364,2,0,B|200:80,1,60,8|0
212,80,62826,2,0,B|144:112,1,60
157,105,63287,2,0,B|112:168,1,60,2|0
122,153,63749,1,0
122,153,63980,2,0,B|59:158|59:210|133:213,1,120
122,213,64672,6,0,B|313:236|333:308|333:308|394:203,1,360,4|0
446,98,66518,1,0
329,69,66980,1,2
209,69,67441,1,0
93,101,67903,1,8
209,69,68364,6,0,B|206:190|206:190|206:192|206:192|264:155|328:196,1,240
431,230,69749,1,0
343,311,70210,6,0,B|200:311,1,120,0|2
134,230,71133,2,0,B|268:230,1,120,0|8
362,178,72057,2,0,B|262:167|189:106|180:45|180:45|108:156,1,360
90,263,73903,1,0
324,314,74826,5,0
428,255,75287,2,0,B|428:190,1,60
428,195,75749,2,2,B|332:119|195:119,1,240
84,129,77133,6,0,B|84:194,1,60
84,189,77595,2,2,B|180:265|317:265,1,240
256,48,79210,5,0
256,48,79441,2,0,B|184:64,1,60,4|0
197,61,79903,2,0,B|168:128,1,60,8|0
192,152,80364,2,0,B|288:152,2,90,0|0|0
168,184,81287,2,0,B|64:184,2,90,4|0|0
192,216,82210,2,0,B|288:216,1,90,4|0
336,304,83133,6,0,B|407:304,1,60
396,304,83595,2,0,B|446:254,1,60,8|0
438,261,84057,2,0,B|439:156,2,90
438,261,84980,2,2,B|306:260|237:141,1,240
272,64,86364,6,0,B|344:64,2,60,0|0|4
152,112,87518,1,0
152,112,87749,2,0,B|89:157,1,60
103,146,88210,2,0,B|77:212,1,60,8|0
80,202,88672,2,0,B|80:277,1,60
80,262,89133,2,2,B|157:264,1,60,8|2
140,263,89595,1,0
224,264,90057,6,0,B|256:323,1,60
253,316,90518,2,2,B|270:221|378:174,1,180
437,144,91672,5,0
437,144,91903,1,0
256,192,92133,12,0,94210
403,89,112672,6,0,B|335:103|286:174,1,120,4|0
265,226,113595,2,0,B|250:288,1,60,2|0
251,285,114057,1,0
174,318,114518,6,0,B|126:276|120:209,1,120,2|0
117,129,115441,2,0,B|116:64,1,60,2|0
116,69,115903,1,0
199,58,116364,6,0,B|223:132|299:147,1,120,4|0
359,162,117287,2,0,B|419:172,1,60,2|0
418,171,117749,1,0
419,87,118210,5,0
294,66,118903,1,0
294,66,119133,2,0,B|299:143|266:204,1,120
231,255,120057,5,2
158,297,120518,2,0,B|78:297,2,60,2|0|0
231,255,121441,2,0,B|302:255,2,60,8|0|0
160,209,122364,2,0,B|160:140,1,60,2|0
160,149,122826,2,0,B|195:89,1,60
190,97,123287,2,0,B|252:67,1,60,8|0
244,70,123749,1,0
328,70,124210,6,0,B|399:32,2,60,2|0|0
396,119,125133,6,0,B|343:149,1,60,8|0
383,163,125595,2,0,B|326:194,1,60
368,210,126057,2,0,B|311:241,1,60,8|0
279,261,126518,2,0,B|343:293,1,60,2|0
370,306,126980,2,0,B|312:334,1,60,8|0
278,350,127441,6,0,B|162:334|80:204,1,240,4|0
87,216,128595,2,0,B|144:205|156:172,1,60
183,79,129287,5,0
302,68,129749,1,2
411,115,130210,1,0
458,225,130672,1,8
411,115,131133,6,0,B|264:147|247:281,1,240,0|0
363,304,132518,1,0
378,184,132980,6,0,B|236:184,1,120,0|2
215,71,133903,2,0,B|144:194,1,120,0|8
34,171,134826,6,0,B|188:172|188:321,1,240
187,314,135980,2,0,B|245:318|264:286,1,60
346,237,136672,1,0
166,77,137595,5,2
84,165,138057,2,0,B|156:185,1,60
141,181,138518,2,2,B|250:114|386:152,1,240
425,256,139903,6,0,B|353:236,1,60
367,240,140364,2,2,B|258:307|122:269,1,240
255,64,142210,6,0,B|189:63,1,60,4|0
152,63,142672,2,0,B|178:126,1,60,8|0
192,156,143133,2,0,B|104:202,2,90
234,157,144057,2,0,B|323:113,2,90,4|0|0
235,199,144980,2,0,B|148:241,1,90,4|0
297,312,145903,6,0,B|359:312,1,60
398,310,146364,2,0,B|443:265,1,60,8|0
442,225,146826,2,0,B|442:115,2,90
393,225,147749,1,0
345,227,147980,2,0,B|268:228,1,60
285,179,148441,1,0
283,130,148672,2,0,B|193:130,1,60
174,129,149133,6,0,B|96:130,1,60
65,130,149595,2,0,B|112:221|52:322,1,180,4|0
99,271,150518,1,0
146,256,150749,2,2,B|193:304|271:269,1,120
303,263,151441,2,0,B|370:262,1,60
411,259,151903,2,0,B|443:200,1,60,8|0
439,206,152364,1,0
406,115,152826,6,0,B|358:67,1,60
329,38,153287,2,2,B|200:39|107:139,1,240
85,169,154441,6,0,B|136:231,1,60
155,250,154903,2,2,B|296:262|392:143,1,240
412,123,156057,5,0
412,123,156287,1,0
412,123,156518,1,0
412,123,156749,1,0
412,123,156980,6,0,B|351:71,1,60,4|0
327,55,157441,2,0,B|255:55,1,60,8|0
218,55,157903,2,0,B|120:55,2,90
219,103,158826,2,0,B|324:103,2,90,4|0|0
217,151,159749,2,0,B|123:151,1,90,4|0
58,249,160672,6,0,B|108:299,1,60
142,315,161133,2,0,B|206:315,1,60,8|0
250,315,161595,2,0,B|364:315,2,90
251,266,162518,1,0
252,217,162749,2,0,B|316:217,1,60
311,168,163210,1,0
310,119,163441,2,0,B|378:119,2,60
276,84,164133,5,0
241,51,164364,2,0,B|136:48|75:132,1,180,4|0
71,215,165518,2,0,B|71:292,2,60,0|8|0
119,214,166210,2,0,B|182:213,1,60
227,214,166672,2,0,B|226:144,1,60,8|0
226,154,167133,1,2
285,78,167595,6,0,B|360:79,1,60,8|0
393,82,168057,2,2,B|472:177|373:260,1,180
297,261,169210,6,0,B|298:338,2,60,0|8|0
256,192,169903,12,0,171287
