osu file format v7

[General]
AudioFilename: fei bird.mp3
AudioLeadIn: 0
PreviewTime: 35133
Countdown: 0
SampleSet: Soft
StackLeniency: 0.7
Mode: 0
LetterboxInBreaks: 1

[Editor]
Bookmarks: 16672,96057,110826,171749,190210,204980
DistanceSpacing: 1
BeatDivisor: 4
GridSize: 8

[Metadata]
Title:Kamigami no Inori
Artist:Sasha Asuka
Creator:tsukamaete
Version:Hard
Source:Touhou
Tags:yaya Dr_Dy Touhou Kasou Kouduki Kagiyama Hina Maikaze Tokine

[Difficulty]
HPDrainRate:7
CircleSize:5
OverallDifficulty:7
SliderMultiplier:1.7
SliderTickRate:1

[Events]
//Background and Video events
0,0,"Konachan_com%20-%2035996%20kagiyama_hina%20sakurazawa_izumi%20touhou.jpg"
//Break Periods
2,96256,111772
//Storyboard Layer 0 (Background)
//Storyboard Layer 1 (Fail)
//Storyboard Layer 2 (Pass)
//Storyboard Layer 3 (Foreground)
Sprite,Foreground,Centre,"SB\yaya.png",320,240 S,0,16672,,0.8880002 F,0,16672,17133,0,1 M,0,16672,96057,560,403,560,388 F,0,17133,95595,1 F,0,95595,96057,1,0
Animation,Foreground,Centre,"SB\Frame.png",320,240,8,115,LoopForever F,0,16672,17133,0,1 M,0,16672,96057,614,398,611,385 F,0,17133,95595,1 F,0,95595,96057,1,0
Animation,Foreground,Centre,"SB\Frame.png",320,240,8,115,LoopForever F,0,16672,17133,0,1 M,0,16672,96057,499,397,500,383 F,0,17133,95595,1 F,0,95595,96057,1,0
Sprite,Foreground,Centre,"irc\info1.png",320,240 F,0,17364,17826,0,1 M,0,17364,21287,308,92,260,144 F,0,17826,20826,1 F,0,20826,21287,1,0
Sprite,Foreground,Centre,"irc\info2.png",320,240 F,0,21057,21518,0,1 M,0,21057,24980,332,107,292,163 F,0,21518,24518,1,0.9804772 F,0,24518,24980,0.9804772,0
Sprite,Foreground,Centre,"irc\info3.png",320,240 S,0,24749,,0.9520001 F,0,24749,25210,0,1 M,0,24749,28672,332,78,307,123 F,0,25210,28210,1 F,0,28210,28672,1,0
Sprite,Foreground,Centre,"irc\info4.png",320,240 S,0,28441,,0.9200001 F,0,28441,28903,0,1 M,0,28441,30980,327,99,281,131 F,0,28903,30518,1 F,0,30518,30980,1,0
Sprite,Foreground,Centre,"irc\info5.png",320,240 F,0,30749,31210,0,1 M,0,30749,33287,218,186,149,217 F,0,31210,33287,1
Sprite,Foreground,Centre,"irc\text.png",320,240 M,0,34672,,307,1016 S,0,34672,,0.84 M,0,34672,35133,307,1016,307,976 M,0,35133,42518,307,976,308,977 M,0,42518,42980,308,977,307,940 M,0,42980,49441,307,940 M,0,49441,49903,307,940,308,898 M,0,49903,57287,308,898 M,0,57287,57749,308,898,307,863 M,0,57749,64210,307,863 M,0,64210,64672,307,863,307,821 M,0,64672,67903,307,821 M,0,67903,68364,307,821,307,783 M,0,68364,71595,307,783 M,0,71595,72057,307,783,310,743 M,0,72057,78749,310,743 M,0,78749,79210,310,743,310,706 M,0,79210,82441,310,706 M,0,82441,83133,310,706,313,623 M,0,83133,85903,313,623 M,0,85903,86364,313,623,315,589 M,0,86364,93749,315,589,313,588 M,0,93749,94210,313,588,316,506 F,0,93749,94210,1,0 F,0,94210,112210,0 M,0,94210,112672,316,506,317,507 F,0,112210,112672,0,1 M,0,112672,120057,317,507,317,509 M,0,120057,120518,317,509,318,471 M,0,120518,126980,318,471 M,0,126980,127441,318,471,319,431 M,0,127441,130672,319,431 M,0,130672,131133,319,431,319,389 M,0,131133,134364,319,389 M,0,134364,134826,319,389,319,354 M,0,134826,141749,319,354 M,0,141749,142210,319,354,319,309 M,0,142210,145441,319,309 M,0,145441,145903,319,309,319,273 M,0,145903,148672,319,273 M,0,148672,149133,319,273,318,236 M,0,149133,156518,318,236 M,0,156518,156980,318,236,316,196 M,0,156980,163441,316,196,316,197 M,0,163441,163903,316,197,316,154 M,0,163903,170826,316,154
Sprite,Foreground,Centre,"SB\tsukamaete.png",320,240 S,0,112672,,0.872 F,0,112672,113133,0,1 M,0,112672,190210,190,75,188,108 F,0,113133,189749,1 F,0,189749,190210,1,0
Animation,Foreground,Centre,"SB\Frame.png",320,240,8,115,LoopForever F,0,112672,113133,0,1 M,0,112672,190210,80,75,78,108 F,0,113133,189749,1 F,0,189749,190210,1,0
Animation,Foreground,Centre,"SB\Frame.png",320,240,8,115,LoopForever F,0,112672,113133,0,1 M,0,112672,190210,280,76,278,108 F,0,113133,189749,1 F,0,189749,190210,1,0
Sprite,Foreground,Centre,"irc\BG1.png",320,240 S,0,34672,,0.625 F,0,34672,92364,1 F,0,92364,92826,1,0 F,0,92826,112210,0 F,0,112210,112672,0,1 F,0,112672,170826,1 F,0,170826,171287,1,0
//Storyboard Sound Samples
//Background Colour Transformations
3,100,163,162,255

[TimingPoints]
57,461.538461538462,4,2,0,100,1,0
16672,-200,4,2,0,9,0,0
17595,-100,4,2,0,26,0,0
17941,-100,4,2,0,54,0,0
18287,-100,4,2,0,69,0,0
18518,-100,4,2,0,91,0,0
31441,-200,4,2,0,91,0,0
32826,-100,4,2,0,91,0,0
34903,-100,4,1,0,70,0,0
64557,-100,4,2,0,92,0,0
64903,-100,4,1,0,69,0,0
76903,-100,4,1,0,55,0,0
77595,-100,4,2,0,74,0,0
79095,-100,4,2,0,88,0,0
112210,-100,4,2,0,88,0,0
113133,-100,4,1,0,51,0,0
126172,-100,4,2,0,51,0,0
126403,-100,4,1,0,51,0,0
126633,-100,4,2,0,51,0,0
126864,-100,4,1,0,51,0,0
127095,-100,4,2,0,51,0,0
127326,-100,4,2,0,51,0,0
127903,-100,4,1,0,51,0,0
135403,-100,4,2,0,51,0,0
135633,-100,4,1,0,51,0,0
137249,-100,4,2,0,51,0,0
137480,-100,4,1,0,51,0,0
137826,-100,4,2,0,51,0,0
138057,-100,4,1,0,51,0,0
138287,-100,4,2,0,0,0,0
139903,-100,4,1,0,51,0,0
140595,-100,4,1,0,29,0,0
141057,-100,4,1,0,51,0,0
141518,-100,4,1,0,29,0,0
141980,-100,4,2,1,70,0,0
169787,-100,4,1,0,0,0,0
171633,-100,4,2,1,70,0,0
189980,-100,4,2,0,40,0,0

[Colours]
Combo1 : 255,255,255
Combo2 : 128,255,255
Combo3 : 255,128,255

[HitObjects]
256,336,16672,2,0,B|288:240|224:264|256:160|256:160,1,170
253,168,18057,1,2
416,72,18287,5,0
392,80,18403,1,0
368,88,18518,2,0,B|184:88|184:88,1,170,4|0
88,192,19441,1,2
256,336,19903,1,0
320,272,20133,1,0
384,208,20364,2,2,B|440:128|376:24|376:24,1,170,2|0
272,80,21057,1,0
256,184,21287,5,2
184,152,21518,1,0
160,184,21633,1,0
184,216,21749,1,0
256,184,21980,1,0
312,112,22210,6,2,B|368:200|304:280|304:280,1,170,2|0
256,328,22903,1,0
200,272,23133,1,2
144,328,23364,2,0,B|96:328,2,42.5,0|0|0
200,272,23826,1,0
200,192,24057,2,2,B|200:96|200:96,1,85,2|0
272,64,24518,2,2,B|272:152|272:152,1,85,2|0
272,224,24980,1,0
456,280,25441,5,0
400,224,25672,1,0
400,224,25787,1,0
400,224,25903,2,2,B|400:40|400:40,1,170,6|0
256,104,26595,1,0
112,160,26826,2,0,B|112:344|112:344,1,170,2|0
256,280,27518,1,0
400,224,27749,2,2,B|400:136|400:136,1,85,2|0
112,160,28210,2,2,B|112:248|112:248,1,85,0|0
256,328,28672,2,2,B|288:240|224:240|260:144|260:144,1,170,2|0
256,88,29364,1,0
256,16,29595,5,2
16,192,30057,1,0
256,368,30518,1,2
496,192,30980,1,0
256,48,31441,6,2,B|280:120|216:192|256:304|256:304,1,255,2|0
256,192,33287,12,0,34672
64,192,35133,5,0
384,288,35595,2,0,B|248:344|126:284|126:284,1,255,8|0
135,287,36518,1,8
448,192,36980,1,0
128,96,37441,2,0,B|264:40|386:100|386:100,1,255,8|0
376,96,38364,1,8
448,192,38826,5,0
128,288,39287,2,0,B|264:344|386:284|386:284,1,255,8|0
376,287,40210,1,8
64,192,40672,1,0
384,96,41133,2,0,B|248:40|126:100|126:100,1,255,8|0
135,96,42057,1,8
72,312,42518,6,0,B|248:312|248:312,1,170,0|8
304,272,43210,1,0
368,312,43441,1,0
432,352,43672,1,0
432,352,43787,1,0
432,352,43903,1,8
432,272,44133,1,0
368,224,44364,6,0,B|440:192|424:80|424:80,1,127.5
425,117,44826,2,0,B|339:118|339:118,1,85,8|0
280,72,45287,5,0
216,120,45518,1,0
152,168,45749,1,8
88,216,45980,1,0
32,272,46210,6,0,B|168:272|168:272,1,127.5
184,304,46672,2,0,B|248:240|248:240,1,85,8|0
480,112,47133,2,0,B|344:112|344:112,1,127.5
328,80,47595,2,0,B|264:144|264:144,1,85,8|0
192,104,48057,2,0,B|144:128|88:96|88:96,1,85
168,272,48518,2,0,B|216:248|272:280|272:280,1,85,8|0
336,272,48980,1,0
464,192,49326,1,0
336,96,49672,1,0
408,192,49903,5,0
128,288,50364,2,0,B|264:344|386:284|386:284,1,255,8|0
377,287,51287,1,8
104,192,51749,1,0
384,96,52210,2,0,B|248:40|126:100|126:100,1,255,8|0
136,96,53133,1,8
64,192,53595,5,0
384,288,54057,2,0,B|248:344|126:284|126:284,1,255,8|0
136,287,54980,1,8
448,192,55441,1,0
128,96,55903,2,0,B|264:40|386:100|386:100,1,255,8|0
377,96,56826,1,8
72,72,57287,6,0,B|248:72|248:72,1,170,0|8
304,112,57980,1,0
368,72,58210,1,0
432,32,58441,1,0
432,32,58557,1,0
432,32,58672,1,8
432,112,58903,1,0
368,160,59133,6,0,B|440:192|424:304|424:304,1,127.5
425,267,59595,2,0,B|339:266|339:266,1,85,8|0
280,312,60057,5,0
216,264,60287,1,0
152,216,60518,1,8
88,168,60749,1,0
32,112,60980,6,0,B|168:112|168:112,1,127.5
184,80,61441,2,0,B|248:144|248:144,1,85,8|0
480,272,61903,2,0,B|344:272|344:272,1,127.5
328,304,62364,2,0,B|264:240|264:240,1,85,8|0
192,280,62826,2,0,B|144:256|88:288|88:288,1,85
168,112,63287,2,0,B|216:136|272:104|272:104,1,85,8|0
336,112,63749,1,0
464,192,64095,1,0
336,288,64441,1,0
392,192,64672,5,4
392,192,65133,2,0,B|288:168|264:40|264:40,1,170,8|0
275,77,65826,1,0
275,77,66057,1,8
120,192,66518,5,0
120,192,66980,2,0,B|224:216|248:344|248:344,1,170,8|0
236,306,67672,1,0
236,306,67903,1,8
320,360,68364,5,0
408,80,68826,2,0,B|480:128|480:264|400:312|400:312,1,255,8|0
407,306,69749,1,8
192,24,70210,1,0
104,304,70672,2,0,B|32:256|32:120|112:72|112:72,1,255,8|0
104,77,71595,1,8
320,24,72057,5,0
408,304,72518,2,0,B|480:256|480:120|400:72|400:72,1,255,8|0
407,77,73441,1,8
192,360,73903,1,0
104,80,74364,2,0,B|32:128|32:264|112:312|112:312,1,255,8|0
104,306,75287,1,8
184,280,75518,1,0
256,192,75749,12,0,77133
256,192,77364,5,0
256,192,77595,12,0,78980
72,320,79210,5,0
136,272,79441,1,4
200,320,79672,1,0
264,272,79903,1,0
328,320,80133,1,0
392,272,80364,2,0,B|464:240|464:144|464:144,2,127.5,2|0|0
328,216,81287,2,0,B|328:40|328:40,1,170,2|0
256,96,81980,1,0
184,168,82210,2,0,B|184:344|184:344,1,170,2|0
408,320,83133,5,2
464,264,83364,1,0
408,208,83595,1,0
352,264,83826,1,0
288,320,84056,2,0,B|176:336|128:208|128:208,1,170,2|0
256,192,84749,1,0
224,64,84980,2,0,B|336:48|384:176|384:176,1,170,2|0
88,192,85903,1,0
256,336,86364,5,0
336,336,86595,1,0
416,336,86826,2,0,B|488:280|464:168|464:168,1,170,4|0
400,136,87518,1,0
336,184,87749,2,0,B|232:184|232:184,2,85,2|0|0
400,136,88441,1,0
336,88,88672,2,0,B|256:24|176:88|176:88,1,170,2|0
136,168,89364,1,0
184,248,89595,2,0,B|264:312|344:248|344:248,1,170,2|0
376,168,90287,1,0
256,64,90518,6,0,B|288:152|224:160|272:264|272:264,1,170
261,232,91210,1,0
200,368,91672,1,0
256,320,91903,1,2
312,368,92133,1,2
256,192,92364,12,0,93980
256,192,94210,12,0,95595
256,192,96056,5,4
56,72,112672,6,0,B|232:72,1,170,2|8
176,192,113595,1,0
256,192,113826,1,0
336,192,114056,1,8
456,312,114518,6,0,B|280:312,1,170,0|8
336,192,115441,1,0
256,192,115672,1,0
176,192,115903,1,8
344,168,116364,6,0,B|416:264|296:344,2,170,0|8|0
256,192,117518,1,0
256,192,117749,1,8
168,216,118210,6,0,B|96:120|216:40,2,170,0|8|0
256,200,119364,1,0
256,200,119595,1,8
336,64,120056,6,0,B|416:112|376:184,1,127.5
360,200,120518,2,0,B|352:304,2,85,8|0|0
152,184,121441,2,0,B|160:80,2,85,8|0|0
88,320,122364,1,8
88,320,122595,1,0
168,320,122826,2,0,B|272:320,3,85,0|0|8|0
328,320,123749,1,0
344,64,124210,2,0,B|240:64,1,85,8|0
184,64,124672,2,0,B|96:104|128:192,1,127.5
152,192,125133,1,8
197,131,125364,1,0
268,154,125595,1,0
268,229,125826,1,0
197,252,126056,5,0
200,64,126287,1,2
189,276,126518,1,0
192,88,126749,1,2
181,300,126980,1,0
184,112,127210,1,2
88,88,127441,6,0,B|144:272,1,170,4|8
256,112,128364,1,0
256,192,128595,1,0
256,272,128826,1,8
424,296,129287,6,0,B|368:112,1,170,0|8
256,272,130210,1,0
256,192,130441,1,0
256,112,130672,1,8
480,208,131133,6,0,B|384:280|328:200,2,170,0|8|0
256,280,132287,1,0
256,280,132518,1,8
32,176,132980,2,0,B|128:104|184:184,2,170,0|8|0
256,104,134133,1,0
256,104,134364,1,8
384,184,134826,6,0,L|320:216|320:328,1,170,0|8
256,192,135518,1,8
128,200,135749,2,0,L|192:168|192:56,1,170,0|8
464,96,136672,2,0,L|264:96,1,170,0|8
256,192,137364,1,8
133,288,137595,2,0,L|48:288,2,85,0|8|8
256,192,138518,12,0,139903
168,224,140133,5,0
168,224,140364,1,0
224,104,140826,1,0
344,160,141287,1,0
288,280,141749,1,0
352,32,142210,5,2
416,80,142441,1,0
416,80,142556,1,0
416,80,142672,1,8
416,160,142903,1,0
352,200,143133,1,2
288,248,143364,1,0
288,248,143480,1,0
288,248,143595,1,8
288,328,143826,1,0
288,328,144056,5,2
288,184,144403,1,0
144,200,144749,1,0
128,128,144980,2,0,B|157:53|241:56,1,127.5,2|0
234,91,145441,2,0,B|262:199,1,85,8|0
280,248,145903,1,2
325,309,146133,1,0
396,286,146364,1,8
396,211,146595,1,0
325,188,146826,5,2
256,16,147172,1,0
184,184,147518,1,0
96,144,147749,2,0,B|48:216|88:320,1,170,2|8
256,240,148441,1,0
256,240,148556,1,0
256,240,148672,1,2
192,144,148903,1,8
256,192,149133,5,8
320,144,149364,1,0
424,128,149595,2,0,B|472:200|432:304,1,170,0|8
360,304,150287,2,0,B|280:264,1,85
152,304,150749,2,0,B|232:264,1,85,0|8
256,192,151210,1,0
200,136,151441,1,0
256,80,151672,1,0
312,136,151903,1,8
256,192,152133,1,8
256,192,152364,2,0,B|224:248|304:280|240:336,1,127.5
240,344,152826,5,8
184,296,153056,1,0
120,256,153287,2,0,B|64:160|144:80|160:80,1,170,0|8
392,256,154210,2,0,B|448:160|368:80|352:80,1,170,0|8
376,98,154903,1,0
256,192,155018,12,0,156749
160,32,156980,5,2
96,80,157210,1,0
96,80,157326,1,0
96,80,157441,1,8
96,160,157672,1,0
160,200,157903,1,2
224,248,158133,1,0
224,248,158249,1,0
224,248,158364,1,8
224,328,158595,1,0
304,328,158826,6,0,B|448:328,2,127.5,2|0|0
128,128,159749,2,0,B|157:53|241:56,1,127.5,2|0
234,91,160210,2,0,B|262:199,1,85,8|0
232,248,160672,1,2
187,309,160903,1,0
116,286,161133,1,8
116,211,161364,1,0
187,188,161595,5,2
256,32,161941,1,0
325,188,162287,1,0
416,144,162518,2,0,B|464:216|424:320,1,170,2|8
344,288,163210,1,0
335,274,163326,1,0
331,267,163441,1,2
256,232,163672,1,8
256,144,163903,5,8
176,168,164133,1,0
88,128,164364,2,0,B|40:200|80:304,1,170,2|8
128,256,165057,2,0,B|216:232,1,85,0|2
392,128,165518,2,0,B|304:152,1,85,0|8
256,192,165980,1,0
312,136,166210,1,2
256,80,166441,1,0
200,136,166672,1,8
256,192,166903,1,0
256,192,167133,2,0,B|288:248|208:280|272:336,1,127.5,2|0
272,344,167595,5,8
328,296,167826,1,0
392,256,168057,2,0,B|448:160|368:80|352:80,1,170,2|8
120,256,168980,2,0,B|64:160|144:80|160:80,1,170,2|8
136,98,169672,1,0
256,192,169787,12,0,171518
112,240,171749,6,2,B|200:352|336:352|416:224|416:224,1,340,6|0
456,184,172903,1,0
408,120,173133,1,2
360,184,173364,1,0
320,112,173595,2,2,B|264:96|224:16|224:16,2,127.5,2|0|2
232,120,174518,2,2,B|288:104|328:24|328:24,2,127.5,2|0|2
152,128,175441,5,2
160,160,175557,1,0
176,184,175672,1,0
200,200,175787,1,0
232,208,175903,2,0,B|288:192,3,42.5,2|0|0|0
304,184,176364,1,2
312,152,176480,1,0
328,128,176595,1,0
352,112,176710,1,0
384,104,176826,2,0,B|440:120,3,42.5,2|0|0|0
448,136,177287,6,0,B|496:200|488:272|488:272,2,127.5,2|0|0
368,256,178210,2,2,B|320:208|336:120|336:120,2,127.5,2|0|2
424,184,179133,6,2,B|496:112|448:16|448:16,1,170,6|0
368,72,179826,2,0,B|176:72|176:72,1,170
120,72,180518,1,0
160,136,180749,1,0
224,208,180980,6,0,B|168:240,3,42.5,2|0|0|0
256,232,181441,2,0,B|288:288,3,42.5,2|0|0|0
272,208,181903,2,0,B|308:186,3,42.5,2|0|0|0
245,172,182364,2,0,B|224:136,3,42.5,2|0|0|0
256,216,182826,5,4
424,248,183287,1,0
72,240,183749,1,2
256,344,184210,1,0
472,192,184672,5,2
256,40,185133,1,0
40,192,185595,1,2
256,344,186057,1,0
432,112,186518,6,2,C|408:88|384:112|360:88|336:112|312:88|288:112|264:88|240:112|216:88|192:112|168:88|136:112|112:88|88:112|64:88|64:88,1,510,2|0
80,288,188133,1,0
80,288,188249,1,0
80,288,188364,2,2,C|104:264|128:288|152:264|176:288|200:264|224:288|248:264|272:288|296:264|320:288|344:264|376:288|400:264|424:288|448:264|448:264,1,510,2|0
256,192,190210,5,4
