osu file format v14

[General]
AudioFilename: 16bit.mp3
AudioLeadIn: 0
PreviewTime: -1
Countdown: 0
SampleSet: Normal
StackLeniency: 0.7
Mode: 3
LetterboxInBreaks: 0
SpecialStyle: 0
WidescreenStoryboard: 0

[Editor]
Bookmarks: 57356,59323
DistanceSpacing: 0.8
BeatDivisor: 4
GridSize: 32
TimelineZoom: 1

[Metadata]
Title:bokura no 16bit warz
TitleUnicode:ぼくらの16bit戦爭
Artist:SasakureP
ArtistUnicode:ささくれP
Creator:CrazyStar
Version:16bit
Source:
Tags:Sasakure.UK Megpoid Gumi
BeatmapID:630173
BeatmapSetID:278143

[Difficulty]
HPDrainRate:8
CircleSize:4
OverallDifficulty:8
ApproachRate:5
SliderMultiplier:1.4
SliderTickRate:1

[Events]
//Background and Video events
0,0,"16bit.jpg",0,0
//Break Periods
//Storyboard Layer 0 (Background)
//Storyboard Layer 1 (Fail)
//Storyboard Layer 2 (Pass)
//Storyboard Layer 3 (Foreground)
//Storyboard Sound Samples

[TimingPoints]
3258,491.803278688525,4,1,0,12,1,0

[HitObjects]
448,192,3257,5,0,0:0:0:0:
192,192,3257,1,0,0:0:0:0:
320,192,3380,1,0,0:0:0:0:
64,192,3503,1,0,0:0:0:0:
192,192,3626,1,0,0:0:0:0:
64,192,3749,1,0,0:0:0:0:
192,192,3872,1,0,0:0:0:0:
320,192,3995,1,0,0:0:0:0:
448,192,4118,1,0,0:0:0:0:
320,192,4364,1,0,0:0:0:0:
192,192,4610,1,0,0:0:0:0:
320,192,4733,1,0,0:0:0:0:
64,192,4733,1,0,0:0:0:0:
448,192,4856,1,0,0:0:0:0:
192,192,4979,1,0,0:0:0:0:
320,192,5102,1,0,0:0:0:0:
64,192,5225,1,0,0:0:0:0:
192,192,5348,1,0,0:0:0:0:
320,192,5471,1,0,0:0:0:0:
448,192,5594,1,0,0:0:0:0:
192,192,5839,1,0,0:0:0:0:
64,192,6085,1,0,0:0:0:0:
320,192,6208,1,0,0:0:0:0:
448,192,6208,1,0,0:0:0:0:
192,192,6331,1,0,0:0:0:0:
64,192,6454,1,0,0:0:0:0:
320,192,6577,1,0,0:0:0:0:
192,192,6700,1,0,0:0:0:0:
320,192,6823,1,0,0:0:0:0:
64,192,6946,1,0,0:0:0:0:
448,192,7069,1,0,0:0:0:0:
192,192,7315,1,0,0:0:0:0:
320,192,7561,1,0,0:0:0:0:
64,192,7684,1,0,0:0:0:0:
448,192,7684,1,0,0:0:0:0:
192,192,7807,1,0,0:0:0:0:
320,192,7930,1,0,0:0:0:0:
64,192,8053,1,0,0:0:0:0:
448,192,8176,1,0,0:0:0:0:
192,192,8298,1,0,0:0:0:0:
320,192,8421,1,0,0:0:0:0:
64,192,8544,1,0,0:0:0:0:
448,192,8790,1,0,0:0:0:0:
320,192,9036,1,0,0:0:0:0:
448,192,9159,1,0,0:0:0:0:
192,192,9159,1,0,0:0:0:0:
64,192,9159,1,0,0:0:0:0:
320,192,9282,1,0,0:0:0:0:
192,192,9405,1,0,0:0:0:0:
448,192,9528,1,0,0:0:0:0:
64,192,9651,1,0,0:0:0:0:
192,192,9774,1,0,0:0:0:0:
320,192,9897,1,0,0:0:0:0:
448,192,10020,1,0,0:0:0:0:
320,192,10266,1,0,0:0:0:0:
64,192,10512,1,0,0:0:0:0:
192,192,10635,1,0,0:0:0:0:
448,192,10635,1,0,0:0:0:0:
320,192,10635,1,0,0:0:0:0:
64,192,10757,1,0,0:0:0:0:
192,192,10880,1,0,0:0:0:0:
320,192,11003,1,0,0:0:0:0:
64,192,11126,1,0,0:0:0:0:
448,192,11249,1,0,0:0:0:0:
192,192,11372,1,0,0:0:0:0:
320,192,11495,1,0,0:0:0:0:
192,192,11741,1,0,0:0:0:0:
448,192,11987,1,0,0:0:0:0:
320,192,12110,1,0,0:0:0:0:
192,192,12110,1,0,0:0:0:0:
64,192,12110,1,0,0:0:0:0:
448,192,12233,1,0,0:0:0:0:
192,192,12356,1,0,0:0:0:0:
64,192,12479,1,0,0:0:0:0:
448,192,12602,1,0,0:0:0:0:
320,192,12725,1,0,0:0:0:0:
192,192,12848,1,0,0:0:0:0:
64,192,12971,1,0,0:0:0:0:
192,192,13217,1,0,0:0:0:0:
448,192,13462,1,0,0:0:0:0:
64,192,13585,1,0,0:0:0:0:
192,192,13585,1,0,0:0:0:0:
320,192,13585,1,0,0:0:0:0:
448,192,13708,1,0,0:0:0:0:
64,192,13770,1,0,0:0:0:0:
448,192,13831,1,0,0:0:0:0:
320,192,13954,1,0,0:0:0:0:
192,192,14077,1,0,0:0:0:0:
320,192,14139,1,0,0:0:0:0:
192,192,14200,1,0,0:0:0:0:
320,192,14262,1,0,0:0:0:0:
192,192,14323,1,0,0:0:0:0:
64,192,14446,1,0,0:0:0:0:
448,192,14692,1,0,0:0:0:0:
192,192,14753,1,0,0:0:0:0:
448,192,14815,1,0,0:0:0:0:
320,192,14938,1,0,0:0:0:0:
192,192,15061,1,0,0:0:0:0:
64,192,15061,1,0,0:0:0:0:
448,192,15061,1,0,0:0:0:0:
320,192,15184,1,0,0:0:0:0:
192,192,15307,1,0,0:0:0:0:
448,192,15430,1,0,0:0:0:0:
320,192,15553,1,0,0:0:0:0:
64,192,15553,1,0,0:0:0:0:
192,192,15676,1,0,0:0:0:0:
448,192,15798,1,0,0:0:0:0:
320,192,15921,1,0,0:0:0:0:
64,192,16044,1,0,0:0:0:0:
320,192,16167,1,0,0:0:0:0:
192,192,16290,1,0,0:0:0:0:
448,192,16413,1,0,0:0:0:0:
320,192,16536,1,0,0:0:0:0:
64,192,16536,1,0,0:0:0:0:
192,192,16536,1,0,0:0:0:0:
448,192,16659,1,0,0:0:0:0:
192,192,16782,1,0,0:0:0:0:
320,192,16905,1,0,0:0:0:0:
192,192,17028,1,0,0:0:0:0:
64,192,17028,1,0,0:0:0:0:
448,192,17151,1,0,0:0:0:0:
320,192,17274,1,0,0:0:0:0:
192,192,17397,1,0,0:0:0:0:
448,192,17520,1,0,0:0:0:0:
320,192,17643,1,0,0:0:0:0:
192,192,17766,1,0,0:0:0:0:
448,192,17889,1,0,0:0:0:0:
64,192,18012,1,0,0:0:0:0:
320,192,18012,1,0,0:0:0:0:
192,192,18012,1,0,0:0:0:0:
448,192,18135,1,0,0:0:0:0:
64,192,18257,1,0,0:0:0:0:
192,192,18380,1,0,0:0:0:0:
320,192,18503,1,0,0:0:0:0:
64,192,18503,1,0,0:0:0:0:
448,192,18626,1,0,0:0:0:0:
192,192,18749,1,0,0:0:0:0:
320,192,18872,1,0,0:0:0:0:
64,192,18995,1,0,0:0:0:0:
320,192,19118,1,0,0:0:0:0:
448,192,19241,1,0,0:0:0:0:
192,192,19364,1,0,0:0:0:0:
320,192,19487,1,0,0:0:0:0:
448,192,19487,1,0,0:0:0:0:
64,192,19487,1,0,0:0:0:0:
192,192,19610,1,0,0:0:0:0:
64,192,19610,1,0,0:0:0:0:
448,192,19733,1,0,0:0:0:0:
320,192,19856,1,0,0:0:0:0:
64,192,19979,1,0,0:0:0:0:
448,192,19979,1,0,0:0:0:0:
192,192,20102,1,0,0:0:0:0:
64,192,20225,1,0,0:0:0:0:
192,192,20348,1,0,0:0:0:0:
448,192,20348,1,0,0:0:0:0:
320,192,20471,1,0,0:0:0:0:
192,192,20594,1,0,0:0:0:0:
448,192,20594,1,0,0:0:0:0:
320,192,20717,1,0,0:0:0:0:
64,192,20839,1,0,0:0:0:0:
192,192,20839,1,0,0:0:0:0:
320,192,20901,1,0,0:0:0:0:
64,192,20962,1,0,0:0:0:0:
192,192,20962,1,0,0:0:0:0:
448,192,20962,1,0,0:0:0:0:
320,192,21085,1,0,0:0:0:0:
448,192,21208,1,0,0:0:0:0:
192,192,21331,1,0,0:0:0:0:
64,192,21454,1,0,0:0:0:0:
320,192,21577,1,0,0:0:0:0:
448,192,21700,1,0,0:0:0:0:
192,192,21823,1,0,0:0:0:0:
64,192,21946,1,0,0:0:0:0:
448,192,21946,1,0,0:0:0:0:
320,192,22069,1,0,0:0:0:0:
192,192,22192,1,0,0:0:0:0:
320,192,22315,1,0,0:0:0:0:
64,192,22438,1,0,0:0:0:0:
192,192,22438,1,0,0:0:0:0:
448,192,22438,1,0,0:0:0:0:
320,192,22561,1,0,0:0:0:0:
64,192,22684,1,0,0:0:0:0:
320,192,22807,1,0,0:0:0:0:
448,192,22930,1,0,0:0:0:0:
192,192,22930,1,0,0:0:0:0:
64,192,23053,1,0,0:0:0:0:
320,192,23176,1,0,0:0:0:0:
192,192,23298,1,0,0:0:0:0:
448,192,23421,1,0,0:0:0:0:
64,192,23421,1,0,0:0:0:0:
192,192,23544,1,0,0:0:0:0:
320,192,23667,1,0,0:0:0:0:
448,192,23790,1,0,0:0:0:0:
320,192,23913,1,0,0:0:0:0:
192,192,23913,1,0,0:0:0:0:
64,192,23913,1,0,0:0:0:0:
448,192,24036,1,0,0:0:0:0:
192,192,24159,1,0,0:0:0:0:
320,192,24282,1,0,0:0:0:0:
64,192,24405,1,0,0:0:0:0:
192,192,24405,1,0,0:0:0:0:
320,192,24528,1,0,0:0:0:0:
192,192,24651,1,0,0:0:0:0:
448,192,24774,1,0,0:0:0:0:
320,192,24897,1,0,0:0:0:0:
64,192,24897,1,0,0:0:0:0:
192,192,25020,1,0,0:0:0:0:
448,192,25143,1,0,0:0:0:0:
192,192,25266,1,0,0:0:0:0:
320,192,25389,1,0,0:0:0:0:
64,192,25389,1,0,0:0:0:0:
448,192,25635,1,0,0:0:0:0:
192,192,25635,1,0,0:0:0:0:
320,192,25757,1,0,0:0:0:0:
192,192,25880,1,0,0:0:0:0:
448,192,25880,1,0,0:0:0:0:
64,192,26003,1,0,0:0:0:0:
192,192,26126,1,0,0:0:0:0:
448,192,26249,1,0,0:0:0:0:
320,192,26311,1,0,0:0:0:0:
192,192,26372,1,0,0:0:0:0:
64,192,26372,1,0,0:0:0:0:
64,192,26495,1,0,0:0:0:0:
448,192,26618,1,0,0:0:0:0:
192,192,26741,1,0,0:0:0:0:
64,192,26803,1,0,0:0:0:0:
448,192,26864,1,0,0:0:0:0:
320,192,26864,1,0,0:0:0:0:
192,192,26987,1,0,0:0:0:0:
320,192,27110,1,0,0:0:0:0:
192,192,27233,1,0,0:0:0:0:
448,192,27356,1,0,0:0:0:0:
64,192,27356,1,0,0:0:0:0:
320,192,27479,1,0,0:0:0:0:
192,192,27602,1,0,0:0:0:0:
320,192,27725,1,0,0:0:0:0:
448,192,27848,1,0,0:0:0:0:
192,192,27971,1,0,0:0:0:0:
320,192,28094,1,0,0:0:0:0:
448,192,28217,1,0,0:0:0:0:
192,192,28462,1,0,0:0:0:0:
64,192,28708,1,0,0:0:0:0:
64,192,28954,1,0,0:0:0:0:
192,192,29200,1,0,0:0:0:0:
320,192,29323,1,0,0:0:0:0:
64,192,29323,1,0,0:0:0:0:
448,192,29446,1,0,0:0:0:0:
192,192,29569,1,0,0:0:0:0:
320,192,29692,1,0,0:0:0:0:
64,192,29815,1,0,0:0:0:0:
192,192,29938,1,0,0:0:0:0:
320,192,30061,1,0,0:0:0:0:
448,192,30184,1,0,0:0:0:0:
320,192,30430,1,0,0:0:0:0:
192,192,30676,1,0,0:0:0:0:
192,192,30921,1,0,0:0:0:0:
64,192,31167,1,0,0:0:0:0:
192,192,31290,1,0,0:0:0:0:
448,192,31290,1,0,0:0:0:0:
320,192,31413,1,0,0:0:0:0:
192,192,31536,1,0,0:0:0:0:
448,192,31659,1,0,0:0:0:0:
64,192,31782,1,0,0:0:0:0:
448,192,31905,1,0,0:0:0:0:
64,192,32028,1,0,0:0:0:0:
192,192,32151,1,0,0:0:0:0:
320,192,32397,1,0,0:0:0:0:
320,192,32643,1,0,0:0:0:0:
448,192,32889,1,0,0:0:0:0:
320,192,33135,1,0,0:0:0:0:
64,192,33257,1,0,0:0:0:0:
448,192,33257,1,0,0:0:0:0:
192,192,33380,1,0,0:0:0:0:
64,192,33503,1,0,0:0:0:0:
192,192,33626,1,0,0:0:0:0:
64,192,33749,1,0,0:0:0:0:
192,192,33811,1,0,0:0:0:0:
320,192,33872,1,0,0:0:0:0:
448,192,33934,1,0,0:0:0:0:
64,192,33995,1,0,0:0:0:0:
320,192,34118,1,0,0:0:0:0:
192,192,34241,1,0,0:0:0:0:
448,192,34364,1,0,0:0:0:0:
64,192,34426,1,0,0:0:0:0:
448,192,34487,1,0,0:0:0:0:
192,192,34610,1,0,0:0:0:0:
64,192,34733,1,0,0:0:0:0:
320,192,34733,1,0,0:0:0:0:
448,192,34733,1,0,0:0:0:0:
192,192,34856,1,0,0:0:0:0:
448,192,34979,1,0,0:0:0:0:
192,192,35102,1,0,0:0:0:0:
320,192,35225,1,0,0:0:0:0:
448,192,35225,1,0,0:0:0:0:
64,192,35348,1,0,0:0:0:0:
320,192,35471,1,0,0:0:0:0:
64,192,35594,1,0,0:0:0:0:
192,192,35717,1,0,0:0:0:0:
448,192,35717,1,0,0:0:0:0:
64,192,35839,1,0,0:0:0:0:
192,192,35962,1,0,0:0:0:0:
320,192,36085,1,0,0:0:0:0:
64,192,36208,1,0,0:0:0:0:
192,192,36208,1,0,0:0:0:0:
448,192,36208,1,0,0:0:0:0:
320,192,36331,1,0,0:0:0:0:
64,192,36454,1,0,0:0:0:0:
320,192,36577,1,0,0:0:0:0:
64,192,36700,1,0,0:0:0:0:
192,192,36700,1,0,0:0:0:0:
448,192,36823,1,0,0:0:0:0:
192,192,36946,1,0,0:0:0:0:
448,192,37069,1,0,0:0:0:0:
320,192,37192,1,0,0:0:0:0:
64,192,37192,1,0,0:0:0:0:
448,192,37315,1,0,0:0:0:0:
320,192,37438,1,0,0:0:0:0:
192,192,37561,1,0,0:0:0:0:
64,192,37684,1,0,0:0:0:0:
320,192,37684,1,0,0:0:0:0:
448,192,37684,1,0,0:0:0:0:
192,192,37807,1,0,0:0:0:0:
320,192,37930,1,0,0:0:0:0:
192,192,38053,1,0,0:0:0:0:
64,192,38176,1,0,0:0:0:0:
320,192,38176,1,0,0:0:0:0:
448,192,38298,1,0,0:0:0:0:
64,192,38421,1,0,0:0:0:0:
448,192,38544,1,0,0:0:0:0:
192,192,38667,1,0,0:0:0:0:
64,192,38667,1,0,0:0:0:0:
320,192,38790,1,0,0:0:0:0:
192,192,38913,1,0,0:0:0:0:
64,192,39036,1,0,0:0:0:0:
448,192,39159,1,0,0:0:0:0:
192,192,39159,1,0,0:0:0:0:
320,192,39159,1,0,0:0:0:0:
64,192,39282,1,0,0:0:0:0:
192,192,39405,1,0,0:0:0:0:
64,192,39528,1,0,0:0:0:0:
192,192,39651,1,0,0:0:0:0:
448,192,39651,1,0,0:0:0:0:
320,192,39774,1,0,0:0:0:0:
448,192,39897,1,0,0:0:0:0:
320,192,40020,1,0,0:0:0:0:
192,192,40143,1,0,0:0:0:0:
448,192,40143,1,0,0:0:0:0:
64,192,40266,1,0,0:0:0:0:
320,192,40389,1,0,0:0:0:0:
64,192,40512,1,0,0:0:0:0:
320,192,40573,1,0,0:0:0:0:
64,192,40635,1,0,0:0:0:0:
192,192,40635,1,0,0:0:0:0:
320,192,40757,1,0,0:0:0:0:
448,192,40880,1,0,0:0:0:0:
320,192,41003,1,0,0:0:0:0:
448,192,41126,1,0,0:0:0:0:
64,192,41126,1,0,0:0:0:0:
192,192,41249,1,0,0:0:0:0:
320,192,41372,1,0,0:0:0:0:
64,192,41495,1,0,0:0:0:0:
448,192,41618,1,0,0:0:0:0:
320,192,41618,1,0,0:0:0:0:
192,192,41741,1,0,0:0:0:0:
320,192,41864,1,0,0:0:0:0:
448,192,41987,1,0,0:0:0:0:
192,192,42110,1,0,0:0:0:0:
64,192,42110,1,0,0:0:0:0:
320,192,42233,1,0,0:0:0:0:
64,192,42356,1,0,0:0:0:0:
320,192,42479,1,0,0:0:0:0:
448,192,42602,1,0,0:0:0:0:
192,192,42602,1,0,0:0:0:0:
320,192,42725,1,0,0:0:0:0:
192,192,42848,1,0,0:0:0:0:
64,192,42971,1,0,0:0:0:0:
448,192,43094,1,0,0:0:0:0:
192,192,43094,1,0,0:0:0:0:
320,192,43217,1,0,0:0:0:0:
448,192,43339,1,0,0:0:0:0:
320,192,43462,1,0,0:0:0:0:
64,192,43585,1,0,0:0:0:0:
448,192,43585,1,0,0:0:0:0:
192,192,43708,1,0,0:0:0:0:
320,192,43831,1,0,0:0:0:0:
448,192,43954,1,0,0:0:0:0:
320,192,44077,1,0,0:0:0:0:
192,192,44077,1,0,0:0:0:0:
64,192,44200,1,0,0:0:0:0:
192,192,44323,1,0,0:0:0:0:
320,192,44446,1,0,0:0:0:0:
64,192,44569,1,0,0:0:0:0:
448,192,44569,1,0,0:0:0:0:
320,192,44692,1,0,0:0:0:0:
192,192,44815,1,0,0:0:0:0:
448,192,44938,1,0,0:0:0:0:
320,192,45061,1,0,0:0:0:0:
64,192,45061,1,0,0:0:0:0:
64,192,45184,1,0,0:0:0:0:
320,192,45307,1,0,0:0:0:0:
320,192,45430,1,0,0:0:0:0:
64,192,45553,1,0,0:0:0:0:
192,192,45553,1,0,0:0:0:0:
448,192,45676,1,0,0:0:0:0:
320,192,45798,1,0,0:0:0:0:
192,192,45921,1,0,0:0:0:0:
448,192,46044,1,0,0:0:0:0:
320,192,46044,1,0,0:0:0:0:
448,192,46167,1,0,0:0:0:0:
192,192,46290,1,0,0:0:0:0:
192,192,46413,1,0,0:0:0:0:
64,192,46536,1,0,0:0:0:0:
320,192,46536,1,0,0:0:0:0:
192,192,46659,1,0,0:0:0:0:
320,192,46782,1,0,0:0:0:0:
448,192,46905,1,0,0:0:0:0:
320,192,47028,1,0,0:0:0:0:
192,192,47028,1,0,0:0:0:0:
64,192,47151,1,0,0:0:0:0:
192,192,47274,1,0,0:0:0:0:
64,192,47397,1,0,0:0:0:0:
448,192,47520,1,0,0:0:0:0:
320,192,47520,1,0,0:0:0:0:
192,192,47581,1,0,0:0:0:0:
64,192,47643,1,0,0:0:0:0:
448,192,47766,1,0,0:0:0:0:
192,192,47889,1,0,0:0:0:0:
320,192,48012,1,0,0:0:0:0:
64,192,48012,1,0,0:0:0:0:
192,192,48135,1,0,0:0:0:0:
320,192,48196,1,0,0:0:0:0:
448,192,48257,1,0,0:0:0:0:
64,192,48380,1,0,0:0:0:0:
192,192,48503,1,0,0:0:0:0:
320,192,48503,1,0,0:0:0:0:
448,192,48503,1,0,0:0:0:0:
64,192,48626,1,0,0:0:0:0:
192,192,48749,1,0,0:0:0:0:
448,192,48872,1,0,0:0:0:0:
64,192,48995,1,0,0:0:0:0:
192,192,48995,1,0,0:0:0:0:
320,192,49118,1,0,0:0:0:0:
448,192,49241,1,0,0:0:0:0:
192,192,49364,1,0,0:0:0:0:
320,192,49487,1,0,0:0:0:0:
448,192,49487,1,0,0:0:0:0:
64,192,49610,1,0,0:0:0:0:
192,192,49733,1,0,0:0:0:0:
448,192,49856,1,0,0:0:0:0:
320,192,49979,1,0,0:0:0:0:
192,192,49979,1,0,0:0:0:0:
64,192,49979,1,0,0:0:0:0:
448,192,50102,1,0,0:0:0:0:
320,192,50225,1,0,0:0:0:0:
64,192,50348,1,0,0:0:0:0:
448,192,50471,1,0,0:0:0:0:
192,192,50471,1,0,0:0:0:0:
64,192,50594,1,0,0:0:0:0:
320,192,50717,1,0,0:0:0:0:
448,192,50839,1,0,0:0:0:0:
320,192,50962,1,0,0:0:0:0:
64,192,50962,1,0,0:0:0:0:
192,192,51085,1,0,0:0:0:0:
448,192,51208,1,0,0:0:0:0:
320,192,51331,1,0,0:0:0:0:
64,192,51454,1,0,0:0:0:0:
192,192,51454,1,0,0:0:0:0:
448,192,51577,1,0,0:0:0:0:
64,192,51700,1,0,0:0:0:0:
320,192,51823,1,0,0:0:0:0:
448,192,51946,1,0,0:0:0:0:
192,192,51946,1,0,0:0:0:0:
64,192,52069,1,0,0:0:0:0:
192,192,52192,1,0,0:0:0:0:
448,192,52315,1,0,0:0:0:0:
192,192,52438,1,0,0:0:0:0:
64,192,52438,1,0,0:0:0:0:
320,192,52561,1,0,0:0:0:0:
320,192,52807,1,0,0:0:0:0:
64,192,52930,1,0,0:0:0:0:
192,192,52930,1,0,0:0:0:0:
448,192,52930,1,0,0:0:0:0:
320,192,53053,1,0,0:0:0:0:
448,192,53176,1,0,0:0:0:0:
64,192,53298,1,0,0:0:0:0:
192,192,53421,1,0,0:0:0:0:
448,192,53421,1,0,0:0:0:0:
320,192,53544,1,0,0:0:0:0:
64,192,53667,1,0,0:0:0:0:
192,192,53790,1,0,0:0:0:0:
448,192,53790,1,0,0:0:0:0:
320,192,54036,1,0,0:0:0:0:
64,192,54036,1,0,0:0:0:0:
192,192,54282,1,0,0:0:0:0:
320,192,54282,1,0,0:0:0:0:
448,192,54528,1,0,0:0:0:0:
64,192,54528,1,0,0:0:0:0:
448,192,54774,1,0,0:0:0:0:
320,192,54774,1,0,0:0:0:0:
192,192,55020,1,0,0:0:0:0:
64,192,55020,1,0,0:0:0:0:
320,192,55143,1,0,0:0:0:0:
192,192,55266,1,0,0:0:0:0:
448,192,55389,1,0,0:0:0:0:
64,192,55389,1,0,0:0:0:0:
320,192,55389,1,0,0:0:0:0:
192,192,55512,1,0,0:0:0:0:
448,192,55635,1,0,0:0:0:0:
320,192,55757,1,0,0:0:0:0:
192,192,55880,1,0,0:0:0:0:
448,192,56003,1,0,0:0:0:0:
192,192,56126,1,0,0:0:0:0:
320,192,56249,1,0,0:0:0:0:
64,192,56372,1,0,0:0:0:0:
320,192,56495,1,0,0:0:0:0:
448,192,56618,1,0,0:0:0:0:
192,192,56618,1,0,0:0:0:0:
64,192,56741,1,0,0:0:0:0:
320,192,56864,1,0,0:0:0:0:
192,192,56987,1,0,0:0:0:0:
448,192,57110,1,0,0:0:0:0:
192,192,57233,1,0,0:0:0:0:
320,192,57356,1,0,0:0:0:0:
64,192,57479,1,0,0:0:0:0:
448,192,57602,1,0,0:0:0:0:
192,192,57602,1,0,0:0:0:0:
192,192,57725,1,0,0:0:0:0:
448,192,57725,1,0,0:0:0:0:
64,192,57848,1,0,0:0:0:0:
320,192,57848,1,0,0:0:0:0:
320,192,57971,1,0,0:0:0:0:
64,192,57971,1,0,0:0:0:0:
64,192,58094,1,0,0:0:0:0:
448,192,58094,1,0,0:0:0:0:
448,192,58217,1,0,0:0:0:0:
192,192,58339,1,0,0:0:0:0:
320,192,58462,1,0,0:0:0:0:
448,192,58585,1,0,0:0:0:0:
192,192,58708,1,0,0:0:0:0:
320,192,58831,1,0,0:0:0:0:
64,192,58954,1,0,0:0:0:0:
192,192,58954,1,0,0:0:0:0:
320,192,59077,1,0,0:0:0:0:
192,192,59200,1,0,0:0:0:0:
64,192,59200,1,0,0:0:0:0:
448,192,59323,1,0,0:0:0:0:
64,192,59323,1,0,0:0:0:0:
320,192,59446,1,0,0:0:0:0:
192,192,59569,1,0,0:0:0:0:
64,192,59692,1,0,0:0:0:0:
320,192,59815,1,0,0:0:0:0:
192,192,59815,1,0,0:0:0:0:
192,192,59938,1,0,0:0:0:0:
448,192,60061,1,0,0:0:0:0:
320,192,60061,1,0,0:0:0:0:
64,192,60184,1,0,0:0:0:0:
192,192,60184,1,0,0:0:0:0:
320,192,60307,1,0,0:0:0:0:
448,192,60307,1,0,0:0:0:0:
192,192,60430,1,0,0:0:0:0:
320,192,60553,1,0,0:0:0:0:
64,192,60553,1,0,0:0:0:0:
192,192,60676,1,0,0:0:0:0:
448,192,60676,1,0,0:0:0:0:
320,192,60798,1,0,0:0:0:0:
64,192,60798,1,0,0:0:0:0:
192,192,60921,1,0,0:0:0:0:
448,192,61044,1,0,0:0:0:0:
320,192,61167,1,0,0:0:0:0:
64,192,61290,1,0,0:0:0:0:
320,192,61413,1,0,0:0:0:0:
448,192,61536,1,0,0:0:0:0:
192,192,61659,1,0,0:0:0:0:
320,192,61782,1,0,0:0:0:0:
64,192,61905,1,0,0:0:0:0:
192,192,61905,1,0,0:0:0:0:
448,192,62028,1,0,0:0:0:0:
64,192,62028,1,0,0:0:0:0:
320,192,62151,1,0,0:0:0:0:
192,192,62274,1,0,0:0:0:0:
448,192,62397,1,0,0:0:0:0:
64,192,62520,1,0,0:0:0:0:
320,192,62643,1,0,0:0:0:0:
192,192,62766,1,0,0:0:0:0:
64,192,62889,1,0,0:0:0:0:
448,192,63012,1,0,0:0:0:0:
192,192,63135,1,0,0:0:0:0:
320,192,63257,1,0,0:0:0:0:
64,192,63380,1,0,0:0:0:0:
192,192,63503,1,0,0:0:0:0:
320,192,63503,1,0,0:0:0:0:
448,192,63626,1,0,0:0:0:0:
64,192,63749,1,0,0:0:0:0:
192,192,63811,1,0,0:0:0:0:
320,192,63872,1,0,0:0:0:0:
448,192,63934,1,0,0:0:0:0:
64,192,63995,1,0,0:0:0:0:
192,192,64118,1,0,0:0:0:0:
320,192,64241,1,0,0:0:0:0:
448,192,64364,1,0,0:0:0:0:
192,192,64487,1,0,0:0:0:0:
320,192,64610,1,0,0:0:0:0:
448,192,64733,1,0,0:0:0:0:
192,192,64856,1,0,0:0:0:0:
64,192,64979,1,0,0:0:0:0:
448,192,64979,1,0,0:0:0:0:
320,192,65102,1,0,0:0:0:0:
448,192,65225,1,0,0:0:0:0:
320,192,65286,1,0,0:0:0:0:
192,192,65348,1,0,0:0:0:0:
64,192,65409,1,0,0:0:0:0:
448,192,65471,1,0,0:0:0:0:
320,192,65594,1,0,0:0:0:0:
192,192,65717,1,0,0:0:0:0:
64,192,65839,1,0,0:0:0:0:
320,192,65962,1,0,0:0:0:0:
192,192,66085,1,0,0:0:0:0:
64,192,66208,1,0,0:0:0:0:
448,192,66208,1,0,0:0:0:0:
320,192,66454,1,0,0:0:0:0:
192,192,66577,1,0,0:0:0:0:
448,192,66700,128,0,66946:0:0:0:0:
64,192,66946,1,0,0:0:0:0:
320,192,67069,1,0,0:0:0:0:
64,192,67192,1,0,0:0:0:0:
192,192,67315,1,0,0:0:0:0:
320,192,67438,1,0,0:0:0:0:
448,192,67561,1,0,0:0:0:0:
320,192,67684,1,0,0:0:0:0:
64,192,67684,1,0,0:0:0:0:
448,192,67930,1,0,0:0:0:0:
192,192,68053,1,0,0:0:0:0:
448,192,68176,1,0,0:0:0:0:
64,192,68421,1,0,0:0:0:0:
192,192,68544,1,0,0:0:0:0:
64,192,68790,1,0,0:0:0:0:
192,192,69036,1,0,0:0:0:0:
448,192,69159,1,0,0:0:0:0:
320,192,69159,1,0,0:0:0:0:
192,192,69405,1,0,0:0:0:0:
320,192,69528,1,0,0:0:0:0:
64,192,69651,128,0,69897:0:0:0:0:
448,192,69774,1,0,0:0:0:0:
192,192,69897,1,0,0:0:0:0:
320,192,70020,1,0,0:0:0:0:
192,192,70266,1,0,0:0:0:0:
192,192,70512,1,0,0:0:0:0:
320,192,70635,1,0,0:0:0:0:
64,192,70635,1,0,0:0:0:0:
64,192,70880,1,0,0:0:0:0:
192,192,71003,1,0,0:0:0:0:
448,192,71126,1,0,0:0:0:0:
320,192,71249,1,0,0:0:0:0:
192,192,71372,1,0,0:0:0:0:
64,192,71495,1,0,0:0:0:0:
448,192,71618,1,0,0:0:0:0:
320,192,71741,1,0,0:0:0:0:
192,192,71864,1,0,0:0:0:0:
64,192,71987,1,0,0:0:0:0:
448,192,72048,1,0,0:0:0:0:
64,192,72110,1,0,0:0:0:0:
192,192,72233,1,0,0:0:0:0:
320,192,72356,1,0,0:0:0:0:
448,192,72479,1,0,0:0:0:0:
192,192,72602,1,0,0:0:0:0:
64,192,72602,1,0,0:0:0:0:
64,192,72848,1,0,0:0:0:0:
320,192,72971,1,0,0:0:0:0:
192,192,73094,1,0,0:0:0:0:
448,192,73094,128,0,73339:0:0:0:0:
64,192,73217,1,0,0:0:0:0:
320,192,73339,1,0,0:0:0:0:
192,192,73462,1,0,0:0:0:0:
64,192,73585,1,0,0:0:0:0:
320,192,73708,1,0,0:0:0:0:
192,192,73831,1,0,0:0:0:0:
448,192,73954,1,0,0:0:0:0:
320,192,74077,1,0,0:0:0:0:
64,192,74077,1,0,0:0:0:0:
192,192,74323,1,0,0:0:0:0:
320,192,74446,1,0,0:0:0:0:
192,192,74569,1,0,0:0:0:0:
64,192,74815,1,0,0:0:0:0:
192,192,74938,1,0,0:0:0:0:
320,192,75061,1,0,0:0:0:0:
448,192,75061,1,0,0:0:0:0:
64,192,75184,1,0,0:0:0:0:
320,192,75307,1,0,0:0:0:0:
192,192,75307,1,0,0:0:0:0:
64,192,75430,1,0,0:0:0:0:
448,192,75430,1,0,0:0:0:0:
192,192,75553,1,0,0:0:0:0:
64,192,75553,1,0,0:0:0:0:
320,192,75676,1,0,0:0:0:0:
448,192,75676,1,0,0:0:0:0:
192,192,75798,1,0,0:0:0:0:
64,192,75798,1,0,0:0:0:0:
448,192,75921,1,0,0:0:0:0:
320,192,75921,1,0,0:0:0:0:
64,192,76290,1,0,0:0:0:0:
320,192,76290,1,0,0:0:0:0:
448,192,76413,1,0,0:0:0:0:
192,192,76413,1,0,0:0:0:0:
64,192,76536,1,0,0:0:0:0:
320,192,76536,1,0,0:0:0:0:
192,192,76659,1,0,0:0:0:0:
448,192,76659,1,0,0:0:0:0:
448,192,77028,1,0,0:0:0:0:
64,192,77028,1,0,0:0:0:0:
192,192,77151,1,0,0:0:0:0:
320,192,77151,1,0,0:0:0:0:
64,192,77274,1,0,0:0:0:0:
448,192,77274,1,0,0:0:0:0:
320,192,77397,1,0,0:0:0:0:
192,192,77397,1,0,0:0:0:0:
320,192,77643,1,0,0:0:0:0:
64,192,77643,1,0,0:0:0:0:
192,192,77889,1,0,0:0:0:0:
320,192,77889,1,0,0:0:0:0:
320,192,78135,1,0,0:0:0:0:
448,192,78135,1,0,0:0:0:0:
64,192,78380,1,0,0:0:0:0:
448,192,78380,1,0,0:0:0:0:
320,192,78626,1,0,0:0:0:0:
448,192,78626,1,0,0:0:0:0:
192,192,78872,1,0,0:0:0:0:
64,192,78872,1,0,0:0:0:0:
192,192,79118,1,0,0:0:0:0:
320,192,79118,1,0,0:0:0:0:
448,192,79303,1,0,0:0:0:0:
64,192,79303,1,0,0:0:0:0:
320,192,79610,1,0,0:0:0:0:
192,192,79610,1,0,0:0:0:0:
448,192,79671,1,0,0:0:0:0:
64,192,79733,1,0,0:0:0:0:
192,192,79794,1,0,0:0:0:0:
320,192,79856,1,0,0:0:0:0:
448,192,79917,1,0,0:0:0:0:
64,192,79979,1,0,0:0:0:0:
192,192,79979,1,0,0:0:0:0:
320,192,80040,1,0,0:0:0:0:
64,192,80102,1,0,0:0:0:0:
320,192,80163,1,0,0:0:0:0:
64,192,80225,1,0,0:0:0:0:
192,192,80286,1,0,0:0:0:0:
320,192,80348,1,0,0:0:0:0:
448,192,80409,1,0,0:0:0:0:
64,192,80471,1,0,0:0:0:0:
192,192,80471,1,0,0:0:0:0:
320,192,80594,1,0,0:0:0:0:
64,192,80717,1,0,0:0:0:0:
448,192,80839,1,0,0:0:0:0:
192,192,80962,1,0,0:0:0:0:
320,192,81085,1,0,0:0:0:0:
64,192,81208,1,0,0:0:0:0:
448,192,81331,1,0,0:0:0:0:
192,192,81454,1,0,0:0:0:0:
64,192,81577,1,0,0:0:0:0:
192,192,81639,1,0,0:0:0:0:
64,192,81700,1,0,0:0:0:0:
320,192,81700,1,0,0:0:0:0:
192,192,81823,1,0,0:0:0:0:
448,192,81946,1,0,0:0:0:0:
320,192,82069,1,0,0:0:0:0:
448,192,82192,1,0,0:0:0:0:
64,192,82315,1,0,0:0:0:0:
320,192,82438,1,0,0:0:0:0:
448,192,82561,1,0,0:0:0:0:
64,192,82684,1,0,0:0:0:0:
192,192,82684,1,0,0:0:0:0:
64,192,82807,1,0,0:0:0:0:
192,192,82807,1,0,0:0:0:0:
320,192,82930,1,0,0:0:0:0:
448,192,82930,1,0,0:0:0:0:
448,192,83053,1,0,0:0:0:0:
320,192,83053,1,0,0:0:0:0:
64,192,83176,1,0,0:0:0:0:
448,192,83176,1,0,0:0:0:0:
320,192,83298,1,0,0:0:0:0:
192,192,83421,1,0,0:0:0:0:
64,192,83544,1,0,0:0:0:0:
320,192,83667,1,0,0:0:0:0:
448,192,83790,1,0,0:0:0:0:
64,192,83913,1,0,0:0:0:0:
320,192,84036,1,0,0:0:0:0:
192,192,84159,1,0,0:0:0:0:
448,192,84282,1,0,0:0:0:0:
320,192,84344,1,0,0:0:0:0:
192,192,84405,1,0,0:0:0:0:
448,192,84405,1,0,0:0:0:0:
64,192,84528,1,0,0:0:0:0:
320,192,84651,1,0,0:0:0:0:
192,192,84774,1,0,0:0:0:0:
448,192,84897,1,0,0:0:0:0:
192,192,85020,1,0,0:0:0:0:
320,192,85143,1,0,0:0:0:0:
448,192,85266,1,0,0:0:0:0:
320,192,85327,1,0,0:0:0:0:
192,192,85389,1,0,0:0:0:0:
64,192,85389,1,0,0:0:0:0:
448,192,85512,1,0,0:0:0:0:
64,192,85635,1,0,0:0:0:0:
192,192,85696,1,0,0:0:0:0:
320,192,85757,1,0,0:0:0:0:
64,192,85880,1,0,0:0:0:0:
448,192,85880,1,0,0:0:0:0:
192,192,86126,1,0,0:0:0:0:
320,192,86249,1,0,0:0:0:0:
64,192,86372,1,0,0:0:0:0:
448,192,86495,1,0,0:0:0:0:
192,192,86618,1,0,0:0:0:0:
448,192,86741,1,0,0:0:0:0:
320,192,86864,1,0,0:0:0:0:
192,192,86987,1,0,0:0:0:0:
320,192,87048,1,0,0:0:0:0:
64,192,87110,1,0,0:0:0:0:
448,192,87110,1,0,0:0:0:0:
192,192,87233,1,0,0:0:0:0:
320,192,87356,1,0,0:0:0:0:
320,192,87602,1,0,0:0:0:0:
64,192,87602,1,0,0:0:0:0:
192,192,87725,1,0,0:0:0:0:
448,192,87786,1,0,0:0:0:0:
192,192,87848,1,0,0:0:0:0:
64,192,87848,1,0,0:0:0:0:
320,192,87971,1,0,0:0:0:0:
192,192,88094,1,0,0:0:0:0:
448,192,88217,1,0,0:0:0:0:
320,192,88339,1,0,0:0:0:0:
64,192,88462,1,0,0:0:0:0:
320,192,88585,1,0,0:0:0:0:
448,192,88585,1,0,0:0:0:0:
192,192,88708,1,0,0:0:0:0:
64,192,88831,1,0,0:0:0:0:
192,192,88893,1,0,0:0:0:0:
320,192,88954,1,0,0:0:0:0:
448,192,89016,1,0,0:0:0:0:
64,192,89077,1,0,0:0:0:0:
192,192,89077,1,0,0:0:0:0:
320,192,89200,1,0,0:0:0:0:
448,192,89323,1,0,0:0:0:0:
192,192,89446,1,0,0:0:0:0:
64,192,89446,1,0,0:0:0:0:
320,192,89569,1,0,0:0:0:0:
192,192,89569,1,0,0:0:0:0:
64,192,89692,1,0,0:0:0:0:
448,192,89692,1,0,0:0:0:0:
192,192,89815,1,0,0:0:0:0:
320,192,89938,1,0,0:0:0:0:
64,192,89938,1,0,0:0:0:0:
192,192,90061,1,0,0:0:0:0:
448,192,90061,1,0,0:0:0:0:
320,192,90184,1,0,0:0:0:0:
448,192,90307,1,0,0:0:0:0:
320,192,90368,1,0,0:0:0:0:
192,192,90430,1,0,0:0:0:0:
64,192,90491,1,0,0:0:0:0:
448,192,90553,1,0,0:0:0:0:
320,192,90553,1,0,0:0:0:0:
192,192,90676,1,0,0:0:0:0:
320,192,90798,1,0,0:0:0:0:
64,192,90921,1,0,0:0:0:0:
448,192,91044,1,0,0:0:0:0:
192,192,91044,1,0,0:0:0:0:
320,192,91167,1,0,0:0:0:0:
192,192,91290,1,0,0:0:0:0:
64,192,91413,1,0,0:0:0:0:
192,192,91536,1,0,0:0:0:0:
448,192,91536,1,0,0:0:0:0:
320,192,91659,1,0,0:0:0:0:
64,192,91782,1,0,0:0:0:0:
192,192,91844,1,0,0:0:0:0:
320,192,91905,1,0,0:0:0:0:
448,192,91967,1,0,0:0:0:0:
192,192,92028,1,0,0:0:0:0:
64,192,92028,1,0,0:0:0:0:
320,192,92151,1,0,0:0:0:0:
448,192,92274,1,0,0:0:0:0:
192,192,92397,1,0,0:0:0:0:
320,192,92397,1,0,0:0:0:0:
320,192,92520,1,0,0:0:0:0:
64,192,92520,1,0,0:0:0:0:
192,192,92643,1,0,0:0:0:0:
64,192,92643,1,0,0:0:0:0:
448,192,92766,1,0,0:0:0:0:
320,192,92889,1,0,0:0:0:0:
64,192,92889,1,0,0:0:0:0:
448,192,93012,1,0,0:0:0:0:
192,192,93012,1,0,0:0:0:0:
320,192,93135,1,0,0:0:0:0:
448,192,93257,1,0,0:0:0:0:
320,192,93319,1,0,0:0:0:0:
192,192,93380,1,0,0:0:0:0:
64,192,93442,1,0,0:0:0:0:
320,192,93503,1,0,0:0:0:0:
448,192,93503,1,0,0:0:0:0:
192,192,93626,1,0,0:0:0:0:
320,192,93749,1,0,0:0:0:0:
64,192,93872,1,0,0:0:0:0:
192,192,93995,1,0,0:0:0:0:
448,192,93995,1,0,0:0:0:0:
320,192,94118,1,0,0:0:0:0:
192,192,94241,1,0,0:0:0:0:
64,192,94364,1,0,0:0:0:0:
448,192,94487,1,0,0:0:0:0:
320,192,94487,1,0,0:0:0:0:
192,192,94610,1,0,0:0:0:0:
64,192,94610,1,0,0:0:0:0:
320,192,94733,1,0,0:0:0:0:
448,192,94733,1,0,0:0:0:0:
192,192,94856,1,0,0:0:0:0:
64,192,94856,1,0,0:0:0:0:
192,192,95225,1,0,0:0:0:0:
320,192,95225,1,0,0:0:0:0:
64,192,95348,1,0,0:0:0:0:
448,192,95348,1,0,0:0:0:0:
192,192,95471,1,0,0:0:0:0:
320,192,95471,1,0,0:0:0:0:
64,192,95594,1,0,0:0:0:0:
448,192,95594,1,0,0:0:0:0:
448,192,95962,1,0,0:0:0:0:
192,192,95962,1,0,0:0:0:0:
64,192,96024,1,0,0:0:0:0:
320,192,96085,1,0,0:0:0:0:
64,192,96147,1,0,0:0:0:0:
320,192,96208,1,0,0:0:0:0:
192,192,96270,1,0,0:0:0:0:
448,192,96331,1,0,0:0:0:0:
192,192,96393,1,0,0:0:0:0:
64,192,96454,1,0,0:0:0:0:
448,192,96454,1,0,0:0:0:0:
320,192,96516,1,0,0:0:0:0:
192,192,96577,1,0,0:0:0:0:
448,192,96639,1,0,0:0:0:0:
64,192,96700,1,0,0:0:0:0:
192,192,96762,1,0,0:0:0:0:
320,192,96823,1,0,0:0:0:0:
448,192,96823,1,0,0:0:0:0:
64,192,96885,1,0,0:0:0:0:
192,192,96946,1,0,0:0:0:0:
448,192,97007,1,0,0:0:0:0:
64,192,97069,1,0,0:0:0:0:
320,192,97130,1,0,0:0:0:0:
192,192,97192,1,0,0:0:0:0:
448,192,97192,1,0,0:0:0:0:
64,192,97253,1,0,0:0:0:0:
320,192,97315,1,0,0:0:0:0:
192,192,97376,1,0,0:0:0:0:
448,192,97438,1,0,0:0:0:0:
320,192,97438,1,0,0:0:0:0:
64,192,97499,1,0,0:0:0:0:
192,192,97561,1,0,0:0:0:0:
448,192,97622,1,0,0:0:0:0:
64,192,97684,1,0,0:0:0:0:
192,192,97745,1,0,0:0:0:0:
320,192,97807,1,0,0:0:0:0:
448,192,97868,1,0,0:0:0:0:
192,192,97930,1,0,0:0:0:0:
64,192,97930,1,0,0:0:0:0:
320,192,97991,1,0,0:0:0:0:
448,192,98053,1,0,0:0:0:0:
320,192,98114,1,0,0:0:0:0:
192,192,98176,1,0,0:0:0:0:
64,192,98176,1,0,0:0:0:0:
448,192,98237,1,0,0:0:0:0:
320,192,98298,1,0,0:0:0:0:
192,192,98360,1,0,0:0:0:0:
448,192,98421,1,0,0:0:0:0:
64,192,98421,1,0,0:0:0:0:
192,192,98483,1,0,0:0:0:0:
320,192,98544,1,0,0:0:0:0:
448,192,98606,1,0,0:0:0:0:
64,192,98667,1,0,0:0:0:0:
192,192,98729,1,0,0:0:0:0:
320,192,98790,1,0,0:0:0:0:
448,192,98790,1,0,0:0:0:0:
192,192,98852,1,0,0:0:0:0:
64,192,98913,1,0,0:0:0:0:
448,192,98975,1,0,0:0:0:0:
320,192,99036,1,0,0:0:0:0:
192,192,99098,1,0,0:0:0:0:
64,192,99159,1,0,0:0:0:0:
448,192,99159,1,0,0:0:0:0:
320,192,99221,1,0,0:0:0:0:
448,192,99282,1,0,0:0:0:0:
192,192,99344,1,0,0:0:0:0:
320,192,99405,1,0,0:0:0:0:
64,192,99405,1,0,0:0:0:0:
448,192,99467,1,0,0:0:0:0:
192,192,99528,1,0,0:0:0:0:
320,192,99589,1,0,0:0:0:0:
64,192,99651,1,0,0:0:0:0:
192,192,99712,1,0,0:0:0:0:
448,192,99774,1,0,0:0:0:0:
320,192,99774,1,0,0:0:0:0:
64,192,99835,1,0,0:0:0:0:
320,192,99897,1,0,0:0:0:0:
192,192,99958,1,0,0:0:0:0:
448,192,100020,1,0,0:0:0:0:
320,192,100081,1,0,0:0:0:0:
64,192,100143,1,0,0:0:0:0:
192,192,100143,1,0,0:0:0:0:
448,192,100204,1,0,0:0:0:0:
320,192,100266,1,0,0:0:0:0:
64,192,100327,1,0,0:0:0:0:
192,192,100389,1,0,0:0:0:0:
320,192,100389,1,0,0:0:0:0:
448,192,100450,1,0,0:0:0:0:
192,192,100512,1,0,0:0:0:0:
320,192,100573,1,0,0:0:0:0:
64,192,100635,1,0,0:0:0:0:
448,192,100696,1,0,0:0:0:0:
320,192,100757,1,0,0:0:0:0:
192,192,100757,1,0,0:0:0:0:
64,192,100819,1,0,0:0:0:0:
448,192,100880,1,0,0:0:0:0:
192,192,100942,1,0,0:0:0:0:
320,192,101003,1,0,0:0:0:0:
64,192,101065,1,0,0:0:0:0:
448,192,101126,1,0,0:0:0:0:
192,192,101126,1,0,0:0:0:0:
320,192,101188,1,0,0:0:0:0:
64,192,101249,1,0,0:0:0:0:
192,192,101311,1,0,0:0:0:0:
448,192,101372,1,0,0:0:0:0:
320,192,101372,1,0,0:0:0:0:
64,192,101434,1,0,0:0:0:0:
192,192,101495,1,0,0:0:0:0:
320,192,101557,1,0,0:0:0:0:
448,192,101618,1,0,0:0:0:0:
64,192,101680,1,0,0:0:0:0:
192,192,101741,1,0,0:0:0:0:
320,192,101803,1,0,0:0:0:0:
448,192,101864,1,0,0:0:0:0:
64,192,101864,1,0,0:0:0:0:
192,192,101926,1,0,0:0:0:0:
448,192,101987,1,0,0:0:0:0:
320,192,102048,1,0,0:0:0:0:
64,192,102110,1,0,0:0:0:0:
192,192,102110,1,0,0:0:0:0:
448,192,102171,1,0,0:0:0:0:
320,192,102233,1,0,0:0:0:0:
64,192,102294,1,0,0:0:0:0:
320,192,102356,1,0,0:0:0:0:
192,192,102356,1,0,0:0:0:0:
64,192,102417,1,0,0:0:0:0:
192,192,102479,1,0,0:0:0:0:
320,192,102540,1,0,0:0:0:0:
64,192,102602,1,0,0:0:0:0:
448,192,102663,1,0,0:0:0:0:
192,192,102725,1,0,0:0:0:0:
320,192,102725,1,0,0:0:0:0:
64,192,102786,1,0,0:0:0:0:
448,192,102848,1,0,0:0:0:0:
192,192,102909,1,0,0:0:0:0:
320,192,102971,1,0,0:0:0:0:
448,192,103032,1,0,0:0:0:0:
192,192,103094,1,0,0:0:0:0:
64,192,103094,1,0,0:0:0:0:
320,192,103155,1,0,0:0:0:0:
448,192,103217,1,0,0:0:0:0:
320,192,103278,1,0,0:0:0:0:
64,192,103339,1,0,0:0:0:0:
192,192,103339,1,0,0:0:0:0:
448,192,103401,1,0,0:0:0:0:
320,192,103462,1,0,0:0:0:0:
192,192,103524,1,0,0:0:0:0:
64,192,103585,1,0,0:0:0:0:
448,192,103585,1,0,0:0:0:0:
320,192,103647,1,0,0:0:0:0:
192,192,103708,1,0,0:0:0:0:
64,192,103708,1,0,0:0:0:0:
320,192,103770,1,0,0:0:0:0:
448,192,103831,1,0,0:0:0:0:
64,192,103893,1,0,0:0:0:0:
192,192,103954,1,0,0:0:0:0:
320,192,104016,1,0,0:0:0:0:
448,192,104077,1,0,0:0:0:0:
64,192,104077,1,0,0:0:0:0:
192,192,104139,1,0,0:0:0:0:
320,192,104200,1,0,0:0:0:0:
64,192,104262,1,0,0:0:0:0:
192,192,104323,1,0,0:0:0:0:
448,192,104323,1,0,0:0:0:0:
320,192,104385,1,0,0:0:0:0:
64,192,104446,1,0,0:0:0:0:
192,192,104507,1,0,0:0:0:0:
448,192,104569,1,0,0:0:0:0:
320,192,104630,1,0,0:0:0:0:
64,192,104692,1,0,0:0:0:0:
192,192,104692,1,0,0:0:0:0:
448,192,104753,1,0,0:0:0:0:
320,192,104815,1,0,0:0:0:0:
64,192,104876,1,0,0:0:0:0:
192,192,104938,1,0,0:0:0:0:
448,192,104999,1,0,0:0:0:0:
320,192,105061,1,0,0:0:0:0:
64,192,105061,1,0,0:0:0:0:
192,192,105122,1,0,0:0:0:0:
448,192,105184,1,0,0:0:0:0:
320,192,105245,1,0,0:0:0:0:
448,192,105307,1,0,0:0:0:0:
192,192,105307,1,0,0:0:0:0:
64,192,105368,1,0,0:0:0:0:
320,192,105430,1,0,0:0:0:0:
192,192,105491,1,0,0:0:0:0:
448,192,105553,1,0,0:0:0:0:
320,192,105614,1,0,0:0:0:0:
192,192,105676,1,0,0:0:0:0:
64,192,105737,1,0,0:0:0:0:
192,192,105798,1,0,0:0:0:0:
320,192,105798,1,0,0:0:0:0:
448,192,105860,1,0,0:0:0:0:
64,192,105921,1,0,0:0:0:0:
320,192,105983,1,0,0:0:0:0:
192,192,106044,1,0,0:0:0:0:
448,192,106106,1,0,0:0:0:0:
320,192,106167,1,0,0:0:0:0:
192,192,106229,1,0,0:0:0:0:
64,192,106290,1,0,0:0:0:0:
448,192,106290,1,0,0:0:0:0:
320,192,106352,1,0,0:0:0:0:
448,192,106413,1,0,0:0:0:0:
192,192,106475,1,0,0:0:0:0:
64,192,106536,1,0,0:0:0:0:
320,192,106598,1,0,0:0:0:0:
448,192,106659,1,0,0:0:0:0:
192,192,106659,1,0,0:0:0:0:
320,192,106721,1,0,0:0:0:0:
192,192,106782,1,0,0:0:0:0:
64,192,106844,1,0,0:0:0:0:
320,192,106905,1,0,0:0:0:0:
448,192,106967,1,0,0:0:0:0:
192,192,107028,1,0,0:0:0:0:
64,192,107028,1,0,0:0:0:0:
320,192,107089,1,0,0:0:0:0:
448,192,107151,1,0,0:0:0:0:
64,192,107212,1,0,0:0:0:0:
448,192,107274,1,0,0:0:0:0:
192,192,107274,1,0,0:0:0:0:
320,192,107335,1,0,0:0:0:0:
192,192,107397,1,0,0:0:0:0:
64,192,107458,1,0,0:0:0:0:
320,192,107520,1,0,0:0:0:0:
192,192,107581,1,0,0:0:0:0:
64,192,107643,1,0,0:0:0:0:
448,192,107643,1,0,0:0:0:0:
192,192,107704,1,0,0:0:0:0:
320,192,107766,1,0,0:0:0:0:
448,192,107827,1,0,0:0:0:0:
64,192,107889,1,0,0:0:0:0:
192,192,107950,1,0,0:0:0:0:
448,192,108012,1,0,0:0:0:0:
64,192,108012,1,0,0:0:0:0:
320,192,108073,1,0,0:0:0:0:
192,192,108135,1,0,0:0:0:0:
448,192,108196,1,0,0:0:0:0:
320,192,108257,1,0,0:0:0:0:
64,192,108257,1,0,0:0:0:0:
192,192,108319,1,0,0:0:0:0:
448,192,108380,1,0,0:0:0:0:
320,192,108442,1,0,0:0:0:0:
192,192,108503,1,0,0:0:0:0:
64,192,108503,1,0,0:0:0:0:
448,192,108565,1,0,0:0:0:0:
64,192,108626,1,0,0:0:0:0:
320,192,108626,1,0,0:0:0:0:
192,192,108688,1,0,0:0:0:0:
448,192,108749,1,0,0:0:0:0:
64,192,108811,1,0,0:0:0:0:
320,192,108872,1,0,0:0:0:0:
192,192,108934,1,0,0:0:0:0:
448,192,108995,1,0,0:0:0:0:
64,192,108995,1,0,0:0:0:0:
320,192,109057,1,0,0:0:0:0:
448,192,109118,1,0,0:0:0:0:
192,192,109180,1,0,0:0:0:0:
64,192,109241,1,0,0:0:0:0:
320,192,109241,1,0,0:0:0:0:
448,192,109303,1,0,0:0:0:0:
192,192,109364,1,0,0:0:0:0:
64,192,109426,1,0,0:0:0:0:
320,192,109487,1,0,0:0:0:0:
448,192,109487,1,0,0:0:0:0:
192,192,109548,1,0,0:0:0:0:
448,192,109610,1,0,0:0:0:0:
64,192,109610,1,0,0:0:0:0:
320,192,109671,1,0,0:0:0:0:
192,192,109733,1,0,0:0:0:0:
448,192,109794,1,0,0:0:0:0:
64,192,109856,1,0,0:0:0:0:
192,192,109917,1,0,0:0:0:0:
320,192,109979,1,0,0:0:0:0:
448,192,109979,1,0,0:0:0:0:
64,192,110040,1,0,0:0:0:0:
320,192,110102,1,0,0:0:0:0:
192,192,110163,1,0,0:0:0:0:
448,192,110225,1,0,0:0:0:0:
64,192,110225,1,0,0:0:0:0:
320,192,110286,1,0,0:0:0:0:
192,192,110348,1,0,0:0:0:0:
448,192,110409,1,0,0:0:0:0:
320,192,110471,1,0,0:0:0:0:
64,192,110471,1,0,0:0:0:0:
192,192,110532,1,0,0:0:0:0:
448,192,110594,1,0,0:0:0:0:
64,192,110594,1,0,0:0:0:0:
320,192,110655,1,0,0:0:0:0:
192,192,110717,1,0,0:0:0:0:
448,192,110778,1,0,0:0:0:0:
64,192,110839,1,0,0:0:0:0:
320,192,110839,1,0,0:0:0:0:
192,192,110901,1,0,0:0:0:0:
320,192,110962,1,0,0:0:0:0:
64,192,111024,1,0,0:0:0:0:
192,192,111085,1,0,0:0:0:0:
448,192,111085,1,0,0:0:0:0:
320,192,111147,1,0,0:0:0:0:
192,192,111208,1,0,0:0:0:0:
64,192,111270,1,0,0:0:0:0:
448,192,111331,1,0,0:0:0:0:
320,192,111393,1,0,0:0:0:0:
64,192,111454,1,0,0:0:0:0:
192,192,111516,1,0,0:0:0:0:
320,192,111577,1,0,0:0:0:0:
448,192,111639,1,0,0:0:0:0:
64,192,111700,1,0,0:0:0:0:
320,192,111762,1,0,0:0:0:0:
192,192,111823,1,0,0:0:0:0:
64,192,111946,1,0,0:0:0:0:
448,192,112007,1,0,0:0:0:0:
64,192,112069,1,0,0:0:0:0:
448,192,112130,1,0,0:0:0:0:
64,192,112192,1,0,0:0:0:0:
320,192,112192,1,0,0:0:0:0:
192,192,112253,1,0,0:0:0:0:
320,192,112315,1,0,0:0:0:0:
448,192,112376,1,0,0:0:0:0:
64,192,112438,1,0,0:0:0:0:
192,192,112499,1,0,0:0:0:0:
320,192,112561,1,0,0:0:0:0:
64,192,112561,1,0,0:0:0:0:
448,192,112622,1,0,0:0:0:0:
192,192,112684,1,0,0:0:0:0:
320,192,112745,1,0,0:0:0:0:
64,192,112807,1,0,0:0:0:0:
192,192,112868,1,0,0:0:0:0:
448,192,112930,1,0,0:0:0:0:
320,192,112930,1,0,0:0:0:0:
64,192,112991,1,0,0:0:0:0:
192,192,113053,1,0,0:0:0:0:
320,192,113114,1,0,0:0:0:0:
64,192,113176,1,0,0:0:0:0:
448,192,113176,1,0,0:0:0:0:
192,192,113237,1,0,0:0:0:0:
448,192,113298,1,0,0:0:0:0:
320,192,113360,1,0,0:0:0:0:
192,192,113421,1,0,0:0:0:0:
64,192,113483,1,0,0:0:0:0:
320,192,113544,1,0,0:0:0:0:
192,192,113606,1,0,0:0:0:0:
320,192,113667,1,0,0:0:0:0:
448,192,113667,1,0,0:0:0:0:
64,192,113729,1,0,0:0:0:0:
192,192,113790,1,0,0:0:0:0:
448,192,113852,1,0,0:0:0:0:
320,192,113913,1,0,0:0:0:0:
192,192,113913,1,0,0:0:0:0:
64,192,113975,1,0,0:0:0:0:
448,192,114036,1,0,0:0:0:0:
320,192,114098,1,0,0:0:0:0:
192,192,114159,1,0,0:0:0:0:
64,192,114159,1,0,0:0:0:0:
448,192,114221,1,0,0:0:0:0:
64,192,114282,1,0,0:0:0:0:
192,192,114344,1,0,0:0:0:0:
320,192,114405,1,0,0:0:0:0:
64,192,114467,1,0,0:0:0:0:
448,192,114528,1,0,0:0:0:0:
192,192,114528,1,0,0:0:0:0:
320,192,114589,1,0,0:0:0:0:
64,192,114651,1,0,0:0:0:0:
448,192,114712,1,0,0:0:0:0:
192,192,114774,1,0,0:0:0:0:
320,192,114835,1,0,0:0:0:0:
192,192,114897,1,0,0:0:0:0:
64,192,114897,1,0,0:0:0:0:
448,192,114958,1,0,0:0:0:0:
320,192,115020,1,0,0:0:0:0:
192,192,115081,1,0,0:0:0:0:
448,192,115143,1,0,0:0:0:0:
64,192,115143,1,0,0:0:0:0:
320,192,115204,1,0,0:0:0:0:
192,192,115266,1,0,0:0:0:0:
448,192,115327,1,0,0:0:0:0:
64,192,115389,1,0,0:0:0:0:
320,192,115450,1,0,0:0:0:0:
192,192,115512,1,0,0:0:0:0:
448,192,115512,1,0,0:0:0:0:
64,192,115573,1,0,0:0:0:0:
320,192,115635,1,0,0:0:0:0:
64,192,115696,1,0,0:0:0:0:
192,192,115757,1,0,0:0:0:0:
448,192,115819,1,0,0:0:0:0:
320,192,115880,1,0,0:0:0:0:
64,192,115880,1,0,0:0:0:0:
192,192,115942,1,0,0:0:0:0:
448,192,116003,1,0,0:0:0:0:
320,192,116065,1,0,0:0:0:0:
192,192,116126,1,0,0:0:0:0:
64,192,116126,1,0,0:0:0:0:
448,192,116188,1,0,0:0:0:0:
320,192,116249,1,0,0:0:0:0:
64,192,116311,1,0,0:0:0:0:
192,192,116372,1,0,0:0:0:0:
320,192,116434,1,0,0:0:0:0:
64,192,116495,1,0,0:0:0:0:
448,192,116495,1,0,0:0:0:0:
192,192,116557,1,0,0:0:0:0:
320,192,116618,1,0,0:0:0:0:
192,192,116680,1,0,0:0:0:0:
448,192,116741,1,0,0:0:0:0:
320,192,116803,1,0,0:0:0:0:
64,192,116864,1,0,0:0:0:0:
192,192,116864,1,0,0:0:0:0:
448,192,116926,1,0,0:0:0:0:
320,192,116987,1,0,0:0:0:0:
64,192,117048,1,0,0:0:0:0:
192,192,117110,1,0,0:0:0:0:
448,192,117110,1,0,0:0:0:0:
320,192,117171,1,0,0:0:0:0:
64,192,117233,1,0,0:0:0:0:
448,192,117294,1,0,0:0:0:0:
192,192,117356,1,0,0:0:0:0:
320,192,117417,1,0,0:0:0:0:
448,192,117479,1,0,0:0:0:0:
64,192,117540,1,0,0:0:0:0:
192,192,117602,1,0,0:0:0:0:
320,192,117602,1,0,0:0:0:0:
64,192,117663,1,0,0:0:0:0:
448,192,117725,1,0,0:0:0:0:
320,192,117786,1,0,0:0:0:0:
192,192,117848,1,0,0:0:0:0:
64,192,117848,1,0,0:0:0:0:
448,192,117909,1,0,0:0:0:0:
192,192,117971,1,0,0:0:0:0:
320,192,118032,1,0,0:0:0:0:
64,192,118094,1,0,0:0:0:0:
448,192,118094,1,0,0:0:0:0:
192,192,118155,1,0,0:0:0:0:
320,192,118217,1,0,0:0:0:0:
448,192,118278,1,0,0:0:0:0:
320,192,118339,1,0,0:0:0:0:
192,192,118401,1,0,0:0:0:0:
64,192,118462,1,0,0:0:0:0:
448,192,118462,1,0,0:0:0:0:
320,192,118524,1,0,0:0:0:0:
64,192,118585,1,0,0:0:0:0:
192,192,118647,1,0,0:0:0:0:
448,192,118708,1,0,0:0:0:0:
320,192,118770,1,0,0:0:0:0:
192,192,118831,1,0,0:0:0:0:
64,192,118831,1,0,0:0:0:0:
448,192,118893,1,0,0:0:0:0:
320,192,118954,1,0,0:0:0:0:
448,192,119016,1,0,0:0:0:0:
192,192,119077,1,0,0:0:0:0:
64,192,119077,1,0,0:0:0:0:
320,192,119139,1,0,0:0:0:0:
192,192,119200,1,0,0:0:0:0:
64,192,119262,1,0,0:0:0:0:
320,192,119323,1,0,0:0:0:0:
192,192,119323,1,0,0:0:0:0:
448,192,119385,1,0,0:0:0:0:
64,192,119446,1,0,0:0:0:0:
320,192,119446,1,0,0:0:0:0:
192,192,119507,1,0,0:0:0:0:
448,192,119569,1,0,0:0:0:0:
64,192,119630,1,0,0:0:0:0:
320,192,119692,1,0,0:0:0:0:
192,192,119753,1,0,0:0:0:0:
448,192,119815,1,0,0:0:0:0:
64,192,119876,1,0,0:0:0:0:
320,192,119938,1,0,0:0:0:0:
192,192,119999,1,0,0:0:0:0:
448,192,120061,1,0,0:0:0:0:
64,192,120061,1,0,0:0:0:0:
320,192,120122,1,0,0:0:0:0:
192,192,120184,1,0,0:0:0:0:
64,192,120245,1,0,0:0:0:0:
448,192,120307,1,0,0:0:0:0:
320,192,120307,1,0,0:0:0:0:
192,192,120368,1,0,0:0:0:0:
320,192,120430,1,0,0:0:0:0:
64,192,120430,1,0,0:0:0:0:
448,192,120491,1,0,0:0:0:0:
192,192,120553,1,0,0:0:0:0:
320,192,120614,1,0,0:0:0:0:
64,192,120676,1,0,0:0:0:0:
192,192,120737,1,0,0:0:0:0:
448,192,120798,1,0,0:0:0:0:
320,192,120798,1,0,0:0:0:0:
192,192,120860,1,0,0:0:0:0:
64,192,120921,1,0,0:0:0:0:
320,192,120983,1,0,0:0:0:0:
192,192,121044,1,0,0:0:0:0:
448,192,121044,1,0,0:0:0:0:
64,192,121106,1,0,0:0:0:0:
320,192,121167,1,0,0:0:0:0:
192,192,121229,1,0,0:0:0:0:
448,192,121290,1,0,0:0:0:0:
64,192,121352,1,0,0:0:0:0:
192,192,121413,1,0,0:0:0:0:
320,192,121475,1,0,0:0:0:0:
448,192,121536,1,0,0:0:0:0:
64,192,121536,1,0,0:0:0:0:
320,192,121598,1,0,0:0:0:0:
64,192,121659,1,0,0:0:0:0:
448,192,121721,1,0,0:0:0:0:
192,192,121782,1,0,0:0:0:0:
320,192,121782,1,0,0:0:0:0:
64,192,121844,1,0,0:0:0:0:
448,192,121905,1,0,0:0:0:0:
320,192,121967,1,0,0:0:0:0:
192,192,122028,1,0,0:0:0:0:
64,192,122028,1,0,0:0:0:0:
448,192,122089,1,0,0:0:0:0:
64,192,122151,1,0,0:0:0:0:
192,192,122212,1,0,0:0:0:0:
320,192,122274,1,0,0:0:0:0:
64,192,122335,1,0,0:0:0:0:
448,192,122397,1,0,0:0:0:0:
192,192,122397,1,0,0:0:0:0:
320,192,122458,1,0,0:0:0:0:
64,192,122520,1,0,0:0:0:0:
192,192,122581,1,0,0:0:0:0:
448,192,122643,1,0,0:0:0:0:
320,192,122704,1,0,0:0:0:0:
64,192,122766,1,0,0:0:0:0:
192,192,122766,1,0,0:0:0:0:
320,192,122827,1,0,0:0:0:0:
448,192,122889,1,0,0:0:0:0:
64,192,122950,1,0,0:0:0:0:
192,192,123012,1,0,0:0:0:0:
448,192,123012,1,0,0:0:0:0:
320,192,123073,1,0,0:0:0:0:
192,192,123135,1,0,0:0:0:0:
64,192,123196,1,0,0:0:0:0:
320,192,123257,1,0,0:0:0:0:
448,192,123319,1,0,0:0:0:0:
192,192,123380,1,0,0:0:0:0:
64,192,123380,1,0,0:0:0:0:
320,192,123442,1,0,0:0:0:0:
64,192,123503,1,0,0:0:0:0:
448,192,123565,1,0,0:0:0:0:
192,192,123626,1,0,0:0:0:0:
64,192,123688,1,0,0:0:0:0:
320,192,123749,1,0,0:0:0:0:
448,192,123749,1,0,0:0:0:0:
192,192,123811,1,0,0:0:0:0:
64,192,123872,1,0,0:0:0:0:
448,192,123934,1,0,0:0:0:0:
320,192,123995,1,0,0:0:0:0:
192,192,123995,1,0,0:0:0:0:
64,192,124057,1,0,0:0:0:0:
192,192,124118,1,0,0:0:0:0:
320,192,124180,1,0,0:0:0:0:
448,192,124241,1,0,0:0:0:0:
64,192,124241,1,0,0:0:0:0:
320,192,124303,1,0,0:0:0:0:
64,192,124364,1,0,0:0:0:0:
192,192,124364,1,0,0:0:0:0:
448,192,124426,1,0,0:0:0:0:
320,192,124487,1,0,0:0:0:0:
192,192,124548,1,0,0:0:0:0:
448,192,124610,1,0,0:0:0:0:
320,192,124671,1,0,0:0:0:0:
64,192,124733,1,0,0:0:0:0:
192,192,124733,1,0,0:0:0:0:
320,192,124794,1,0,0:0:0:0:
448,192,124856,1,0,0:0:0:0:
64,192,124917,1,0,0:0:0:0:
192,192,124979,1,0,0:0:0:0:
320,192,124979,1,0,0:0:0:0:
448,192,125040,1,0,0:0:0:0:
64,192,125102,1,0,0:0:0:0:
192,192,125163,1,0,0:0:0:0:
320,192,125225,1,0,0:0:0:0:
448,192,125225,1,0,0:0:0:0:
64,192,125286,1,0,0:0:0:0:
192,192,125348,1,0,0:0:0:0:
448,192,125348,1,0,0:0:0:0:
320,192,125409,1,0,0:0:0:0:
64,192,125471,1,0,0:0:0:0:
192,192,125532,1,0,0:0:0:0:
448,192,125594,1,0,0:0:0:0:
320,192,125655,1,0,0:0:0:0:
64,192,125717,1,0,0:0:0:0:
192,192,125717,1,0,0:0:0:0:
448,192,125778,1,0,0:0:0:0:
192,192,125839,1,0,0:0:0:0:
320,192,125901,1,0,0:0:0:0:
448,192,125962,1,0,0:0:0:0:
64,192,125962,1,0,0:0:0:0:
192,192,126024,1,0,0:0:0:0:
448,192,126085,1,0,0:0:0:0:
320,192,126147,1,0,0:0:0:0:
192,192,126208,1,0,0:0:0:0:
64,192,126208,1,0,0:0:0:0:
448,192,126270,1,0,0:0:0:0:
320,192,126331,1,0,0:0:0:0:
64,192,126331,1,0,0:0:0:0:
192,192,126393,1,0,0:0:0:0:
320,192,126454,1,0,0:0:0:0:
448,192,126516,1,0,0:0:0:0:
192,192,126577,1,0,0:0:0:0:
64,192,126577,1,0,0:0:0:0:
320,192,126639,1,0,0:0:0:0:
448,192,126700,1,0,0:0:0:0:
192,192,126762,1,0,0:0:0:0:
320,192,126823,1,0,0:0:0:0:
64,192,126823,1,0,0:0:0:0:
192,192,126885,1,0,0:0:0:0:
448,192,126946,1,0,0:0:0:0:
320,192,127007,1,0,0:0:0:0:
192,192,127069,1,0,0:0:0:0:
64,192,127130,1,0,0:0:0:0:
448,192,127192,1,0,0:0:0:0:
320,192,127253,1,0,0:0:0:0:
192,192,127315,1,0,0:0:0:0:
64,192,127376,1,0,0:0:0:0:
64,192,127438,1,0,0:0:0:0:
192,192,127499,1,0,0:0:0:0:
320,192,127561,1,0,0:0:0:0:
448,192,127622,1,0,0:0:0:0:
64,192,127684,1,0,0:0:0:0:
448,192,127745,1,0,0:0:0:0:
64,192,127807,1,0,0:0:0:0:
448,192,127868,1,0,0:0:0:0:
192,192,127930,1,0,0:0:0:0:
64,192,127930,1,0,0:0:0:0:
320,192,127930,1,0,0:0:0:0:
192,192,128053,1,0,0:0:0:0:
320,192,128176,1,0,0:0:0:0:
320,192,128298,1,0,0:0:0:0:
64,192,128421,1,0,0:0:0:0:
192,192,128544,1,0,0:0:0:0:
320,192,128667,1,0,0:0:0:0:
448,192,128790,1,0,0:0:0:0:
64,192,128913,1,0,0:0:0:0:
64,192,129036,1,0,0:0:0:0:
320,192,129159,1,0,0:0:0:0:
320,192,129282,1,0,0:0:0:0:
448,192,129405,1,0,0:0:0:0:
320,192,129528,1,0,0:0:0:0:
192,192,129651,1,0,0:0:0:0:
64,192,129651,1,0,0:0:0:0:
64,192,129774,1,0,0:0:0:0:
448,192,129774,1,0,0:0:0:0:
320,192,129897,1,0,0:0:0:0:
64,192,130020,1,0,0:0:0:0:
320,192,130020,1,0,0:0:0:0:
448,192,130143,1,0,0:0:0:0:
192,192,130266,1,0,0:0:0:0:
64,192,130266,1,0,0:0:0:0:
320,192,130389,1,0,0:0:0:0:
192,192,130512,1,0,0:0:0:0:
64,192,130635,1,0,0:0:0:0:
448,192,130635,1,0,0:0:0:0:
192,192,130757,1,0,0:0:0:0:
320,192,130880,1,0,0:0:0:0:
448,192,131003,1,0,0:0:0:0:
192,192,131003,1,0,0:0:0:0:
64,192,131126,1,0,0:0:0:0:
320,192,131249,1,0,0:0:0:0:
448,192,131249,1,0,0:0:0:0:
192,192,131372,1,0,0:0:0:0:
320,192,131495,1,0,0:0:0:0:
64,192,131495,1,0,0:0:0:0:
192,192,131618,1,0,0:0:0:0:
320,192,131618,1,0,0:0:0:0:
448,192,131741,1,0,0:0:0:0:
320,192,131864,1,0,0:0:0:0:
64,192,131864,1,0,0:0:0:0:
192,192,131987,1,0,0:0:0:0:
448,192,132110,1,0,0:0:0:0:
320,192,132110,1,0,0:0:0:0:
192,192,132233,1,0,0:0:0:0:
64,192,132356,1,0,0:0:0:0:
448,192,132356,1,0,0:0:0:0:
320,192,132479,1,0,0:0:0:0:
192,192,132602,1,0,0:0:0:0:
448,192,132725,1,0,0:0:0:0:
320,192,132848,1,0,0:0:0:0:
64,192,132848,1,0,0:0:0:0:
192,192,132909,1,0,0:0:0:0:
64,192,132971,1,0,0:0:0:0:
448,192,133032,1,0,0:0:0:0:
64,192,133094,1,0,0:0:0:0:
192,192,133155,1,0,0:0:0:0:
64,192,133217,1,0,0:0:0:0:
448,192,133278,1,0,0:0:0:0:
64,192,133339,1,0,0:0:0:0:
192,192,133401,1,0,0:0:0:0:
64,192,133462,1,0,0:0:0:0:
448,192,133524,1,0,0:0:0:0:
64,192,133585,1,0,0:0:0:0:
192,192,133647,1,0,0:0:0:0:
64,192,133708,1,0,0:0:0:0:
448,192,133708,1,0,0:0:0:0:
192,192,133831,1,0,0:0:0:0:
320,192,133831,1,0,0:0:0:0:
448,192,133954,1,0,0:0:0:0:
192,192,133954,1,0,0:0:0:0:
320,192,134200,1,0,0:0:0:0:
448,192,134200,1,0,0:0:0:0:
192,192,134323,1,0,0:0:0:0:
320,192,134446,1,0,0:0:0:0:
64,192,134569,1,0,0:0:0:0:
192,192,134692,1,0,0:0:0:0:
448,192,134815,1,0,0:0:0:0:
320,192,134938,1,0,0:0:0:0:
448,192,135061,1,0,0:0:0:0:
192,192,135184,1,0,0:0:0:0:
320,192,135307,1,0,0:0:0:0:
64,192,135430,1,0,0:0:0:0:
192,192,135553,1,0,0:0:0:0:
64,192,135676,1,0,0:0:0:0:
320,192,135798,1,0,0:0:0:0:
192,192,135798,1,0,0:0:0:0:
64,192,135921,1,0,0:0:0:0:
192,192,135921,1,0,0:0:0:0:
320,192,136044,1,0,0:0:0:0:
448,192,136044,1,0,0:0:0:0:
192,192,136167,1,0,0:0:0:0:
64,192,136290,1,0,0:0:0:0:
320,192,136290,1,0,0:0:0:0:
448,192,136413,1,0,0:0:0:0:
320,192,136536,1,0,0:0:0:0:
192,192,136659,1,0,0:0:0:0:
64,192,136659,1,0,0:0:0:0:
448,192,136782,1,0,0:0:0:0:
192,192,136905,1,0,0:0:0:0:
64,192,137028,1,0,0:0:0:0:
320,192,137028,1,0,0:0:0:0:
192,192,137274,1,0,0:0:0:0:
448,192,137274,1,0,0:0:0:0:
320,192,137335,1,0,0:0:0:0:
192,192,137397,1,0,0:0:0:0:
448,192,137458,1,0,0:0:0:0:
320,192,137520,1,0,0:0:0:0:
64,192,137581,1,0,0:0:0:0:
448,192,137643,1,0,0:0:0:0:
192,192,137704,1,0,0:0:0:0:
64,192,137766,1,0,0:0:0:0:
320,192,137827,1,0,0:0:0:0:
192,192,137889,1,0,0:0:0:0:
448,192,137950,1,0,0:0:0:0:
64,192,138012,1,0,0:0:0:0:
320,192,138073,1,0,0:0:0:0:
192,192,138135,1,0,0:0:0:0:
448,192,138196,1,0,0:0:0:0:
64,192,138257,1,0,0:0:0:0:
192,192,138319,1,0,0:0:0:0:
320,192,138380,1,0,0:0:0:0:
448,192,138442,1,0,0:0:0:0:
192,192,138503,1,0,0:0:0:0:
64,192,138626,1,0,0:0:0:0:
320,192,138626,1,0,0:0:0:0:
448,192,138749,1,0,0:0:0:0:
192,192,138749,1,0,0:0:0:0:
64,192,138872,1,0,0:0:0:0:
320,192,138872,1,0,0:0:0:0:
192,192,138995,1,0,0:0:0:0:
448,192,138995,1,0,0:0:0:0:
64,192,139118,1,0,0:0:0:0:
320,192,139118,1,0,0:0:0:0:
192,192,139487,1,0,0:0:0:0:
320,192,139487,1,0,0:0:0:0:
448,192,139610,1,0,0:0:0:0:
64,192,139610,1,0,0:0:0:0:
192,192,139733,1,0,0:0:0:0:
320,192,139733,1,0,0:0:0:0:
64,192,139856,1,0,0:0:0:0:
448,192,139856,1,0,0:0:0:0:
320,192,140225,1,0,0:0:0:0:
448,192,140225,1,0,0:0:0:0:
192,192,140348,1,0,0:0:0:0:
64,192,140348,1,0,0:0:0:0:
320,192,140471,1,0,0:0:0:0:
448,192,140471,1,0,0:0:0:0:
192,192,140594,1,0,0:0:0:0:
64,192,140594,1,0,0:0:0:0:
448,192,140717,1,0,0:0:0:0:
64,192,140717,1,0,0:0:0:0:
320,192,140717,1,0,0:0:0:0:
320,192,140962,1,0,0:0:0:0:
192,192,141208,1,0,0:0:0:0:
64,192,141208,1,0,0:0:0:0:
192,192,141454,1,0,0:0:0:0:
320,192,141700,1,0,0:0:0:0:
64,192,141700,1,0,0:0:0:0:
448,192,141823,1,0,0:0:0:0:
448,192,141946,1,0,0:0:0:0:
64,192,142069,1,0,0:0:0:0:
64,192,142192,1,0,0:0:0:0:
192,192,142192,1,0,0:0:0:0:
192,192,142315,1,0,0:0:0:0:
320,192,142561,1,0,0:0:0:0:
192,192,142684,1,0,0:0:0:0:
64,192,142684,1,0,0:0:0:0:
192,192,142807,1,0,0:0:0:0:
448,192,142930,1,0,0:0:0:0:
64,192,143053,1,0,0:0:0:0:
320,192,143176,1,0,0:0:0:0:
192,192,143176,1,0,0:0:0:0:
192,192,143298,1,0,0:0:0:0:
448,192,143421,1,0,0:0:0:0:
64,192,143544,1,0,0:0:0:0:
192,192,143667,1,0,0:0:0:0:
320,192,143667,1,0,0:0:0:0:
448,192,143790,1,0,0:0:0:0:
64,192,143913,1,0,0:0:0:0:
192,192,144036,1,0,0:0:0:0:
320,192,144159,1,0,0:0:0:0:
64,192,144159,1,0,0:0:0:0:
192,192,144282,1,0,0:0:0:0:
320,192,144528,1,0,0:0:0:0:
448,192,144589,1,0,0:0:0:0:
64,192,144651,1,0,0:0:0:0:
192,192,144651,1,0,0:0:0:0:
192,192,144774,1,0,0:0:0:0:
320,192,144897,1,0,0:0:0:0:
320,192,145020,1,0,0:0:0:0:
64,192,145143,1,0,0:0:0:0:
192,192,145143,1,0,0:0:0:0:
448,192,145266,1,0,0:0:0:0:
64,192,145512,1,0,0:0:0:0:
192,192,145573,1,0,0:0:0:0:
320,192,145635,1,0,0:0:0:0:
448,192,145635,1,0,0:0:0:0:
192,192,145757,1,0,0:0:0:0:
192,192,145880,1,0,0:0:0:0:
320,192,146003,1,0,0:0:0:0:
320,192,146126,1,0,0:0:0:0:
64,192,146126,1,0,0:0:0:0:
192,192,146249,1,0,0:0:0:0:
320,192,146495,1,0,0:0:0:0:
448,192,146557,1,0,0:0:0:0:
192,192,146618,1,0,0:0:0:0:
64,192,146618,1,0,0:0:0:0:
320,192,146741,1,0,0:0:0:0:
320,192,146864,1,0,0:0:0:0:
192,192,146987,1,0,0:0:0:0:
448,192,147110,1,0,0:0:0:0:
320,192,147110,1,0,0:0:0:0:
192,192,147171,1,0,0:0:0:0:
64,192,147233,1,0,0:0:0:0:
320,192,147356,1,0,0:0:0:0:
192,192,147479,1,0,0:0:0:0:
320,192,147540,1,0,0:0:0:0:
64,192,147602,1,0,0:0:0:0:
448,192,147602,1,0,0:0:0:0:
192,192,147725,1,0,0:0:0:0:
64,192,147786,1,0,0:0:0:0:
192,192,147848,1,0,0:0:0:0:
320,192,147971,1,0,0:0:0:0:
448,192,148032,1,0,0:0:0:0:
64,192,148094,1,0,0:0:0:0:
192,192,148094,1,0,0:0:0:0:
320,192,148094,1,0,0:0:0:0:
448,192,148155,1,0,0:0:0:0:
320,192,148217,1,0,0:0:0:0:
192,192,148278,1,0,0:0:0:0:
448,192,148339,1,0,0:0:0:0:
64,192,148401,1,0,0:0:0:0:
192,192,148462,1,0,0:0:0:0:
320,192,148524,1,0,0:0:0:0:
64,192,148585,1,0,0:0:0:0:
448,192,148585,1,0,0:0:0:0:
192,192,148647,1,0,0:0:0:0:
320,192,148708,1,0,0:0:0:0:
64,192,148770,1,0,0:0:0:0:
448,192,148831,1,0,0:0:0:0:
320,192,148893,1,0,0:0:0:0:
192,192,148954,1,0,0:0:0:0:
448,192,149016,1,0,0:0:0:0:
64,192,149077,1,0,0:0:0:0:
320,192,149139,1,0,0:0:0:0:
192,192,149200,1,0,0:0:0:0:
64,192,149262,1,0,0:0:0:0:
320,192,149323,1,0,0:0:0:0:
448,192,149385,1,0,0:0:0:0:
192,192,149446,1,0,0:0:0:0:
64,192,149507,1,0,0:0:0:0:
320,192,149569,1,0,0:0:0:0:
192,192,149630,1,0,0:0:0:0:
64,192,149692,1,0,0:0:0:0:
192,192,149753,1,0,0:0:0:0:
320,192,149815,1,0,0:0:0:0:
448,192,149876,1,0,0:0:0:0:
192,192,149938,1,0,0:0:0:0:
320,192,149999,1,0,0:0:0:0:
64,192,150061,1,0,0:0:0:0:
448,192,150061,1,0,0:0:0:0:
192,192,150122,1,0,0:0:0:0:
320,192,150184,1,0,0:0:0:0:
64,192,150245,1,0,0:0:0:0:
448,192,150307,1,0,0:0:0:0:
192,192,150368,1,0,0:0:0:0:
320,192,150430,1,0,0:0:0:0:
64,192,150491,1,0,0:0:0:0:
192,192,150553,1,0,0:0:0:0:
320,192,150614,1,0,0:0:0:0:
448,192,150676,1,0,0:0:0:0:
192,192,150737,1,0,0:0:0:0:
64,192,150798,1,0,0:0:0:0:
320,192,150860,1,0,0:0:0:0:
448,192,150921,1,0,0:0:0:0:
320,192,150983,1,0,0:0:0:0:
192,192,151044,1,0,0:0:0:0:
64,192,151106,1,0,0:0:0:0:
448,192,151167,1,0,0:0:0:0:
192,192,151229,1,0,0:0:0:0:
320,192,151290,1,0,0:0:0:0:
64,192,151352,1,0,0:0:0:0:
192,192,151413,1,0,0:0:0:0:
448,192,151475,1,0,0:0:0:0:
320,192,151536,1,0,0:0:0:0:
64,192,151536,1,0,0:0:0:0:
192,192,151598,1,0,0:0:0:0:
448,192,151659,1,0,0:0:0:0:
320,192,151721,1,0,0:0:0:0:
192,192,151782,1,0,0:0:0:0:
320,192,151844,1,0,0:0:0:0:
64,192,151905,1,0,0:0:0:0:
192,192,151967,1,0,0:0:0:0:
448,192,152028,1,0,0:0:0:0:
320,192,152089,1,0,0:0:0:0:
448,192,152151,1,0,0:0:0:0:
64,192,152212,1,0,0:0:0:0:
192,192,152274,1,0,0:0:0:0:
320,192,152335,1,0,0:0:0:0:
448,192,152397,1,0,0:0:0:0:
64,192,152458,1,0,0:0:0:0:
448,192,152520,1,0,0:0:0:0:
192,192,152520,1,0,0:0:0:0:
320,192,152581,1,0,0:0:0:0:
64,192,152643,1,0,0:0:0:0:
448,192,152704,1,0,0:0:0:0:
320,192,152766,1,0,0:0:0:0:
192,192,152827,1,0,0:0:0:0:
64,192,152889,1,0,0:0:0:0:
320,192,152950,1,0,0:0:0:0:
192,192,153012,1,0,0:0:0:0:
448,192,153073,1,0,0:0:0:0:
320,192,153135,1,0,0:0:0:0:
64,192,153196,1,0,0:0:0:0:
192,192,153257,1,0,0:0:0:0:
320,192,153319,1,0,0:0:0:0:
64,192,153380,1,0,0:0:0:0:
448,192,153380,1,0,0:0:0:0:
192,192,153626,1,0,0:0:0:0:
64,192,153626,1,0,0:0:0:0:
320,192,153872,1,0,0:0:0:0:
448,192,153872,1,0,0:0:0:0:
64,192,154118,1,0,0:0:0:0:
448,192,154118,1,0,0:0:0:0:
320,192,154364,1,0,0:0:0:0:
64,192,154364,1,0,0:0:0:0:
448,192,154610,1,0,0:0:0:0:
192,192,154610,1,0,0:0:0:0:
320,192,154733,1,0,0:0:0:0:
192,192,154856,1,0,0:0:0:0:
448,192,154979,1,0,0:0:0:0:
64,192,154979,1,0,0:0:0:0:
320,192,154979,1,0,0:0:0:0:
192,192,155102,1,0,0:0:0:0:
448,192,155225,1,0,0:0:0:0:
320,192,155348,1,0,0:0:0:0:
192,192,155471,1,0,0:0:0:0:
448,192,155594,1,0,0:0:0:0:
192,192,155717,1,0,0:0:0:0:
320,192,155839,1,0,0:0:0:0:
64,192,155962,1,0,0:0:0:0:
320,192,156085,1,0,0:0:0:0:
192,192,156208,1,0,0:0:0:0:
448,192,156208,1,0,0:0:0:0:
64,192,156331,1,0,0:0:0:0:
320,192,156454,1,0,0:0:0:0:
192,192,156577,1,0,0:0:0:0:
448,192,156700,1,0,0:0:0:0:
192,192,156823,1,0,0:0:0:0:
320,192,156946,1,0,0:0:0:0:
64,192,157069,1,0,0:0:0:0:
448,192,157192,1,0,0:0:0:0:
64,192,157192,1,0,0:0:0:0:
448,192,157315,1,0,0:0:0:0:
64,192,157315,1,0,0:0:0:0:
320,192,157438,1,0,0:0:0:0:
192,192,157438,1,0,0:0:0:0:
320,192,157561,1,0,0:0:0:0:
192,192,157561,1,0,0:0:0:0:
192,192,157684,1,0,0:0:0:0:
64,192,157684,1,0,0:0:0:0:
448,192,157807,1,0,0:0:0:0:
192,192,157930,1,0,0:0:0:0:
320,192,158053,1,0,0:0:0:0:
448,192,158176,1,0,0:0:0:0:
192,192,158298,1,0,0:0:0:0:
320,192,158421,1,0,0:0:0:0:
192,192,158544,1,0,0:0:0:0:
64,192,158544,1,0,0:0:0:0:
320,192,158667,1,0,0:0:0:0:
448,192,158667,1,0,0:0:0:0:
192,192,158790,1,0,0:0:0:0:
64,192,158790,1,0,0:0:0:0:
448,192,158913,1,0,0:0:0:0:
64,192,158913,1,0,0:0:0:0:
320,192,159036,1,0,0:0:0:0:
192,192,159159,1,0,0:0:0:0:
448,192,159282,1,0,0:0:0:0:
320,192,159405,1,0,0:0:0:0:
64,192,159528,1,0,0:0:0:0:
192,192,159651,1,0,0:0:0:0:
448,192,159651,1,0,0:0:0:0:
64,192,159774,1,0,0:0:0:0:
320,192,159774,1,0,0:0:0:0:
448,192,159897,1,0,0:0:0:0:
192,192,159897,1,0,0:0:0:0:
64,192,160020,1,0,0:0:0:0:
320,192,160143,1,0,0:0:0:0:
192,192,160143,1,0,0:0:0:0:
64,192,160266,1,0,0:0:0:0:
448,192,160266,1,0,0:0:0:0:
320,192,160389,1,0,0:0:0:0:
192,192,160389,1,0,0:0:0:0:
448,192,160512,1,0,0:0:0:0:
64,192,160635,1,0,0:0:0:0:
192,192,160757,1,0,0:0:0:0:
448,192,160880,1,0,0:0:0:0:
64,192,161003,1,0,0:0:0:0:
320,192,161126,1,0,0:0:0:0:
192,192,161249,1,0,0:0:0:0:
64,192,161372,1,0,0:0:0:0:
448,192,161495,1,0,0:0:0:0:
320,192,161618,1,0,0:0:0:0:
64,192,161618,1,0,0:0:0:0:
192,192,161741,1,0,0:0:0:0:
64,192,161864,1,0,0:0:0:0:
448,192,161864,1,0,0:0:0:0:
320,192,161987,1,0,0:0:0:0:
192,192,162110,1,0,0:0:0:0:
448,192,162110,1,0,0:0:0:0:
320,192,162233,1,0,0:0:0:0:
192,192,162294,1,0,0:0:0:0:
64,192,162356,1,0,0:0:0:0:
192,192,162479,1,0,0:0:0:0:
448,192,162602,1,0,0:0:0:0:
320,192,162725,1,0,0:0:0:0:
64,192,162848,1,0,0:0:0:0:
192,192,162971,1,0,0:0:0:0:
64,192,163094,1,0,0:0:0:0:
320,192,163094,1,0,0:0:0:0:
448,192,163094,1,0,0:0:0:0:
192,192,163217,1,0,0:0:0:0:
320,192,163339,1,0,0:0:0:0:
192,192,163462,1,0,0:0:0:0:
64,192,163585,1,0,0:0:0:0:
320,192,163647,1,0,0:0:0:0:
64,192,163708,1,0,0:0:0:0:
320,192,163770,1,0,0:0:0:0:
64,192,163831,1,0,0:0:0:0:
320,192,163893,1,0,0:0:0:0:
64,192,163954,1,0,0:0:0:0:
448,192,164077,1,0,0:0:0:0:
320,192,164200,1,0,0:0:0:0:
192,192,164323,1,0,0:0:0:0:
320,192,164446,1,0,0:0:0:0:
448,192,164569,1,0,0:0:0:0:
192,192,164692,1,0,0:0:0:0:
64,192,164815,1,0,0:0:0:0:
320,192,164938,1,0,0:0:0:0:
448,192,165061,1,0,0:0:0:0:
192,192,165122,1,0,0:0:0:0:
448,192,165184,1,0,0:0:0:0:
192,192,165245,1,0,0:0:0:0:
448,192,165307,1,0,0:0:0:0:
320,192,165430,1,0,0:0:0:0:
64,192,165553,1,0,0:0:0:0:
192,192,165676,1,0,0:0:0:0:
448,192,165798,1,0,0:0:0:0:
320,192,165921,1,0,0:0:0:0:
64,192,166044,1,0,0:0:0:0:
448,192,166167,1,0,0:0:0:0:
192,192,166290,1,0,0:0:0:0:
64,192,166413,1,0,0:0:0:0:
320,192,166536,1,0,0:0:0:0:
192,192,166598,1,0,0:0:0:0:
320,192,166659,1,0,0:0:0:0:
192,192,166721,1,0,0:0:0:0:
320,192,166782,1,0,0:0:0:0:
192,192,166844,1,0,0:0:0:0:
320,192,166905,1,0,0:0:0:0:
448,192,167028,1,0,0:0:0:0:
320,192,167151,1,0,0:0:0:0:
64,192,167274,1,0,0:0:0:0:
448,192,167397,1,0,0:0:0:0:
192,192,167520,1,0,0:0:0:0:
64,192,167643,1,0,0:0:0:0:
320,192,167766,1,0,0:0:0:0:
192,192,167889,1,0,0:0:0:0:
448,192,168012,1,0,0:0:0:0:
64,192,168073,1,0,0:0:0:0:
448,192,168135,1,0,0:0:0:0:
64,192,168196,1,0,0:0:0:0:
448,192,168257,1,0,0:0:0:0:
192,192,168380,1,0,0:0:0:0:
320,192,168503,1,0,0:0:0:0:
64,192,168626,1,0,0:0:0:0:
192,192,168749,1,0,0:0:0:0:
448,192,168872,1,0,0:0:0:0:
192,192,168995,1,0,0:0:0:0:
64,192,168995,1,0,0:0:0:0:
320,192,169118,1,0,0:0:0:0:
448,192,169118,1,0,0:0:0:0:
192,192,169241,1,0,0:0:0:0:
64,192,169241,1,0,0:0:0:0:
320,192,169364,1,0,0:0:0:0:
448,192,169364,1,0,0:0:0:0:
192,192,169733,1,0,0:0:0:0:
320,192,169733,1,0,0:0:0:0:
64,192,169856,1,0,0:0:0:0:
448,192,169856,1,0,0:0:0:0:
192,192,169979,1,0,0:0:0:0:
320,192,169979,1,0,0:0:0:0:
64,192,170102,1,0,0:0:0:0:
448,192,170102,1,0,0:0:0:0:
320,192,170471,1,0,0:0:0:0:
448,192,170471,1,0,0:0:0:0:
64,192,170532,1,0,0:0:0:0:
320,192,170594,1,0,0:0:0:0:
64,192,170655,1,0,0:0:0:0:
448,192,170717,1,0,0:0:0:0:
192,192,170778,1,0,0:0:0:0:
448,192,170839,1,0,0:0:0:0:
192,192,170901,1,0,0:0:0:0:
64,192,170962,1,0,0:0:0:0:
320,192,170962,1,0,0:0:0:0:
448,192,171024,1,0,0:0:0:0:
192,192,171085,1,0,0:0:0:0:
320,192,171147,1,0,0:0:0:0:
64,192,171208,1,0,0:0:0:0:
448,192,171270,1,0,0:0:0:0:
192,192,171331,1,0,0:0:0:0:
64,192,171331,1,0,0:0:0:0:
320,192,171393,1,0,0:0:0:0:
448,192,171454,1,0,0:0:0:0:
64,192,171516,1,0,0:0:0:0:
320,192,171577,1,0,0:0:0:0:
192,192,171639,1,0,0:0:0:0:
448,192,171700,1,0,0:0:0:0:
64,192,171700,1,0,0:0:0:0:
320,192,171762,1,0,0:0:0:0:
192,192,171823,1,0,0:0:0:0:
64,192,171885,1,0,0:0:0:0:
320,192,171946,1,0,0:0:0:0:
448,192,171946,1,0,0:0:0:0:
192,192,172007,1,0,0:0:0:0:
320,192,172069,1,0,0:0:0:0:
64,192,172130,1,0,0:0:0:0:
192,192,172192,1,0,0:0:0:0:
448,192,172253,1,0,0:0:0:0:
320,192,172315,1,0,0:0:0:0:
192,192,172376,1,0,0:0:0:0:
64,192,172438,1,0,0:0:0:0:
448,192,172438,1,0,0:0:0:0:
320,192,172499,1,0,0:0:0:0:
64,192,172561,1,0,0:0:0:0:
448,192,172622,1,0,0:0:0:0:
192,192,172684,1,0,0:0:0:0:
320,192,172684,1,0,0:0:0:0:
64,192,172745,1,0,0:0:0:0:
192,192,172807,1,0,0:0:0:0:
320,192,172868,1,0,0:0:0:0:
448,192,172930,1,0,0:0:0:0:
64,192,172930,1,0,0:0:0:0:
320,192,172991,1,0,0:0:0:0:
192,192,173053,1,0,0:0:0:0:
64,192,173114,1,0,0:0:0:0:
448,192,173176,1,0,0:0:0:0:
320,192,173237,1,0,0:0:0:0:
192,192,173298,1,0,0:0:0:0:
64,192,173298,1,0,0:0:0:0:
448,192,173360,1,0,0:0:0:0:
64,192,173421,1,0,0:0:0:0:
192,192,173483,1,0,0:0:0:0:
448,192,173544,1,0,0:0:0:0:
320,192,173606,1,0,0:0:0:0:
448,192,173667,1,0,0:0:0:0:
64,192,173667,1,0,0:0:0:0:
192,192,173729,1,0,0:0:0:0:
320,192,173790,1,0,0:0:0:0:
64,192,173852,1,0,0:0:0:0:
192,192,173913,1,0,0:0:0:0:
448,192,173913,1,0,0:0:0:0:
320,192,173975,1,0,0:0:0:0:
192,192,174036,1,0,0:0:0:0:
64,192,174098,1,0,0:0:0:0:
320,192,174159,1,0,0:0:0:0:
448,192,174221,1,0,0:0:0:0:
320,192,174282,1,0,0:0:0:0:
64,192,174282,1,0,0:0:0:0:
192,192,174344,1,0,0:0:0:0:
448,192,174405,1,0,0:0:0:0:
320,192,174467,1,0,0:0:0:0:
192,192,174528,1,0,0:0:0:0:
64,192,174589,1,0,0:0:0:0:
320,192,174651,1,0,0:0:0:0:
448,192,174651,1,0,0:0:0:0:
192,192,174712,1,0,0:0:0:0:
448,192,174774,1,0,0:0:0:0:
64,192,174835,1,0,0:0:0:0:
192,192,174897,1,0,0:0:0:0:
320,192,174897,1,0,0:0:0:0:
448,192,174958,1,0,0:0:0:0:
64,192,175020,1,0,0:0:0:0:
320,192,175081,1,0,0:0:0:0:
192,192,175143,1,0,0:0:0:0:
448,192,175204,1,0,0:0:0:0:
320,192,175266,1,0,0:0:0:0:
64,192,175266,1,0,0:0:0:0:
192,192,175327,1,0,0:0:0:0:
448,192,175389,1,0,0:0:0:0:
320,192,175450,1,0,0:0:0:0:
192,192,175512,1,0,0:0:0:0:
64,192,175573,1,0,0:0:0:0:
192,192,175635,1,0,0:0:0:0:
448,192,175635,1,0,0:0:0:0:
320,192,175696,1,0,0:0:0:0:
448,192,175757,1,0,0:0:0:0:
64,192,175819,1,0,0:0:0:0:
320,192,175880,1,0,0:0:0:0:
192,192,175880,1,0,0:0:0:0:
448,192,175942,1,0,0:0:0:0:
320,192,176003,1,0,0:0:0:0:
192,192,176065,1,0,0:0:0:0:
64,192,176126,1,0,0:0:0:0:
448,192,176188,1,0,0:0:0:0:
320,192,176249,1,0,0:0:0:0:
192,192,176311,1,0,0:0:0:0:
448,192,176372,1,0,0:0:0:0:
64,192,176372,1,0,0:0:0:0:
320,192,176434,1,0,0:0:0:0:
192,192,176495,1,0,0:0:0:0:
448,192,176557,1,0,0:0:0:0:
64,192,176618,1,0,0:0:0:0:
320,192,176618,1,0,0:0:0:0:
192,192,176680,1,0,0:0:0:0:
448,192,176741,1,0,0:0:0:0:
64,192,176803,1,0,0:0:0:0:
320,192,176864,1,0,0:0:0:0:
192,192,176864,1,0,0:0:0:0:
448,192,176926,1,0,0:0:0:0:
64,192,176987,1,0,0:0:0:0:
192,192,177048,1,0,0:0:0:0:
320,192,177110,1,0,0:0:0:0:
448,192,177171,1,0,0:0:0:0:
64,192,177233,1,0,0:0:0:0:
320,192,177233,1,0,0:0:0:0:
192,192,177294,1,0,0:0:0:0:
448,192,177356,1,0,0:0:0:0:
64,192,177417,1,0,0:0:0:0:
192,192,177479,1,0,0:0:0:0:
320,192,177540,1,0,0:0:0:0:
192,192,177602,1,0,0:0:0:0:
64,192,177602,1,0,0:0:0:0:
448,192,177663,1,0,0:0:0:0:
320,192,177725,1,0,0:0:0:0:
64,192,177786,1,0,0:0:0:0:
192,192,177848,1,0,0:0:0:0:
448,192,177848,1,0,0:0:0:0:
320,192,177909,1,0,0:0:0:0:
64,192,177971,1,0,0:0:0:0:
192,192,178032,1,0,0:0:0:0:
320,192,178094,1,0,0:0:0:0:
448,192,178094,1,0,0:0:0:0:
64,192,178155,1,0,0:0:0:0:
192,192,178217,1,0,0:0:0:0:
448,192,178217,1,0,0:0:0:0:
320,192,178278,1,0,0:0:0:0:
64,192,178339,1,0,0:0:0:0:
192,192,178401,1,0,0:0:0:0:
320,192,178462,1,0,0:0:0:0:
448,192,178462,1,0,0:0:0:0:
64,192,178524,1,0,0:0:0:0:
448,192,178585,1,0,0:0:0:0:
192,192,178585,1,0,0:0:0:0:
320,192,178647,1,0,0:0:0:0:
192,192,178708,1,0,0:0:0:0:
320,192,178770,1,0,0:0:0:0:
192,192,178831,1,0,0:0:0:0:
64,192,178893,1,0,0:0:0:0:
192,192,178954,1,0,0:0:0:0:
320,192,179016,1,0,0:0:0:0:
448,192,179077,1,0,0:0:0:0:
192,192,179139,1,0,0:0:0:0:
64,192,179200,1,0,0:0:0:0:
320,192,179200,1,0,0:0:0:0:
448,192,179262,1,0,0:0:0:0:
192,192,179323,1,0,0:0:0:0:
320,192,179385,1,0,0:0:0:0:
64,192,179446,1,0,0:0:0:0:
192,192,179507,1,0,0:0:0:0:
320,192,179569,1,0,0:0:0:0:
448,192,179569,1,0,0:0:0:0:
64,192,179630,1,0,0:0:0:0:
320,192,179692,1,0,0:0:0:0:
448,192,179753,1,0,0:0:0:0:
192,192,179815,1,0,0:0:0:0:
64,192,179815,1,0,0:0:0:0:
320,192,179876,1,0,0:0:0:0:
64,192,179938,1,0,0:0:0:0:
448,192,179999,1,0,0:0:0:0:
192,192,180061,1,0,0:0:0:0:
320,192,180122,1,0,0:0:0:0:
64,192,180184,1,0,0:0:0:0:
448,192,180245,1,0,0:0:0:0:
320,192,180307,1,0,0:0:0:0:
64,192,180307,1,0,0:0:0:0:
192,192,180368,1,0,0:0:0:0:
448,192,180430,1,0,0:0:0:0:
320,192,180491,1,0,0:0:0:0:
64,192,180553,1,0,0:0:0:0:
192,192,180614,1,0,0:0:0:0:
448,192,180676,1,0,0:0:0:0:
320,192,180737,1,0,0:0:0:0:
192,192,180798,1,0,0:0:0:0:
64,192,180798,1,0,0:0:0:0:
448,192,180860,1,0,0:0:0:0:
320,192,180921,1,0,0:0:0:0:
192,192,180983,1,0,0:0:0:0:
64,192,181044,1,0,0:0:0:0:
320,192,181106,1,0,0:0:0:0:
192,192,181167,1,0,0:0:0:0:
448,192,181167,1,0,0:0:0:0:
320,192,181229,1,0,0:0:0:0:
64,192,181290,1,0,0:0:0:0:
192,192,181352,1,0,0:0:0:0:
448,192,181475,1,0,0:0:0:0:
320,192,181536,1,0,0:0:0:0:
64,192,181536,1,0,0:0:0:0:
192,192,181598,1,0,0:0:0:0:
448,192,181659,1,0,0:0:0:0:
64,192,181721,1,0,0:0:0:0:
192,192,181782,1,0,0:0:0:0:
320,192,181782,1,0,0:0:0:0:
448,192,181844,1,0,0:0:0:0:
320,192,181905,1,0,0:0:0:0:
192,192,181967,1,0,0:0:0:0:
64,192,182028,1,0,0:0:0:0:
320,192,182089,1,0,0:0:0:0:
192,192,182151,1,0,0:0:0:0:
448,192,182212,1,0,0:0:0:0:
320,192,182274,1,0,0:0:0:0:
64,192,182274,1,0,0:0:0:0:
192,192,182335,1,0,0:0:0:0:
64,192,182397,1,0,0:0:0:0:
320,192,182458,1,0,0:0:0:0:
192,192,182520,1,0,0:0:0:0:
448,192,182520,1,0,0:0:0:0:
64,192,182581,1,0,0:0:0:0:
320,192,182643,1,0,0:0:0:0:
448,192,182704,1,0,0:0:0:0:
192,192,182766,1,0,0:0:0:0:
64,192,182766,1,0,0:0:0:0:
448,192,182827,1,0,0:0:0:0:
320,192,182889,1,0,0:0:0:0:
64,192,182950,1,0,0:0:0:0:
192,192,183012,1,0,0:0:0:0:
448,192,183012,1,0,0:0:0:0:
320,192,183073,1,0,0:0:0:0:
64,192,183135,1,0,0:0:0:0:
448,192,183135,1,0,0:0:0:0:
192,192,183196,1,0,0:0:0:0:
320,192,183257,1,0,0:0:0:0:
64,192,183319,1,0,0:0:0:0:
192,192,183380,1,0,0:0:0:0:
320,192,183442,1,0,0:0:0:0:
448,192,183503,1,0,0:0:0:0:
64,192,183503,1,0,0:0:0:0:
192,192,183565,1,0,0:0:0:0:
320,192,183626,1,0,0:0:0:0:
64,192,183688,1,0,0:0:0:0:
448,192,183749,1,0,0:0:0:0:
192,192,183749,1,0,0:0:0:0:
320,192,183811,1,0,0:0:0:0:
192,192,183872,1,0,0:0:0:0:
64,192,183934,1,0,0:0:0:0:
320,192,183995,1,0,0:0:0:0:
448,192,183995,1,0,0:0:0:0:
192,192,184057,1,0,0:0:0:0:
64,192,184118,1,0,0:0:0:0:
448,192,184118,1,0,0:0:0:0:
320,192,184180,1,0,0:0:0:0:
64,192,184241,1,0,0:0:0:0:
448,192,184303,1,0,0:0:0:0:
192,192,184364,1,0,0:0:0:0:
320,192,184426,1,0,0:0:0:0:
64,192,184487,1,0,0:0:0:0:
192,192,184487,1,0,0:0:0:0:
448,192,184548,1,0,0:0:0:0:
320,192,184610,1,0,0:0:0:0:
64,192,184671,1,0,0:0:0:0:
192,192,184733,1,0,0:0:0:0:
448,192,184733,1,0,0:0:0:0:
320,192,184794,1,0,0:0:0:0:
64,192,184856,1,0,0:0:0:0:
192,192,184917,1,0,0:0:0:0:
320,192,184979,1,0,0:0:0:0:
448,192,184979,1,0,0:0:0:0:
64,192,185040,1,0,0:0:0:0:
192,192,185102,1,0,0:0:0:0:
448,192,185102,1,0,0:0:0:0:
320,192,185163,1,0,0:0:0:0:
64,192,185225,1,0,0:0:0:0:
192,192,185286,1,0,0:0:0:0:
320,192,185348,1,0,0:0:0:0:
64,192,185348,1,0,0:0:0:0:
448,192,185409,1,0,0:0:0:0:
192,192,185471,1,0,0:0:0:0:
320,192,185532,1,0,0:0:0:0:
64,192,185594,1,0,0:0:0:0:
192,192,185594,1,0,0:0:0:0:
448,192,185655,1,0,0:0:0:0:
320,192,185717,1,0,0:0:0:0:
192,192,185778,1,0,0:0:0:0:
64,192,185839,1,0,0:0:0:0:
320,192,185901,1,0,0:0:0:0:
192,192,185962,1,0,0:0:0:0:
448,192,186024,1,0,0:0:0:0:
192,192,186085,1,0,0:0:0:0:
448,192,186147,1,0,0:0:0:0:
64,192,186208,1,0,0:0:0:0:
320,192,186270,1,0,0:0:0:0:
64,192,186331,1,0,0:0:0:0:
320,192,186393,1,0,0:0:0:0:
192,192,186454,1,0,0:0:0:0:
64,192,186516,1,0,0:0:0:0:
192,192,186577,1,0,0:0:0:0:
64,192,186639,1,0,0:0:0:0:
320,192,186700,1,0,0:0:0:0:
448,192,186700,1,0,0:0:0:0:
192,192,186762,1,0,0:0:0:0:
448,192,186823,1,0,0:0:0:0:
64,192,186885,1,0,0:0:0:0:
320,192,186946,1,0,0:0:0:0:
192,192,187007,1,0,0:0:0:0:
64,192,187069,1,0,0:0:0:0:
448,192,187069,1,0,0:0:0:0:
320,192,187130,1,0,0:0:0:0:
448,192,187192,1,0,0:0:0:0:
64,192,187253,1,0,0:0:0:0:
192,192,187315,1,0,0:0:0:0:
448,192,187376,1,0,0:0:0:0:
320,192,187438,1,0,0:0:0:0:
64,192,187438,1,0,0:0:0:0:
192,192,187499,1,0,0:0:0:0:
448,192,187561,1,0,0:0:0:0:
320,192,187622,1,0,0:0:0:0:
64,192,187684,1,0,0:0:0:0:
192,192,187684,1,0,0:0:0:0:
448,192,187745,1,0,0:0:0:0:
64,192,187807,1,0,0:0:0:0:
192,192,187868,1,0,0:0:0:0:
448,192,187930,1,0,0:0:0:0:
64,192,187991,1,0,0:0:0:0:
320,192,188053,1,0,0:0:0:0:
192,192,188114,1,0,0:0:0:0:
320,192,188176,1,0,0:0:0:0:
448,192,188176,1,0,0:0:0:0:
64,192,188237,1,0,0:0:0:0:
448,192,188298,1,0,0:0:0:0:
192,192,188360,1,0,0:0:0:0:
320,192,188421,1,0,0:0:0:0:
64,192,188421,1,0,0:0:0:0:
448,192,188483,1,0,0:0:0:0:
192,192,188544,1,0,0:0:0:0:
320,192,188606,1,0,0:0:0:0:
64,192,188667,1,0,0:0:0:0:
192,192,188667,1,0,0:0:0:0:
448,192,188729,1,0,0:0:0:0:
320,192,188790,1,0,0:0:0:0:
64,192,188852,1,0,0:0:0:0:
192,192,188913,1,0,0:0:0:0:
320,192,188975,1,0,0:0:0:0:
192,192,189036,1,0,0:0:0:0:
448,192,189036,1,0,0:0:0:0:
64,192,189098,1,0,0:0:0:0:
320,192,189159,1,0,0:0:0:0:
192,192,189221,1,0,0:0:0:0:
64,192,189282,1,0,0:0:0:0:
448,192,189344,1,0,0:0:0:0:
192,192,189405,1,0,0:0:0:0:
320,192,189405,1,0,0:0:0:0:
64,192,189467,1,0,0:0:0:0:
320,192,189528,1,0,0:0:0:0:
448,192,189589,1,0,0:0:0:0:
192,192,189651,1,0,0:0:0:0:
64,192,189651,1,0,0:0:0:0:
320,192,189712,1,0,0:0:0:0:
64,192,189774,1,0,0:0:0:0:
192,192,189835,1,0,0:0:0:0:
448,192,189897,1,0,0:0:0:0:
64,192,189958,1,0,0:0:0:0:
320,192,190020,1,0,0:0:0:0:
448,192,190020,1,0,0:0:0:0:
192,192,190081,1,0,0:0:0:0:
64,192,190143,1,0,0:0:0:0:
320,192,190204,1,0,0:0:0:0:
448,192,190266,1,0,0:0:0:0:
64,192,190327,1,0,0:0:0:0:
192,192,190389,1,0,0:0:0:0:
448,192,190389,1,0,0:0:0:0:
320,192,190450,1,0,0:0:0:0:
64,192,190512,1,0,0:0:0:0:
448,192,190573,1,0,0:0:0:0:
64,192,190635,1,0,0:0:0:0:
320,192,190635,1,0,0:0:0:0:
192,192,190696,1,0,0:0:0:0:
448,192,190757,1,0,0:0:0:0:
320,192,190819,1,0,0:0:0:0:
64,192,190880,1,0,0:0:0:0:
448,192,190942,1,0,0:0:0:0:
192,192,191003,1,0,0:0:0:0:
320,192,191003,1,0,0:0:0:0:
64,192,191065,1,0,0:0:0:0:
320,192,191126,1,0,0:0:0:0:
448,192,191188,1,0,0:0:0:0:
192,192,191249,1,0,0:0:0:0:
320,192,191311,1,0,0:0:0:0:
64,192,191372,1,0,0:0:0:0:
192,192,191372,1,0,0:0:0:0:
448,192,191434,1,0,0:0:0:0:
320,192,191495,1,0,0:0:0:0:
64,192,191557,1,0,0:0:0:0:
192,192,191618,1,0,0:0:0:0:
448,192,191618,1,0,0:0:0:0:
320,192,191680,1,0,0:0:0:0:
192,192,191741,1,0,0:0:0:0:
64,192,191803,1,0,0:0:0:0:
448,192,191864,1,0,0:0:0:0:
320,192,191926,1,0,0:0:0:0:
192,192,191987,1,0,0:0:0:0:
64,192,192048,1,0,0:0:0:0:
192,192,192110,1,0,0:0:0:0:
448,192,192110,1,0,0:0:0:0:
320,192,192171,1,0,0:0:0:0:
64,192,192233,1,0,0:0:0:0:
448,192,192294,1,0,0:0:0:0:
192,192,192356,1,0,0:0:0:0:
320,192,192356,1,0,0:0:0:0:
64,192,192417,1,0,0:0:0:0:
320,192,192479,1,0,0:0:0:0:
192,192,192540,1,0,0:0:0:0:
448,192,192602,1,0,0:0:0:0:
64,192,192602,1,0,0:0:0:0:
320,192,192663,1,0,0:0:0:0:
64,192,192725,1,0,0:0:0:0:
448,192,192786,1,0,0:0:0:0:
192,192,192848,1,0,0:0:0:0:
320,192,192909,1,0,0:0:0:0:
64,192,192971,1,0,0:0:0:0:
192,192,192971,1,0,0:0:0:0:
448,192,193032,1,0,0:0:0:0:
64,192,193094,1,0,0:0:0:0:
192,192,193155,1,0,0:0:0:0:
320,192,193217,1,0,0:0:0:0:
448,192,193278,1,0,0:0:0:0:
192,192,193339,1,0,0:0:0:0:
64,192,193339,1,0,0:0:0:0:
320,192,193401,1,0,0:0:0:0:
64,192,193462,1,0,0:0:0:0:
448,192,193524,1,0,0:0:0:0:
192,192,193585,1,0,0:0:0:0:
320,192,193585,1,0,0:0:0:0:
64,192,193647,1,0,0:0:0:0:
448,192,193708,1,0,0:0:0:0:
192,192,193770,1,0,0:0:0:0:
320,192,193831,1,0,0:0:0:0:
64,192,193831,1,0,0:0:0:0:
192,192,193893,1,0,0:0:0:0:
448,192,193954,1,0,0:0:0:0:
64,192,193954,1,0,0:0:0:0:
320,192,194016,1,0,0:0:0:0:
192,192,194077,1,0,0:0:0:0:
64,192,194139,1,0,0:0:0:0:
448,192,194200,1,0,0:0:0:0:
192,192,194262,1,0,0:0:0:0:
64,192,194323,1,0,0:0:0:0:
320,192,194385,1,0,0:0:0:0:
64,192,194446,1,0,0:0:0:0:
320,192,194507,1,0,0:0:0:0:
192,192,194569,1,0,0:0:0:0:
448,192,194569,1,0,0:0:0:0:
64,192,194630,1,0,0:0:0:0:
192,192,194692,1,0,0:0:0:0:
320,192,194753,1,0,0:0:0:0:
448,192,194815,1,0,0:0:0:0:
192,192,194876,1,0,0:0:0:0:
64,192,194938,1,0,0:0:0:0:
320,192,194938,1,0,0:0:0:0:
448,192,194999,1,0,0:0:0:0:
192,192,195061,1,0,0:0:0:0:
320,192,195122,1,0,0:0:0:0:
448,192,195184,1,0,0:0:0:0:
64,192,195245,1,0,0:0:0:0:
192,192,195307,1,0,0:0:0:0:
448,192,195307,1,0,0:0:0:0:
320,192,195368,1,0,0:0:0:0:
64,192,195430,1,0,0:0:0:0:
192,192,195491,1,0,0:0:0:0:
320,192,195553,1,0,0:0:0:0:
448,192,195553,1,0,0:0:0:0:
64,192,195614,1,0,0:0:0:0:
448,192,195676,1,0,0:0:0:0:
320,192,195737,1,0,0:0:0:0:
64,192,195798,1,0,0:0:0:0:
192,192,195860,1,0,0:0:0:0:
448,192,195921,1,0,0:0:0:0:
320,192,195983,1,0,0:0:0:0:
64,192,196044,1,0,0:0:0:0:
192,192,196044,1,0,0:0:0:0:
448,192,196106,1,0,0:0:0:0:
192,192,196167,1,0,0:0:0:0:
320,192,196229,1,0,0:0:0:0:
64,192,196290,1,0,0:0:0:0:
448,192,196290,1,0,0:0:0:0:
192,192,196352,1,0,0:0:0:0:
448,192,196413,1,0,0:0:0:0:
64,192,196475,1,0,0:0:0:0:
192,192,196536,1,0,0:0:0:0:
320,192,196536,1,0,0:0:0:0:
448,192,196598,1,0,0:0:0:0:
320,192,196659,1,0,0:0:0:0:
192,192,196721,1,0,0:0:0:0:
64,192,196782,1,0,0:0:0:0:
448,192,196844,1,0,0:0:0:0:
320,192,196905,1,0,0:0:0:0:
64,192,196905,1,0,0:0:0:0:
192,192,196967,1,0,0:0:0:0:
448,192,197028,1,0,0:0:0:0:
320,192,197089,1,0,0:0:0:0:
192,192,197151,1,0,0:0:0:0:
64,192,197212,1,0,0:0:0:0:
448,192,197274,1,0,0:0:0:0:
320,192,197274,1,0,0:0:0:0:
192,192,197335,1,0,0:0:0:0:
448,192,197397,1,0,0:0:0:0:
64,192,197458,1,0,0:0:0:0:
320,192,197520,1,0,0:0:0:0:
192,192,197520,1,0,0:0:0:0:
448,192,197581,1,0,0:0:0:0:
192,192,197643,1,0,0:0:0:0:
64,192,197704,1,0,0:0:0:0:
320,192,197766,1,0,0:0:0:0:
192,192,197827,1,0,0:0:0:0:
448,192,197889,1,0,0:0:0:0:
64,192,197889,1,0,0:0:0:0:
320,192,197950,1,0,0:0:0:0:
448,192,198012,1,0,0:0:0:0:
64,192,198073,1,0,0:0:0:0:
192,192,198135,1,0,0:0:0:0:
320,192,198196,1,0,0:0:0:0:
64,192,198257,1,0,0:0:0:0:
192,192,198257,1,0,0:0:0:0:
448,192,198319,1,0,0:0:0:0:
64,192,198380,1,0,0:0:0:0:
320,192,198442,1,0,0:0:0:0:
448,192,198503,1,0,0:0:0:0:
192,192,198503,1,0,0:0:0:0:
64,192,198565,1,0,0:0:0:0:
320,192,198626,1,0,0:0:0:0:
192,192,198688,1,0,0:0:0:0:
64,192,198749,1,0,0:0:0:0:
448,192,198749,1,0,0:0:0:0:
320,192,198811,1,0,0:0:0:0:
192,192,198872,1,0,0:0:0:0:
448,192,198872,1,0,0:0:0:0:
64,192,198934,1,0,0:0:0:0:
192,192,198995,1,0,0:0:0:0:
320,192,199057,1,0,0:0:0:0:
64,192,199118,1,0,0:0:0:0:
448,192,199180,1,0,0:0:0:0:
192,192,199241,1,0,0:0:0:0:
64,192,199241,1,0,0:0:0:0:
320,192,199303,1,0,0:0:0:0:
192,192,199364,1,0,0:0:0:0:
448,192,199426,1,0,0:0:0:0:
64,192,199487,1,0,0:0:0:0:
320,192,199487,1,0,0:0:0:0:
192,192,199548,1,0,0:0:0:0:
320,192,199610,1,0,0:0:0:0:
448,192,199671,1,0,0:0:0:0:
64,192,199733,1,0,0:0:0:0:
192,192,199733,1,0,0:0:0:0:
320,192,199794,1,0,0:0:0:0:
64,192,199856,1,0,0:0:0:0:
448,192,199856,1,0,0:0:0:0:
192,192,199917,1,0,0:0:0:0:
320,192,199979,1,0,0:0:0:0:
64,192,200040,1,0,0:0:0:0:
448,192,200102,1,0,0:0:0:0:
320,192,200163,1,0,0:0:0:0:
192,192,200225,1,0,0:0:0:0:
64,192,200225,1,0,0:0:0:0:
448,192,200286,1,0,0:0:0:0:
320,192,200348,1,0,0:0:0:0:
192,192,200409,1,0,0:0:0:0:
64,192,200471,1,0,0:0:0:0:
320,192,200471,1,0,0:0:0:0:
448,192,200471,1,0,0:0:0:0:
192,192,200532,1,0,0:0:0:0:
448,192,200594,1,0,0:0:0:0:
320,192,200655,1,0,0:0:0:0:
64,192,200717,1,0,0:0:0:0:
192,192,200717,1,0,0:0:0:0:
448,192,200778,1,0,0:0:0:0:
320,192,200839,1,0,0:0:0:0:
64,192,200839,1,0,0:0:0:0:
192,192,200901,1,0,0:0:0:0:
320,192,200962,1,0,0:0:0:0:
64,192,200962,1,0,0:0:0:0:
448,192,200962,1,0,0:0:0:0:
192,192,201024,1,0,0:0:0:0:
448,192,201085,1,0,0:0:0:0:
320,192,201085,1,0,0:0:0:0:
64,192,201147,1,0,0:0:0:0:
192,192,201208,1,0,0:0:0:0:
320,192,201270,1,0,0:0:0:0:
64,192,201331,1,0,0:0:0:0:
192,192,201393,1,0,0:0:0:0:
448,192,201454,1,0,0:0:0:0:
320,192,201454,1,0,0:0:0:0:
64,192,201516,1,0,0:0:0:0:
448,192,201577,1,0,0:0:0:0:
64,192,201639,1,0,0:0:0:0:
320,192,201700,1,0,0:0:0:0:
192,192,201762,1,0,0:0:0:0:
320,192,201823,1,0,0:0:0:0:
192,192,201885,1,0,0:0:0:0:
64,192,201946,1,0,0:0:0:0:
320,192,202007,1,0,0:0:0:0:
64,192,202069,1,0,0:0:0:0:
320,192,202130,1,0,0:0:0:0:
448,192,202192,1,0,0:0:0:0:
192,192,202253,1,0,0:0:0:0:
320,192,202315,1,0,0:0:0:0:
64,192,202376,1,0,0:0:0:0:
192,192,202438,1,0,0:0:0:0:
448,192,202438,1,0,0:0:0:0:
320,192,202499,1,0,0:0:0:0:
64,192,202561,1,0,0:0:0:0:
448,192,202622,1,0,0:0:0:0:
320,192,202684,1,0,0:0:0:0:
192,192,202745,1,0,0:0:0:0:
320,192,202807,1,0,0:0:0:0:
448,192,202807,1,0,0:0:0:0:
64,192,202868,1,0,0:0:0:0:
192,192,202930,1,0,0:0:0:0:
192,192,202991,1,0,0:0:0:0:
320,192,203053,1,0,0:0:0:0:
320,192,203114,1,0,0:0:0:0:
64,192,203176,1,0,0:0:0:0:
448,192,203176,1,0,0:0:0:0:
64,192,203237,1,0,0:0:0:0:
192,192,203298,1,0,0:0:0:0:
192,192,203360,1,0,0:0:0:0:
448,192,203421,1,0,0:0:0:0:
64,192,203421,1,0,0:0:0:0:
320,192,203483,1,0,0:0:0:0:
64,192,203544,1,0,0:0:0:0:
192,192,203606,1,0,0:0:0:0:
448,192,203667,1,0,0:0:0:0:
64,192,203729,1,0,0:0:0:0:
192,192,203790,1,0,0:0:0:0:
320,192,203852,1,0,0:0:0:0:
64,192,203913,1,0,0:0:0:0:
192,192,203913,1,0,0:0:0:0:
448,192,203975,1,0,0:0:0:0:
320,192,204036,1,0,0:0:0:0:
64,192,204098,1,0,0:0:0:0:
192,192,204159,1,0,0:0:0:0:
448,192,204159,1,0,0:0:0:0:
320,192,204221,1,0,0:0:0:0:
64,192,204282,1,0,0:0:0:0:
448,192,204344,1,0,0:0:0:0:
320,192,204405,1,0,0:0:0:0:
192,192,204405,1,0,0:0:0:0:
64,192,204467,1,0,0:0:0:0:
320,192,204528,1,0,0:0:0:0:
448,192,204589,1,0,0:0:0:0:
192,192,204651,1,0,0:0:0:0:
64,192,204712,1,0,0:0:0:0:
192,192,204774,1,0,0:0:0:0:
448,192,204774,1,0,0:0:0:0:
320,192,204835,1,0,0:0:0:0:
64,192,204897,1,0,0:0:0:0:
64,192,204958,1,0,0:0:0:0:
320,192,205020,1,0,0:0:0:0:
320,192,205081,1,0,0:0:0:0:
192,192,205143,1,0,0:0:0:0:
448,192,205143,1,0,0:0:0:0:
448,192,205204,1,0,0:0:0:0:
64,192,205266,1,0,0:0:0:0:
320,192,205327,1,0,0:0:0:0:
192,192,205389,1,0,0:0:0:0:
448,192,205389,1,0,0:0:0:0:
64,192,205450,1,0,0:0:0:0:
320,192,205512,1,0,0:0:0:0:
192,192,205573,1,0,0:0:0:0:
64,192,205635,1,0,0:0:0:0:
448,192,205696,1,0,0:0:0:0:
320,192,205757,1,0,0:0:0:0:
192,192,205757,1,0,0:0:0:0:
64,192,205819,1,0,0:0:0:0:
448,192,205880,1,0,0:0:0:0:
192,192,205942,1,0,0:0:0:0:
64,192,206003,1,0,0:0:0:0:
320,192,206065,1,0,0:0:0:0:
192,192,206126,1,0,0:0:0:0:
448,192,206126,1,0,0:0:0:0:
320,192,206188,1,0,0:0:0:0:
64,192,206249,1,0,0:0:0:0:
192,192,206311,1,0,0:0:0:0:
448,192,206372,1,0,0:0:0:0:
320,192,206372,1,0,0:0:0:0:
64,192,206434,1,0,0:0:0:0:
320,192,206495,1,0,0:0:0:0:
192,192,206557,1,0,0:0:0:0:
448,192,206618,1,0,0:0:0:0:
320,192,206680,1,0,0:0:0:0:
64,192,206741,1,0,0:0:0:0:
192,192,206741,1,0,0:0:0:0:
320,192,206803,1,0,0:0:0:0:
448,192,206864,1,0,0:0:0:0:
448,192,206926,1,0,0:0:0:0:
192,192,206987,1,0,0:0:0:0:
192,192,207048,1,0,0:0:0:0:
64,192,207110,1,0,0:0:0:0:
320,192,207110,1,0,0:0:0:0:
320,192,207171,1,0,0:0:0:0:
64,192,207233,1,0,0:0:0:0:
192,192,207294,1,0,0:0:0:0:
320,192,207356,1,0,0:0:0:0:
448,192,207356,1,0,0:0:0:0:
64,192,207417,1,0,0:0:0:0:
192,192,207479,1,0,0:0:0:0:
448,192,207540,1,0,0:0:0:0:
320,192,207602,1,0,0:0:0:0:
64,192,207663,1,0,0:0:0:0:
192,192,207725,1,0,0:0:0:0:
448,192,207786,1,0,0:0:0:0:
320,192,207848,1,0,0:0:0:0:
64,192,207848,1,0,0:0:0:0:
192,192,207909,1,0,0:0:0:0:
320,192,207971,1,0,0:0:0:0:
448,192,208032,1,0,0:0:0:0:
64,192,208094,1,0,0:0:0:0:
192,192,208094,1,0,0:0:0:0:
448,192,208155,1,0,0:0:0:0:
192,192,208217,1,0,0:0:0:0:
320,192,208278,1,0,0:0:0:0:
64,192,208339,1,0,0:0:0:0:
448,192,208339,1,0,0:0:0:0:
192,192,208401,1,0,0:0:0:0:
320,192,208462,1,0,0:0:0:0:
64,192,208524,1,0,0:0:0:0:
448,192,208585,1,0,0:0:0:0:
192,192,208647,1,0,0:0:0:0:
320,192,208708,1,0,0:0:0:0:
64,192,208708,1,0,0:0:0:0:
448,192,208770,1,0,0:0:0:0:
192,192,208831,1,0,0:0:0:0:
192,192,208893,1,0,0:0:0:0:
320,192,208954,1,0,0:0:0:0:
320,192,209016,1,0,0:0:0:0:
448,192,209077,1,0,0:0:0:0:
64,192,209077,1,0,0:0:0:0:
192,192,209139,1,0,0:0:0:0:
64,192,209200,1,0,0:0:0:0:
320,192,209262,1,0,0:0:0:0:
192,192,209323,1,0,0:0:0:0:
448,192,209323,1,0,0:0:0:0:
192,192,209385,1,0,0:0:0:0:
64,192,209446,1,0,0:0:0:0:
64,192,209507,1,0,0:0:0:0:
320,192,209569,1,0,0:0:0:0:
192,192,209630,1,0,0:0:0:0:
448,192,209692,1,0,0:0:0:0:
320,192,209692,1,0,0:0:0:0:
64,192,209753,1,0,0:0:0:0:
448,192,209815,1,0,0:0:0:0:
448,192,209876,1,0,0:0:0:0:
192,192,209938,1,0,0:0:0:0:
192,192,209999,1,0,0:0:0:0:
320,192,210061,1,0,0:0:0:0:
64,192,210061,1,0,0:0:0:0:
448,192,210122,1,0,0:0:0:0:
320,192,210184,1,0,0:0:0:0:
448,192,210245,1,0,0:0:0:0:
64,192,210307,1,0,0:0:0:0:
192,192,210307,1,0,0:0:0:0:
320,192,210368,1,0,0:0:0:0:
64,192,210430,1,0,0:0:0:0:
320,192,210491,1,0,0:0:0:0:
192,192,210553,1,0,0:0:0:0:
64,192,210553,1,0,0:0:0:0:
448,192,210614,1,0,0:0:0:0:
64,192,210676,1,0,0:0:0:0:
192,192,210676,1,0,0:0:0:0:
320,192,210737,1,0,0:0:0:0:
448,192,210798,1,0,0:0:0:0:
448,192,210860,1,0,0:0:0:0:
192,192,210921,1,0,0:0:0:0:
192,192,210983,1,0,0:0:0:0:
64,192,211044,1,0,0:0:0:0:
320,192,211044,1,0,0:0:0:0:
64,192,211106,1,0,0:0:0:0:
448,192,211167,1,0,0:0:0:0:
320,192,211229,1,0,0:0:0:0:
192,192,211290,1,0,0:0:0:0:
64,192,211290,1,0,0:0:0:0:
448,192,211352,1,0,0:0:0:0:
320,192,211413,1,0,0:0:0:0:
64,192,211475,1,0,0:0:0:0:
448,192,211536,1,0,0:0:0:0:
192,192,211598,1,0,0:0:0:0:
320,192,211659,1,0,0:0:0:0:
448,192,211721,1,0,0:0:0:0:
64,192,211782,1,0,0:0:0:0:
192,192,211782,1,0,0:0:0:0:
320,192,211844,1,0,0:0:0:0:
192,192,211905,1,0,0:0:0:0:
448,192,211967,1,0,0:0:0:0:
64,192,212028,1,0,0:0:0:0:
320,192,212028,1,0,0:0:0:0:
192,192,212089,1,0,0:0:0:0:
448,192,212151,1,0,0:0:0:0:
64,192,212212,1,0,0:0:0:0:
320,192,212274,1,0,0:0:0:0:
448,192,212274,1,0,0:0:0:0:
64,192,212335,1,0,0:0:0:0:
192,192,212397,1,0,0:0:0:0:
448,192,212458,1,0,0:0:0:0:
320,192,212520,1,0,0:0:0:0:
64,192,212581,1,0,0:0:0:0:
192,192,212643,1,0,0:0:0:0:
448,192,212643,1,0,0:0:0:0:
320,192,212704,1,0,0:0:0:0:
64,192,212766,1,0,0:0:0:0:
64,192,212827,1,0,0:0:0:0:
192,192,212889,1,0,0:0:0:0:
192,192,212950,1,0,0:0:0:0:
448,192,213012,1,0,0:0:0:0:
320,192,213012,1,0,0:0:0:0:
448,192,213073,1,0,0:0:0:0:
64,192,213135,1,0,0:0:0:0:
320,192,213196,1,0,0:0:0:0:
192,192,213257,1,0,0:0:0:0:
64,192,213257,1,0,0:0:0:0:
448,192,213319,1,0,0:0:0:0:
64,192,213380,1,0,0:0:0:0:
320,192,213442,1,0,0:0:0:0:
192,192,213503,1,0,0:0:0:0:
448,192,213565,1,0,0:0:0:0:
320,192,213626,1,0,0:0:0:0:
64,192,213626,1,0,0:0:0:0:
192,192,213688,1,0,0:0:0:0:
64,192,213749,1,0,0:0:0:0:
320,192,213811,1,0,0:0:0:0:
448,192,213872,1,0,0:0:0:0:
192,192,213934,1,0,0:0:0:0:
320,192,213995,1,0,0:0:0:0:
448,192,213995,1,0,0:0:0:0:
64,192,214057,1,0,0:0:0:0:
320,192,214118,1,0,0:0:0:0:
192,192,214180,1,0,0:0:0:0:
64,192,214241,1,0,0:0:0:0:
448,192,214241,1,0,0:0:0:0:
320,192,214303,1,0,0:0:0:0:
64,192,214364,1,0,0:0:0:0:
192,192,214426,1,0,0:0:0:0:
320,192,214487,1,0,0:0:0:0:
448,192,214487,1,0,0:0:0:0:
64,192,214548,1,0,0:0:0:0:
192,192,214610,1,0,0:0:0:0:
448,192,214610,1,0,0:0:0:0:
320,192,214671,1,0,0:0:0:0:
64,192,214733,1,0,0:0:0:0:
64,192,214794,1,0,0:0:0:0:
448,192,214856,1,0,0:0:0:0:
448,192,214917,1,0,0:0:0:0:
192,192,214979,1,0,0:0:0:0:
64,192,214979,1,0,0:0:0:0:
320,192,215040,1,0,0:0:0:0:
448,192,215102,1,0,0:0:0:0:
64,192,215163,1,0,0:0:0:0:
192,192,215225,1,0,0:0:0:0:
448,192,215225,1,0,0:0:0:0:
320,192,215286,1,0,0:0:0:0:
192,192,215348,1,0,0:0:0:0:
448,192,215409,1,0,0:0:0:0:
320,192,215471,1,0,0:0:0:0:
64,192,215471,1,0,0:0:0:0:
192,192,215532,1,0,0:0:0:0:
64,192,215594,1,0,0:0:0:0:
448,192,215594,1,0,0:0:0:0:
320,192,215655,1,0,0:0:0:0:
192,192,215717,1,0,0:0:0:0:
448,192,215778,1,0,0:0:0:0:
64,192,215839,1,0,0:0:0:0:
192,192,215901,1,0,0:0:0:0:
320,192,215962,1,0,0:0:0:0:
448,192,215962,1,0,0:0:0:0:
64,192,216024,1,0,0:0:0:0:
192,192,216085,1,0,0:0:0:0:
448,192,216085,1,0,0:0:0:0:
64,192,216147,1,0,0:0:0:0:
192,192,216208,1,0,0:0:0:0:
320,192,216208,1,0,0:0:0:0:
448,192,216270,1,0,0:0:0:0:
64,192,216331,1,0,0:0:0:0:
192,192,216393,1,0,0:0:0:0:
448,192,216454,1,0,0:0:0:0:
320,192,216454,1,0,0:0:0:0:
64,192,216516,1,0,0:0:0:0:
192,192,216577,1,0,0:0:0:0:
448,192,216577,1,0,0:0:0:0:
320,192,216639,1,0,0:0:0:0:
64,192,216700,1,0,0:0:0:0:
64,192,216762,1,0,0:0:0:0:
192,192,216823,1,0,0:0:0:0:
448,192,216823,1,0,0:0:0:0:
192,192,216885,1,0,0:0:0:0:
320,192,216946,1,0,0:0:0:0:
320,192,217007,1,0,0:0:0:0:
192,192,217069,1,0,0:0:0:0:
64,192,217069,1,0,0:0:0:0:
448,192,217130,1,0,0:0:0:0:
64,192,217192,1,0,0:0:0:0:
192,192,217253,1,0,0:0:0:0:
320,192,217315,1,0,0:0:0:0:
448,192,217376,1,0,0:0:0:0:
448,192,217438,1,0,0:0:0:0:
320,192,217499,1,0,0:0:0:0:
192,192,217561,1,0,0:0:0:0:
64,192,217622,1,0,0:0:0:0:
320,192,217684,1,0,0:0:0:0:
192,192,217745,1,0,0:0:0:0:
320,192,217807,1,0,0:0:0:0:
192,192,217868,1,0,0:0:0:0:
64,192,217930,1,0,0:0:0:0:
448,192,217991,1,0,0:0:0:0:
64,192,218053,1,0,0:0:0:0:
448,192,218114,1,0,0:0:0:0:
192,192,218176,1,0,0:0:0:0:
320,192,218544,1,0,0:0:0:0:
64,192,218913,1,0,0:0:0:0:
448,192,219159,1,0,0:0:0:0:
192,192,219651,1,0,0:0:0:0:
192,192,219897,1,0,0:0:0:0:
64,192,220020,1,0,0:0:0:0:
320,192,220143,1,0,0:0:0:0:
192,192,220512,1,0,0:0:0:0:
64,192,220880,1,0,0:0:0:0:
192,192,221126,1,0,0:0:0:0:
320,192,221495,1,0,0:0:0:0:
192,192,221618,1,0,0:0:0:0:
64,192,221618,1,0,0:0:0:0:
448,192,221618,1,0,0:0:0:0:
320,192,221741,1,0,0:0:0:0:
64,192,221864,1,0,0:0:0:0:
192,192,221987,1,0,0:0:0:0:
448,192,222110,1,0,0:0:0:0:
64,192,222110,1,0,0:0:0:0:
320,192,222233,1,0,0:0:0:0:
192,192,222356,1,0,0:0:0:0:
320,192,222479,1,0,0:0:0:0:
448,192,222602,1,0,0:0:0:0:
192,192,222602,1,0,0:0:0:0:
64,192,222725,1,0,0:0:0:0:
320,192,222848,1,0,0:0:0:0:
192,192,222971,1,0,0:0:0:0:
64,192,223094,1,0,0:0:0:0:
320,192,223094,1,0,0:0:0:0:
448,192,223217,1,0,0:0:0:0:
192,192,223339,1,0,0:0:0:0:
64,192,223462,1,0,0:0:0:0:
320,192,223585,1,0,0:0:0:0:
448,192,223585,1,0,0:0:0:0:
320,192,223831,1,0,0:0:0:0:
448,192,223954,1,0,0:0:0:0:
192,192,224200,1,0,0:0:0:0:
64,192,224446,1,0,0:0:0:0:
192,192,224569,1,0,0:0:0:0:
448,192,224569,1,0,0:0:0:0:
320,192,224692,1,0,0:0:0:0:
192,192,224815,1,0,0:0:0:0:
64,192,224938,1,0,0:0:0:0:
448,192,224938,1,0,0:0:0:0:
320,192,225061,1,0,0:0:0:0:
192,192,225061,1,0,0:0:0:0:
448,192,225184,1,0,0:0:0:0:
320,192,225307,1,0,0:0:0:0:
192,192,225430,1,0,0:0:0:0:
64,192,225430,1,0,0:0:0:0:
320,192,225553,1,0,0:0:0:0:
448,192,225553,1,0,0:0:0:0:
192,192,225676,1,0,0:0:0:0:
64,192,225676,1,0,0:0:0:0:
448,192,225798,1,0,0:0:0:0:
64,192,225921,1,0,0:0:0:0:
320,192,225921,1,0,0:0:0:0:
192,192,226044,1,0,0:0:0:0:
448,192,226044,1,0,0:0:0:0:
64,192,226167,1,0,0:0:0:0:
320,192,226167,1,0,0:0:0:0:
192,192,226290,1,0,0:0:0:0:
320,192,226413,1,0,0:0:0:0:
192,192,226475,1,0,0:0:0:0:
448,192,226536,1,0,0:0:0:0:
64,192,226536,1,0,0:0:0:0:
192,192,226659,1,0,0:0:0:0:
64,192,226782,1,0,0:0:0:0:
320,192,226905,1,0,0:0:0:0:
192,192,226905,1,0,0:0:0:0:
448,192,227028,1,0,0:0:0:0:
320,192,227151,1,0,0:0:0:0:
192,192,227151,1,0,0:0:0:0:
64,192,227274,1,0,0:0:0:0:
320,192,227397,1,0,0:0:0:0:
192,192,227397,1,0,0:0:0:0:
448,192,227458,1,0,0:0:0:0:
64,192,227520,1,0,0:0:0:0:
320,192,227643,1,0,0:0:0:0:
192,192,227643,1,0,0:0:0:0:
448,192,227766,1,0,0:0:0:0:
192,192,227889,1,0,0:0:0:0:
64,192,228012,1,0,0:0:0:0:
320,192,228012,1,0,0:0:0:0:
448,192,228012,1,0,0:0:0:0:
192,192,228135,1,0,0:0:0:0:
448,192,228257,1,0,0:0:0:0:
320,192,228380,1,0,0:0:0:0:
64,192,228503,1,0,0:0:0:0:
192,192,228503,1,0,0:0:0:0:
320,192,228626,1,0,0:0:0:0:
192,192,228749,1,0,0:0:0:0:
448,192,228872,1,0,0:0:0:0:
64,192,228995,1,0,0:0:0:0:
320,192,228995,1,0,0:0:0:0:
192,192,229118,1,0,0:0:0:0:
448,192,229241,1,0,0:0:0:0:
64,192,229364,1,0,0:0:0:0:
448,192,229487,1,0,0:0:0:0:
192,192,229487,1,0,0:0:0:0:
320,192,229610,1,0,0:0:0:0:
64,192,229733,1,0,0:0:0:0:
192,192,229856,1,0,0:0:0:0:
320,192,229979,1,0,0:0:0:0:
64,192,229979,1,0,0:0:0:0:
192,192,230225,1,0,0:0:0:0:
320,192,230348,1,0,0:0:0:0:
320,192,230594,1,0,0:0:0:0:
448,192,230839,1,0,0:0:0:0:
320,192,230962,1,0,0:0:0:0:
64,192,230962,1,0,0:0:0:0:
192,192,231085,1,0,0:0:0:0:
448,192,231085,1,0,0:0:0:0:
320,192,231208,1,0,0:0:0:0:
64,192,231208,1,0,0:0:0:0:
192,192,231331,1,0,0:0:0:0:
448,192,231331,1,0,0:0:0:0:
192,192,231700,1,0,0:0:0:0:
320,192,231700,1,0,0:0:0:0:
64,192,231823,1,0,0:0:0:0:
448,192,231823,1,0,0:0:0:0:
320,192,231946,1,0,0:0:0:0:
192,192,231946,1,0,0:0:0:0:
64,192,232069,1,0,0:0:0:0:
448,192,232069,1,0,0:0:0:0:
320,192,232438,1,0,0:0:0:0:
448,192,232438,1,0,0:0:0:0:
192,192,232561,1,0,0:0:0:0:
64,192,232561,1,0,0:0:0:0:
320,192,232684,1,0,0:0:0:0:
448,192,232684,1,0,0:0:0:0:
64,192,232807,1,0,0:0:0:0:
192,192,232807,1,0,0:0:0:0:
448,192,233176,1,0,0:0:0:0:
192,192,233176,1,0,0:0:0:0:
64,192,233298,1,0,0:0:0:0:
192,192,233298,1,0,0:0:0:0:
448,192,233421,1,0,0:0:0:0:
320,192,233421,1,0,0:0:0:0:
64,192,233544,1,0,0:0:0:0:
448,192,233544,1,0,0:0:0:0:
192,192,233667,1,0,0:0:0:0:
320,192,233667,1,0,0:0:0:0:
64,192,233790,1,0,0:0:0:0:
320,192,233790,1,0,0:0:0:0:
192,192,233913,1,0,0:0:0:0:
64,192,233913,1,0,0:0:0:0:
448,192,234036,1,0,0:0:0:0:
192,192,234036,1,0,0:0:0:0:
320,192,234159,1,0,0:0:0:0:
64,192,234159,1,0,0:0:0:0:
64,192,234282,1,0,0:0:0:0:
448,192,234282,1,0,0:0:0:0:
320,192,234405,1,0,0:0:0:0:
448,192,234405,1,0,0:0:0:0:
192,192,234528,1,0,0:0:0:0:
320,192,234528,1,0,0:0:0:0:
